osu file format v14

[General]
AudioFilename: audio.mp3
AudioLeadIn: 0
PreviewTime: 54072
Countdown: 0
SampleSet: Soft
StackLeniency: 0.7
Mode: 0
LetterboxInBreaks: 0
WidescreenStoryboard: 0

[Editor]
Bookmarks: 285,3921,20284,34830,54223,68768,70586,85132,104525,119070,133615,148161,155434,162706,175434,178161,185434
DistanceSpacing: 0.8
BeatDivisor: 4
GridSize: 8
TimelineZoom: 1.9

[Metadata]
Title:Kimi ga Sora Koso Kanashikere
TitleUnicode:君ガ空コソカナシケレ
Artist:CHiCO with HoneyWorks
ArtistUnicode:CHiCO with HoneyWorks
Creator:Serizawa Haruki
Version:Taeyang's Extra
Source:
Tags:ハニーワークス ハニワ 世界はiに満ちている Sekai wa Ai ni Michiteiru 兎眠りおん Tone Rion 初音ミク Hatsune Miku ボーカロイド Vocaloid ゴム Gom フェルナンドP Fernando-P シト shito チョリスP Chorisu-P オジ Oji 海賊王 Kaizoku Ou Japanese Rock J-rock Jrock Jack J_a_c_k Cris- Kowari Akitoshi -Laura- Corinn Seolv [_L_u_k_a_s] Lukas William K William_K Taeyang Xen Xehn Xenon- Agatsu Elcheer
BeatmapID:2098880
BeatmapSetID:940746

[Difficulty]
HPDrainRate:6
CircleSize:3.6
OverallDifficulty:8.8
ApproachRate:9.2
SliderMultiplier:1.8
SliderTickRate:1

[Events]
//Background and Video events
0,0,"bg.jpg",0,0
//Break Periods
2,148361,154864
//Storyboard Layer 0 (Background)
//Storyboard Layer 1 (Fail)
//Storyboard Layer 2 (Pass)
//Storyboard Layer 3 (Foreground)
//Storyboard Layer 4 (Overlay)
//Storyboard Sound Samples

[TimingPoints]
285,303.030303030303,3,2,1,40,1,0
285,-200,4,2,1,40,0,0
3315,-200,4,2,1,60,0,0
3921,-100,4,2,1,70,0,0
18391,-100,4,2,1,5,0,0
18466,-100,4,2,1,60,0,0
20284,-133.333333333333,4,2,1,50,0,0
26648,-133.333333333333,4,2,1,60,0,0
34148,-133.333333333333,4,2,1,5,0,0
34224,-133.333333333333,4,2,1,60,0,0
34830,303.030303030303,4,2,1,60,1,0
34830,-111.111111111111,4,2,1,60,0,0
37178,-111.111111111111,4,2,1,5,0,0
37254,-111.111111111111,4,2,1,60,0,0
39602,-111.111111111111,4,2,1,5,0,0
39678,-111.111111111111,4,2,1,60,0,0
40814,-111.111111111111,4,2,1,5,0,0
40890,-111.111111111111,4,2,1,60,0,0
41420,-111.111111111111,4,2,1,5,0,0
41496,-111.111111111111,4,2,1,60,0,0
44148,-111.111111111111,4,2,1,5,0,0
44224,-111.111111111111,4,2,1,60,0,0
44451,-111.111111111111,4,2,1,5,0,0
44526,-111.111111111111,4,2,1,60,0,0
45663,-111.111111111111,4,2,1,5,0,0
45739,-111.111111111111,4,2,1,60,0,0
46875,-111.111111111111,4,2,1,5,0,0
46951,-111.111111111111,4,2,1,60,0,0
49299,-111.111111111111,4,2,1,5,0,0
49375,-111.111111111111,4,2,1,60,0,0
50208,-111.111111111111,4,2,1,5,0,0
50284,-111.111111111111,4,2,1,60,0,0
51723,-111.111111111111,4,2,1,5,0,0
51799,-111.111111111111,4,2,1,60,0,0
52633,-111.111111111111,4,2,1,5,0,0
52709,-111.111111111111,4,2,1,60,0,0
53011,-111.111111111111,4,2,1,70,0,0
53920,-133.333333333333,4,2,1,70,0,0
54147,-133.333333333333,4,2,1,5,0,0
54223,303.030303030303,3,2,1,80,1,1
54223,-80,4,2,1,80,0,1
67783,-80,4,2,1,5,0,1
67859,-100,4,2,1,80,0,1
68768,-166.666666666667,4,2,1,60,0,0
70586,-133.333333333333,4,2,1,50,0,0
70813,-133.333333333333,4,2,1,5,0,0
70889,-133.333333333333,4,2,1,50,0,0
71723,-133.333333333333,4,2,1,5,0,0
71799,-133.333333333333,4,2,1,50,0,0
72632,-133.333333333333,4,2,1,5,0,0
72708,-133.333333333333,4,2,1,50,0,0
74450,-133.333333333333,4,2,1,5,0,0
74526,-133.333333333333,4,2,1,50,0,0
75359,-133.333333333333,4,2,1,5,0,0
75435,-133.333333333333,4,2,1,50,0,0
76268,-133.333333333333,4,2,1,5,0,0
76344,-133.333333333333,4,2,1,50,0,0
76950,-133.333333333333,4,2,1,60,0,0
85056,-133.333333333333,4,2,1,5,0,0
85132,303.030303030303,4,2,1,60,1,0
85132,-111.111111111111,4,2,1,60,0,0
87480,-111.111111111111,4,2,1,5,0,0
87556,-111.111111111111,4,2,1,60,0,0
89904,-111.111111111111,4,2,1,5,0,0
89980,-111.111111111111,4,2,1,60,0,0
91116,-111.111111111111,4,2,1,5,0,0
91192,-111.111111111111,4,2,1,60,0,0
94753,-111.111111111111,4,2,1,5,0,0
94829,-111.111111111111,4,2,1,60,0,0
95965,-111.111111111111,4,2,1,5,0,0
96041,-111.111111111111,4,2,1,60,0,0
97177,-111.111111111111,4,2,1,5,0,0
97253,-111.111111111111,4,2,1,60,0,0
101722,-111.111111111111,4,2,1,5,0,0
101798,-111.111111111111,4,2,1,60,0,0
102935,-111.111111111111,4,2,1,5,0,0
103011,-111.111111111111,4,2,1,60,0,0
103313,-111.111111111111,4,2,1,70,0,0
104450,-111.111111111111,4,2,1,5,0,0
104525,303.030303030303,3,2,1,80,1,1
104525,-80,4,2,1,80,0,1
117479,-80,4,2,1,5,0,1
117555,-80,4,2,1,80,0,1
119070,-133.333333333333,4,2,1,50,0,0
119297,-133.333333333333,4,2,1,5,0,0
119373,-133.333333333333,4,2,1,50,0,0
120206,-133.333333333333,4,2,1,5,0,0
120282,-133.333333333333,4,2,1,50,0,0
121115,-133.333333333333,4,2,1,5,0,0
121191,-133.333333333333,4,2,1,50,0,0
122631,-133.333333333333,4,2,1,5,0,0
122707,-133.333333333333,4,2,1,50,0,0
122934,-133.333333333333,4,2,1,5,0,0
123009,-133.333333333333,4,2,1,50,0,0
123843,-133.333333333333,4,2,1,5,0,0
123919,-133.333333333333,4,2,1,50,0,0
124752,-133.333333333333,4,2,1,5,0,0
124828,-133.333333333333,4,2,1,50,0,0
126570,-133.333333333333,4,2,1,5,0,0
126646,-133.333333333333,4,2,1,50,0,0
127479,-133.333333333333,4,2,1,5,0,0
127555,-133.333333333333,4,2,1,50,0,0
128388,-133.333333333333,4,2,1,5,0,0
128464,-133.333333333333,4,2,1,50,0,0
129979,-133.333333333333,4,2,1,60,0,0
133615,-100,4,2,1,70,0,0
139979,-90.9090909090909,4,2,1,70,0,0
140282,-83.3333333333333,4,2,1,70,0,0
140585,-76.9230769230769,4,2,1,70,0,0
140888,-71.4285714285714,4,2,1,70,0,0
148161,-200,4,2,1,70,0,0
155434,-200,4,2,2,50,0,0
160888,-200,4,2,2,60,0,0
161797,-111.111111111111,4,2,2,60,0,0
162100,-100,4,2,2,60,0,0
162252,-90.9090909090909,4,2,2,60,0,0
162403,-83.3333333333333,4,2,2,60,0,0
162555,-76.9230769230769,4,2,2,60,0,0
162706,-71.4285714285714,4,2,1,80,0,1
168161,-100,4,2,1,80,0,1
169297,-100,4,2,1,5,0,1
169373,-100,4,2,1,80,0,1
169979,-71.4285714285714,4,2,1,80,0,1
173540,-71.4285714285714,4,2,1,5,0,1
173615,-71.4285714285714,4,2,1,80,0,1
175434,-133.333333333333,4,2,2,30,0,0
176343,-200,4,2,2,30,0,0
177176,-200,4,2,2,5,0,0
177252,-133.333333333333,4,2,2,30,0,0
178085,-133.333333333333,4,2,2,5,0,0
178161,-71.4285714285714,4,2,1,70,0,0
185358,-71.4285714285714,4,2,1,5,0,0
185434,-133.333333333333,4,2,2,30,0,0

[Colours]
Combo1 : 185,132,251
Combo2 : 255,181,43
Combo3 : 64,159,255
Combo4 : 252,109,24

[HitObjects]
73,193,285,6,0,L|126:199,1,45,2|2,0:0|0:0,0:0:0:0:
208,212,588,1,8,3:2:0:0:
208,212,891,1,8,3:2:0:0:
343,231,1194,6,0,L|290:225,1,45,2|2,0:0|0:0,0:0:0:0:
208,212,1497,1,8,3:2:0:0:
208,212,1800,1,8,3:2:0:0:
227,77,2103,6,0,L|221:130,1,45,2|2,0:0|0:0,0:0:0:0:
208,212,2406,1,8,3:2:0:0:
208,212,2709,1,8,3:2:0:0:
189,347,3012,6,0,L|195:294,1,45,8|2,0:0|0:0,0:0:0:0:
227,77,3315,5,8,3:2:0:0:
208,212,3466,1,2,3:2:0:0:
227,77,3618,1,8,3:2:0:0:
227,76,3921,6,0,P|270:66|313:75,1,90,12|0,0:0|0:0,0:0:0:0:
456,119,4224,2,0,L|450:212,1,90,8|2,0:0|0:0,0:0:0:0:
443,290,4451,1,2,0:0:0:0:
443,290,4527,1,8,0:0:0:0:
304,333,4678,1,2,0:0:0:0:
368,151,4830,6,0,L|362:244,1,90,12|2,0:0|0:0,0:0:0:0:
190,278,5133,2,0,P|180:254|176:215,2,45,8|0|2,0:0|0:0|0:0,0:0:0:0:
223,353,5436,2,0,P|179:360|138:343,1,90,8|2,0:0|0:0,0:0:0:0:
80,282,5663,1,2,0:0:0:0:
80,282,5739,5,12,0:0:0:0:
189,88,5891,1,2,0:0:0:0:
29,145,6042,2,0,P|72:155|117:154,1,90,8|2,0:0|0:0,0:0:0:0:
272,63,6345,2,0,P|315:53|360:54,1,90,8|2,0:0|0:0,0:0:0:0:
439,81,6572,1,2,0:0:0:0:
439,81,6648,5,12,0:0:0:0:
446,220,6800,2,0,L|401:214,1,45,2|2,0:0|0:0,0:0:0:0:
508,144,6951,1,12,0:0:0:0:
395,300,7103,2,0,L|350:294,1,45,2|2,0:0|0:0,0:0:0:0:
189,263,7254,2,0,B|170:291|170:291|179:347,1,90,12|2,0:0|0:0,0:0:0:0:
256,205,7481,1,2,0:0:0:0:
242,193,7557,6,0,P|201:175|157:185,1,90,12|2,0:0|0:0,0:0:0:0:
65,325,7860,2,0,P|82:264|63:211,1,90,8|2,0:0|0:0,0:0:0:0:
41,167,8088,1,2,0:0:0:0:
41,167,8163,1,8,0:0:0:0:
147,41,8315,1,2,0:0:0:0:
158,184,8466,5,12,0:0:0:0:
36,87,8618,1,2,0:0:0:0:
36,87,8694,1,2,0:0:0:0:
35,87,8769,2,0,P|29:116|33:143,2,45,8|0|2,0:0|0:0|0:0,0:0:0:0:
147,41,9072,2,0,L|251:49,1,90,8|2,0:0|0:0,0:0:0:0:
319,57,9300,1,2,0:0:0:0:
319,57,9375,6,0,P|332:117|315:164,1,90,12|2,0:0|0:0,0:0:0:0:
189,254,9678,2,0,P|234:212|283:203,1,90,8|2,0:0|0:0,0:0:0:0:
255,371,9981,2,0,P|255:327|274:287,1,90,8|2,0:0|0:0,0:0:0:0:
340,238,10209,1,2,0:0:0:0:
340,238,10285,5,12,0:0:0:0:
393,349,10436,1,0,3:0:0:0:
426,190,10588,1,2,3:2:0:0:
388,369,10739,1,0,3:0:0:0:
310,148,10891,1,0,3:0:0:0:
490,289,11042,1,0,3:0:0:0:
255,371,11194,6,0,B|235:343|235:343|238:287,1,90,12|0,0:0|0:0,0:0:0:0:
71,256,11497,2,0,P|113:269|157:259,1,90,8|2,0:0|0:0,0:0:0:0:
223,205,11724,1,2,0:0:0:0:
223,205,11800,1,8,0:0:0:0:
252,80,11951,1,2,0:0:0:0:
87,105,12103,6,0,P|87:144|116:186,1,90,12|2,0:0|0:0,0:0:0:0:
303,236,12406,2,0,L|360:232,2,45,8|0|2,0:0|0:0|0:0,0:0:0:0:
220,325,12709,2,0,P|264:331|309:332,1,90,8|2,0:0|0:0,0:0:0:0:
387,311,12936,1,2,0:0:0:0:
387,311,13012,5,12,0:0:0:0:
413,137,13163,1,2,0:0:0:0:
479,287,13315,2,0,P|485:228|481:184,1,90,8|2,0:0|0:0,0:0:0:0:
351,70,13618,2,0,B|309:56|309:56|261:69,1,90,8|2,0:0|0:0,0:0:0:0:
191,96,13845,1,2,0:0:0:0:
191,96,13921,5,12,0:0:0:0:
247,231,14072,2,0,L|251:164,1,45,2|2,0:0|0:0,0:0:0:0:
153,278,14224,1,12,0:0:0:0:
342,227,14375,1,12,0:0:0:0:
132,283,14527,1,12,0:0:0:0:
356,325,14678,1,2,0:0:0:0:
356,325,14754,1,2,0:0:0:0:
356,325,14830,5,12,0:0:0:0:
262,170,14981,1,2,0:0:0:0:
182,353,15133,2,0,P|148:369|83:354,1,90,8|2,0:0|0:0,0:0:0:0:
175,210,15436,2,0,P|164:253|132:283,1,90,8|2,0:0|0:0,0:0:0:0:
1,203,15663,1,2,0:0:0:0:
14,192,15739,6,0,P|60:182|96:216,1,90,12|2,0:0|0:0,0:0:0:0:
16,328,16042,2,0,P|11:303|14:256,2,45,8|0|2,0:0|0:0|0:0,0:0:0:0:
97,363,16345,2,0,P|141:370|182:353,1,90,8|2,0:0|0:0,0:0:0:0:
249,303,16572,1,2,0:0:0:0:
249,303,16648,6,0,P|292:294|333:311,1,90,12|2,0:0|0:0,0:0:0:0:
247,153,16951,2,0,P|234:195|199:222,1,90,8|2,0:0|0:0,0:0:0:0:
377,226,17254,2,0,P|348:193|341:150,1,90,8|2,0:0|0:0,0:0:0:0:
371,73,17481,1,2,0:0:0:0:
371,73,17557,5,12,0:0:0:0:
390,249,17709,1,2,0:0:0:0:
288,67,17860,1,12,0:0:0:0:
287,270,18012,1,2,0:0:0:0:
205,51,18163,2,0,P|138:40|74:68,1,135,12|0,0:0|0:0,0:0:0:0:
24,126,18466,5,2,3:2:0:0:
292,242,18769,5,8,3:2:0:0:
163,226,18921,1,2,3:2:0:0:
421,258,19072,1,8,3:2:0:0:
57,347,19375,5,2,3:2:0:0:
292,242,19678,5,8,3:2:0:0:
276,371,19830,1,2,3:2:0:0:
308,113,19981,1,8,3:2:0:0:
292,242,20133,1,2,3:2:0:0:
276,371,20284,6,0,L|126:359,1,135.000005149842,6|2,3:2|0:0,0:0:0:0:
60,305,20739,2,0,P|58:259|72:226,1,67.5000025749208,2|2,0:3|0:0,0:0:0:0:
350,175,21194,6,0,P|380:234|360:297,1,135.000005149842,2|2,3:2|0:0,0:0:0:0:
273,304,21648,2,0,P|276:271|292:242,1,67.5000025749208,2|2,0:3|0:0,0:0:0:0:
441,95,22103,6,0,L|289:85,1,135.000005149842,2|2,3:2|0:0,0:0:0:0:
227,134,22557,2,0,P|178:146|157:139,1,67.5000025749208,2|2,0:3|0:0,0:0:0:0:
21,41,23012,6,0,P|41:84|31:184,1,135.000005149842,2|2,3:2|0:0,0:0:0:0:
3,262,23466,2,0,L|6:329,1,67.5000025749208,2|2,0:3|0:0,0:0:0:0:
203,174,23921,6,0,L|199:323,1,135.000005149842,2|2,3:2|0:0,0:0:0:0:
290,348,24375,2,0,P|307:321|308:288,1,67.5000025749208,2|2,0:3|0:0,0:0:0:0:
141,112,24830,6,0,P|207:126|272:110,1,135.000005149842,2|2,3:2|0:0,0:0:0:0:
356,58,25284,2,0,P|388:49|421:55,1,67.5000025749208,2|2,0:3|0:0,0:0:0:0:
472,289,25739,6,0,P|401:291|317:278,1,135.000005149842,2|2,3:2|0:0,0:0:0:0:
260,328,26194,2,0,P|247:296|249:263,1,67.5000025749208,2|2,0:3|0:0,0:0:0:0:
344,69,26648,5,2,3:2:0:0:
421,195,26800,1,8,3:2:0:0:
421,195,26875,1,8,3:2:0:0:
421,195,26951,1,2,3:2:0:0:
254,149,27103,1,8,3:2:0:0:
359,55,27254,1,2,3:2:0:0:
339,268,27406,1,8,3:2:0:0:
240,136,27557,6,0,P|207:127|174:133,1,67.5000025749208,6|8,0:0|0:0,0:0:0:0:
150,145,27784,1,8,0:0:0:0:
150,145,27860,1,0,3:0:0:0:
90,227,28012,1,2,3:2:0:0:
222,310,28163,1,0,3:0:0:0:
205,216,28315,1,0,3:0:0:0:
44,300,28466,6,0,P|88:313|120:305,1,67.5000025749208,6|8,0:0|0:0,0:0:0:0:
134,300,28694,1,8,0:0:0:0:
134,300,28769,1,2,3:2:0:0:
240,136,28921,1,2,3:2:0:0:
298,248,29072,1,0,3:0:0:0:
233,119,29224,1,0,3:0:0:0:
306,263,29375,6,0,P|337:273|370:266,1,67.5000025749208,6|8,0:0|0:0,0:0:0:0:
395,255,29603,1,8,0:0:0:0:
395,255,29678,1,0,3:0:0:0:
462,152,29830,1,2,3:2:0:0:
332,91,29981,1,2,3:2:0:0:
345,184,30133,1,0,3:0:0:0:
508,72,30284,6,0,L|418:64,1,67.5000025749208,6|8,0:0|0:0,0:0:0:0:
414,65,30512,1,8,0:0:0:0:
414,65,30588,1,0,3:0:0:0:
264,150,30739,1,0,3:0:0:0:
236,30,30891,1,2,3:2:0:0:
215,229,31042,1,2,3:2:0:0:
142,77,31194,6,0,P|151:141|144:173,1,67.5000025749208,6|0,0:0|0:0,0:0:0:0:
136,167,31421,1,8,0:0:0:0:
136,167,31497,1,2,3:2:0:0:
23,246,31648,1,2,3:2:0:0:
150,358,31800,1,0,3:0:0:0:
133,263,31951,1,0,3:0:0:0:
2,347,32103,6,0,L|69:351,1,67.5000025749208,6|8,0:0|0:0,0:0:0:0:
97,353,32330,1,8,0:0:0:0:
97,353,32406,1,2,3:2:0:0:
228,232,32557,1,2,3:2:0:0:
235,332,32709,1,0,3:0:0:0:
133,263,32860,1,0,3:0:0:0:
239,216,33012,6,0,P|251:186|249:152,1,67.5000025749208,6|8,0:0|0:0,0:0:0:0:
238,128,33239,1,8,0:0:0:0:
238,128,33315,1,0,3:0:0:0:
119,50,33466,1,2,3:2:0:0:
125,147,33618,1,0,3:0:0:0:
247,35,33769,1,2,3:2:0:0:
45,119,33921,6,0,P|41:168|66:211,1,101.250003862381,2|0,3:2|0:0,0:0:0:0:
139,248,34224,1,2,3:2:0:0:
300,223,34375,1,0,3:0:0:0:
210,304,34527,1,0,3:0:0:0:
362,315,34678,1,0,3:0:0:0:
336,144,34830,6,0,P|297:134|259:146,1,80.9999975280763,6|2,0:0|0:0,0:0:0:0:
419,243,35133,2,0,L|422:162,1,80.9999975280763,8|2,0:0|0:0,0:0:0:0:
475,83,35360,1,8,0:0:0:0:
462,72,35436,2,0,P|422:79|382:75,1,80.9999975280763,2|2,0:0|0:3,0:0:0:0:
230,30,35739,2,0,P|191:25|155:42,1,80.9999975280763,8|0,0:0|0:0,0:0:0:0:
224,239,36042,5,2,0:0:0:0:
289,94,36193,1,2,0:0:0:0:
107,122,36345,2,0,L|111:219,1,80.9999975280763,8|2,0:0|0:0,0:0:0:0:
149,369,36648,2,0,P|144:323|152:288,1,80.9999975280763,2|2,0:0|0:3,0:0:0:0:
285,180,36951,2,0,P|305:230|286:286,1,121.499996292114,8|0,0:0|0:0,0:0:0:0:
290,290,37254,6,0,P|330:283|369:291,1,80.9999975280763,2|2,0:0|0:0,0:0:0:0:
470,366,37557,2,0,L|479:275,1,80.9999975280763,8|2,0:0|0:0,0:0:0:0:
441,213,37784,1,8,0:0:0:0:
441,213,37860,2,0,P|428:171|432:122,1,80.9999975280763,2|2,0:0|0:3,0:0:0:0:
464,34,38163,2,0,P|464:74|448:111,1,80.9999975280763,8|2,0:0|0:3,0:0:0:0:
255,157,38466,5,2,0:0:0:0:
377,60,38617,2,0,L|291:52,1,80.9999975280763,2|8,0:0|0:0,0:0:0:0:
153,36,38920,1,2,0:3:0:0:
264,166,39072,2,0,P|278:215|251:259,1,80.9999975280763,2|2,0:0|0:0,0:0:0:0:
90,240,39375,2,0,P|136:203|195:209,1,121.499996292114,12|0,0:0|0:0,0:0:0:0:
267,242,39678,5,6,0:0:0:0:
244,352,39830,1,2,0:0:0:0:
396,290,39981,2,0,L|394:209,1,80.9999975280763,8|2,0:0|0:0,0:0:0:0:
394,176,40208,1,8,0:0:0:0:
394,176,40284,1,2,0:0:0:0:
492,300,40436,1,2,0:3:0:0:
451,113,40587,2,0,P|398:89|341:107,1,121.499996292114,8|0,0:0|0:0,0:0:0:0:
325,124,40890,5,2,0:0:0:0:
185,73,41042,1,2,0:0:0:0:
126,227,41193,2,0,B|181:237|181:237|238:215,1,121.499996292114,8|0,0:0|0:0,0:0:0:0:
242,220,41496,2,0,L|244:139,1,80.9999975280763,2|2,0:0|0:3,0:0:0:0:
325,292,41799,2,0,L|327:211,1,80.9999975280763,8|0,0:0|0:0,0:0:0:0:
250,346,42102,6,0,P|181:360|155:351,1,80.9999975280763,2|2,0:0|0:0,0:0:0:0:
325,292,42405,2,0,P|365:289|403:304,1,80.9999975280763,8|2,0:0|0:0,0:0:0:0:
462,156,42708,2,0,L|464:236,1,80.9999975280763,2|2,0:0|0:3,0:0:0:0:
370,103,43011,2,0,L|372:183,1,80.9999975280763,12|2,0:0|0:3,0:0:0:0:
355,371,43314,5,2,3:2:0:0:
189,263,43466,1,8,3:2:0:0:
372,183,43617,1,8,3:2:0:0:
250,346,43769,1,8,3:2:0:0:
126,204,43920,2,0,P|178:176|236:189,1,121.499996292114,2|0,3:2|0:0,0:0:0:0:
286,253,44223,2,0,P|285:195|291:131,1,121.499996292114,0|0,3:0|0:0,0:0:0:0:
346,71,44526,5,6,0:0:0:0:
454,214,44678,1,2,0:0:0:0:
332,327,44830,2,0,P|294:341|255:334,1,80.9999975280763,8|2,0:0|0:0,0:0:0:0:
189,263,45057,1,8,0:0:0:0:
189,263,45133,2,0,P|151:249|112:256,1,80.9999975280763,2|2,0:0|0:3,0:0:0:0:
85,367,45436,2,0,P|115:316|112:256,1,121.499996292114,8|0,0:0|0:0,0:0:0:0:
67,185,45739,5,2,0:0:0:0:
9,309,45890,1,2,0:0:0:0:
76,169,46042,2,0,P|113:153|154:149,1,80.9999975280763,8|2,0:0|0:0,0:0:0:0:
234,182,46269,1,8,0:0:0:0:
234,182,46345,2,0,P|271:198|311:195,1,80.9999975280763,2|2,0:0|0:3,0:0:0:0:
445,126,46648,2,0,L|438:247,1,121.499996292114,8|0,0:0|0:0,0:0:0:0:
431,329,46951,5,2,0:0:0:0:
310,194,47102,1,2,0:0:0:0:
306,350,47254,2,0,P|329:317|338:278,1,80.9999975280763,8|2,0:0|0:0,0:0:0:0:
310,194,47481,1,0,0:0:0:0:
310,194,47557,2,0,P|261:207|208:192,1,80.9999975280763,2|2,0:0|0:3,0:0:0:0:
103,155,47860,1,8,0:0:0:0:
268,97,48011,1,2,0:3:0:0:
232,287,48163,6,0,P|192:281|161:256,1,80.9999975280763,2|2,0:0|0:0,0:0:0:0:
46,338,48466,2,0,P|30:294|34:254,1,80.9999975280763,8|2,0:0|0:3,0:0:0:0:
103,155,48769,1,2,0:0:0:0:
161,256,48920,1,2,0:0:0:0:
38,103,49072,2,0,L|159:95,1,121.499996292114,12|0,0:0|0:0,0:0:0:0:
237,122,49375,6,0,P|249:160|238:198,1,80.9999975280763,6|2,0:0|0:0,0:0:0:0:
224,37,49678,2,0,P|266:38|299:62,1,80.9999975280763,8|2,0:0|0:0,0:0:0:0:
330,142,49905,1,8,0:0:0:0:
330,142,49981,2,0,P|416:187|444:152,1,121.499996292114,2|0,0:0|0:0,0:0:0:0:
430,105,50284,2,0,P|417:142|421:182,1,80.9999975280763,8|0,0:0|0:0,0:0:0:0:
476,289,50587,5,2,0:0:0:0:
325,321,50739,1,2,0:0:0:0:
476,289,50890,2,0,P|431:274|392:280,1,80.9999975280763,8|2,0:0|0:0,0:0:0:0:
251,365,51193,2,0,P|211:360|162:357,1,80.9999975280763,2|2,0:0|0:3,0:0:0:0:
23,364,51496,2,0,P|68:339|86:265,1,121.499996292114,12|0,0:0|0:0,0:0:0:0:
47,203,51799,5,2,0:0:0:0:
180,253,51951,1,2,0:0:0:0:
168,105,52102,1,8,0:0:0:0:
87,275,52254,1,2,0:0:0:0:
264,230,52405,2,0,P|291:163|271:100,1,121.499996292114,2|0,0:0|0:0,0:0:0:0:
255,30,52708,2,0,P|252:69|269:105,1,80.9999975280763,12|0,0:0|0:0,0:0:0:0:
466,236,53011,5,2,3:2:0:0:
342,54,53163,1,8,3:2:0:0:
384,269,53314,1,8,3:2:0:0:
428,76,53466,1,8,3:2:0:0:
303,301,53617,2,0,L|208:290,1,80.9999975280763,8|2,3:2|3:2,0:0:0:0:
63,263,53920,2,0,P|45:308|76:345,1,101.250003862381,0|0,3:0|0:0,0:0:0:0:
158,342,54223,5,12,0:0:0:0:
99,179,54374,1,0,0:0:0:0:
158,342,54526,2,0,P|164:289|168:210,1,112.5,8|2,0:0|0:0,0:0:0:0:
132,58,54829,1,8,0:0:0:0:
13,188,54980,1,2,0:0:0:0:
202,113,55132,6,0,P|221:61|205:8,1,112.5,12|0,0:0|0:0,0:0:0:0:
99,179,55435,2,0,B|126:207|126:207|208:202,1,112.5,8|2,0:0|0:0,0:0:0:0:
411,177,55738,1,8,0:0:0:0:
291,333,55889,1,2,0:0:0:0:
310,167,56041,6,0,L|319:54,1,112.5,12|0,0:0|0:0,0:0:0:0:
199,202,56344,1,8,0:0:0:0:
358,253,56495,1,2,0:0:0:0:
227,122,56647,2,0,P|172:121|128:154,1,112.5,8|2,0:0|0:0,0:0:0:0:
123,237,56874,1,2,0:0:0:0:
123,237,56950,5,12,0:0:0:0:
209,360,57101,1,2,0:0:0:0:
50,304,57253,1,12,0:0:0:0:
220,217,57404,2,0,L|221:303,1,56.25,2|2,0:0|0:0,0:0:0:0:
291,333,57556,2,0,P|354:329|380:263,1,112.5,12|2,0:0|0:0,0:0:0:0:
328,115,57859,5,12,0:0:0:0:
453,240,58010,1,2,0:0:0:0:
328,115,58162,2,0,P|313:168|328:222,1,112.5,8|2,0:0|0:0,0:0:0:0:
379,291,58389,1,2,0:0:0:0:
379,291,58465,1,8,0:0:0:0:
261,363,58616,1,2,0:0:0:0:
261,363,58692,1,2,0:0:0:0:
261,363,58768,6,0,L|141:354,1,112.5,12|2,0:0|0:0,0:0:0:0:
58,314,58995,1,2,0:0:0:0:
41,301,59071,2,0,B|22:248|22:248|39:194,1,112.5,8|2,0:0|0:0,0:0:0:0:
217,234,59374,2,0,P|160:257|86:208,1,112.5,8|2,0:0|0:0,0:0:0:0:
39,194,59601,1,2,0:0:0:0:
39,194,59677,5,12,0:0:0:0:
143,50,59829,1,2,0:0:0:0:
250,153,59980,1,8,0:0:0:0:
72,109,60132,1,2,0:0:0:0:
72,109,60207,1,2,0:0:0:0:
72,109,60283,1,8,0:0:0:0:
244,25,60435,1,2,0:0:0:0:
244,25,60510,1,2,0:0:0:0:
244,25,60586,6,0,L|236:148,1,112.5,12|2,0:0|0:0,0:0:0:0:
217,333,60889,1,12,0:0:0:0:
135,182,61041,1,12,0:0:0:0:
310,266,61192,2,0,B|361:287|361:287|416:274,1,112.5,12|2,0:0|0:0,0:0:0:0:
473,210,61419,1,2,0:0:0:0:
473,210,61495,5,12,0:0:0:0:
383,63,61647,1,2,0:0:0:0:
372,194,61798,2,0,L|383:70,1,112.5,8|2,0:0|0:0,0:0:0:0:
225,53,62101,1,8,0:0:0:0:
253,199,62253,1,2,0:0:0:0:
127,54,62404,6,0,P|95:100|102:160,1,112.5,12|2,0:0|0:0,0:0:0:0:
253,199,62707,2,0,P|229:147|174:123,1,112.5,8|2,0:0|0:0,0:0:0:0:
64,235,63010,2,0,P|120:240|168:204,1,112.5,8|2,0:0|0:0,0:0:0:0:
277,76,63238,1,2,0:0:0:0:
292,64,63313,6,0,B|346:51|346:51|402:67,1,112.5,12|2,0:0|0:0,0:0:0:0:
502,229,63616,2,0,L|493:342,1,112.5,8|2,0:0|0:0,0:0:0:0:
354,362,63844,1,2,0:0:0:0:
339,351,63919,2,0,P|331:259|361:219,1,112.5,8|2,0:0|0:0,0:0:0:0:
396,182,64147,1,2,0:0:0:0:
396,182,64223,5,12,0:0:0:0:
292,64,64374,1,2,0:0:0:0:
292,64,64450,1,2,0:0:0:0:
292,64,64526,1,12,0:0:0:0:
250,202,64677,1,2,0:0:0:0:
250,202,64753,1,2,0:0:0:0:
250,202,64829,1,12,0:0:0:0:
437,109,64980,1,2,0:0:0:0:
437,109,65056,1,2,0:0:0:0:
437,109,65132,6,0,B|454:57|454:57|427:-9,1,112.5,12|2,0:0|0:0,0:0:0:0:
214,109,65435,2,0,L|70:102,1,112.5,8|2,0:0|0:0,0:0:0:0:
263,221,65738,1,8,0:0:0:0:
315,63,65889,1,2,0:0:0:0:
100,103,66041,6,0,P|80:154|92:208,1,112.5,12|8,0:0|0:0,0:0:0:0:
154,267,66268,1,8,0:0:0:0:
154,267,66344,1,10,0:0:0:0:
354,185,66495,1,8,0:0:0:0:
205,126,66647,1,10,0:0:0:0:
254,321,66798,1,8,0:0:0:0:
312,100,66950,5,10,0:0:0:0:
248,341,67101,1,8,0:0:0:0:
188,121,67253,1,10,0:0:0:0:
430,214,67404,1,8,0:0:0:0:
169,296,67556,2,0,P|104:249|116:170,1,168.75,6|0,0:0|0:0,0:0:0:0:
188,121,67859,6,0,B|249:142|296:114|296:114|333:110|362:125,2,180,12|2|2,0:0|0:0|0:0,0:0:0:0:
435,77,68768,6,0,P|448:140|426:183,1,107.999996704102,2|2,3:2|3:2,0:0:0:0:
346,229,69223,1,0,0:0:0:0:
463,294,69374,2,0,L|406:287,1,53.9999983520508,2|0,3:2|3:0,0:0:0:0:
274,183,69677,6,0,P|234:175|194:179,1,80.9999975280763,2|2,3:2|0:3,0:0:0:0:
175,191,69980,1,2,3:2:0:0:
182,306,70132,1,8,3:2:0:0:
96,151,70283,1,8,3:2:0:0:
72,345,70435,1,8,3:2:0:0:
263,285,70586,6,0,B|315:273|315:273|378:295,1,101.250003862381,6|0,0:0|0:0,0:0:0:0:
375,297,70889,2,0,L|380:229,1,67.5000025749208,2|0,0:0|0:0,0:0:0:0:
390,123,71192,1,2,0:0:0:0:
390,123,71495,6,0,P|326:136|278:120,1,101.250003862381,2|0,0:0|0:0,0:0:0:0:
277,120,71798,2,0,P|248:102|215:98,1,67.5000025749208,2|2,0:0|0:3,0:0:0:0:
91,122,72101,1,2,0:0:0:0:
91,122,72404,6,0,L|92:248,1,101.250003862381,2|0,0:0|0:0,0:0:0:0:
103,237,72707,2,0,L|104:316,1,67.5000025749208,2|2,0:0|0:3,0:0:0:0:
249,342,73010,1,2,0:0:0:0:
163,377,73162,1,2,0:3:0:0:
206,266,73313,6,0,P|255:254|302:271,1,101.250003862381,2|2,0:0|0:3,0:0:0:0:
368,324,73616,2,0,L|365:376,2,45.0000017166138,2|0|0,0:0|0:0|0:0,0:0:0:0:
418,250,73919,2,0,B|438:226|438:226|434:156,1,101.250003862381,2|2,0:0|0:3,0:0:0:0:
407,79,74223,6,0,P|358:90|308:81,1,101.250003862381,2|0,0:0|0:0,0:0:0:0:
294,75,74526,2,0,P|299:108|301:141,1,67.5000025749208,2|2,0:0|0:3,0:0:0:0:
302,271,74829,1,2,0:0:0:0:
302,271,75132,6,0,P|255:254|207:267,1,101.250003862381,2|0,0:0|0:0,0:0:0:0:
191,273,75435,2,0,P|159:286|126:284,1,67.5000025749208,2|2,0:0|0:3,0:0:0:0:
42,176,75738,1,2,0:0:0:0:
42,176,76041,6,0,L|174:182,1,101.250003862381,2|0,0:0|0:0,0:0:0:0:
161,181,76344,2,0,P|193:174|220:154,1,67.5000025749208,2|2,0:0|0:3,0:0:0:0:
272,23,76647,1,6,0:0:0:0:
307,121,76798,1,0,0:0:0:0:
166,71,76950,5,2,0:0:0:0:
361,47,77101,1,8,0:0:0:0:
361,47,77177,1,8,0:0:0:0:
361,47,77253,1,2,0:0:0:0:
289,232,77404,1,0,3:0:0:0:
393,151,77556,1,2,3:2:0:0:
419,324,77707,1,2,3:2:0:0:
271,220,77859,6,0,P|239:210|206:214,1,67.5000025749208,6|8,0:0|0:0,0:0:0:0:
182,225,78086,1,8,0:0:0:0:
182,225,78162,1,0,3:0:0:0:
65,330,78313,1,2,3:2:0:0:
84,226,78465,1,0,3:0:0:0:
62,350,78616,1,2,3:2:0:0:
87,206,78768,6,0,L|101:107,1,67.5000025749208,6|2,0:0|0:0,0:0:0:0:
102,112,78995,1,2,0:0:0:0:
102,112,79071,1,2,3:2:0:0:
275,104,79223,1,2,3:2:0:0:
255,192,79374,1,0,3:0:0:0:
188,130,79526,1,0,3:0:0:0:
246,24,79677,6,0,P|279:16|312:27,1,67.5000025749208,6|2,0:0|0:0,0:0:0:0:
334,41,79904,1,2,0:0:0:0:
334,41,79980,1,0,3:0:0:0:
383,167,80132,1,2,3:2:0:0:
471,150,80283,1,0,3:0:0:0:
413,83,80435,1,2,3:2:0:0:
355,246,80586,6,0,L|287:239,1,67.5000025749208,6|8,0:0|0:0,0:0:0:0:
261,234,80813,1,8,0:0:0:0:
261,234,80889,1,0,3:0:0:0:
116,302,81041,1,2,3:2:0:0:
157,220,81192,1,0,3:0:0:0:
196,351,81344,1,2,3:2:0:0:
38,339,81495,6,0,P|27:300|38:267,1,67.5000025749208,6|0,0:0|0:0,0:0:0:0:
48,251,81723,1,8,0:0:0:0:
48,251,81798,1,0,3:0:0:0:
176,212,81950,1,2,3:2:0:0:
95,161,82101,1,0,3:0:0:0:
117,303,82253,1,2,3:2:0:0:
256,246,82404,6,0,P|267:207|256:174,1,67.5000025749208,6|8,0:0|0:0,0:0:0:0:
246,158,82632,1,8,0:0:0:0:
246,158,82707,1,0,3:0:0:0:
113,69,82859,1,2,3:2:0:0:
95,161,83010,1,0,3:0:0:0:
206,75,83162,1,2,3:2:0:0:
46,14,83313,6,0,P|25:61|31:91,1,67.5000025749208,6|8,0:0|0:0,0:0:0:0:
34,101,83541,1,8,0:0:0:0:
34,101,83616,1,8,0:0:0:0:
195,167,83768,1,8,0:0:0:0:
113,69,83919,1,0,3:0:0:0:
91,182,84071,1,0,0:0:0:0:
206,75,84223,6,0,L|280:79,1,67.5000025749208,12|2,0:0|0:3,0:0:0:0:
300,82,84450,1,2,0:3:0:0:
300,82,84526,1,2,0:0:0:0:
396,157,84677,1,2,0:3:0:0:
293,287,84829,2,0,P|258:251|287:207,1,101.250003862381,6|0,0:0|0:0,0:0:0:0:
361,240,85132,6,0,P|379:285|367:323,1,80.9999975280763,6|2,0:0|0:0,0:0:0:0:
240,361,85435,2,0,L|159:358,1,80.9999975280763,8|2,0:0|0:0,0:0:0:0:
80,313,85662,1,8,0:0:0:0:
67,300,85738,2,0,P|57:261|64:220,1,80.9999975280763,2|2,0:0|0:3,0:0:0:0:
128,85,86041,2,0,P|134:124|124:163,1,80.9999975280763,8|0,0:0|0:0,0:0:0:0:
44,52,86344,5,2,0:0:0:0:
231,93,86495,1,2,0:0:0:0:
77,231,86647,2,0,P|117:247|174:227,1,80.9999975280763,8|2,0:0|0:0,0:0:0:0:
307,185,86950,2,0,P|267:179|231:195,1,80.9999975280763,2|2,0:0|0:3,0:0:0:0:
375,239,87253,2,0,P|394:182|370:128,1,121.499996292114,8|0,0:0|0:0,0:0:0:0:
356,114,87556,6,0,P|342:76|346:36,1,80.9999975280763,2|2,0:0|0:0,0:0:0:0:
491,24,87859,2,0,L|482:115,1,80.9999975280763,8|2,0:0|0:0,0:0:0:0:
445,183,88086,1,0,0:0:0:0:
445,183,88162,2,0,P|462:223|454:274,1,80.9999975280763,2|2,0:0|0:3,0:0:0:0:
357,340,88465,2,0,L|276:335,1,80.9999975280763,8|2,0:0|0:3,0:0:0:0:
179,258,88768,5,2,0:0:0:0:
175,354,88919,2,0,P|191:310|180:266,1,80.9999975280763,2|8,0:0|0:0,0:0:0:0:
97,193,89222,1,2,0:3:0:0:
209,60,89374,2,0,L|204:169,1,80.9999975280763,2|2,0:0|0:0,0:0:0:0:
192,40,89677,2,0,L|184:193,1,121.499996292114,12|0,0:0|0:0,0:0:0:0:
177,243,89980,5,6,0:0:0:0:
86,166,90132,1,2,0:0:0:0:
144,321,90283,2,0,P|182:330|220:316,1,80.9999975280763,8|2,0:0|0:0,0:0:0:0:
276,218,90586,1,2,0:0:0:0:
393,337,90738,1,2,0:3:0:0:
330,158,90889,2,0,L|330:310,1,121.499996292114,8|0,0:0|0:0,0:0:0:0:
393,337,91192,5,2,0:0:0:0:
453,241,91344,1,2,0:0:0:0:
373,83,91495,2,0,P|345:71|282:86,1,80.9999975280763,8|2,0:0|0:0,0:0:0:0:
220,132,91722,1,8,0:0:0:0:
208,144,91798,2,0,L|126:138,1,80.9999975280763,2|2,0:0|0:3,0:0:0:0:
253,238,92101,2,0,L|169:242,1,80.9999975280763,12|0,0:0|0:0,0:0:0:0:
32,342,92404,6,0,P|99:361|127:347,1,80.9999975280763,2|2,0:0|0:0,0:0:0:0:
66,204,92707,2,0,P|63:243|83:278,1,80.9999975280763,8|2,0:0|0:0,0:0:0:0:
208,328,93010,2,0,L|292:324,1,80.9999975280763,2|2,0:0|0:3,0:0:0:0:
172,241,93313,2,0,L|253:238,1,80.9999975280763,8|8,0:0|0:0,0:0:0:0:
333,232,93541,1,8,0:0:0:0:
333,232,93616,5,2,3:2:0:0:
437,349,93768,1,8,3:2:0:0:
387,150,93919,1,8,3:2:0:0:
312,323,94071,1,8,3:2:0:0:
447,211,94222,2,0,P|475:159|464:115,1,80.9999975280763,8|2,3:2|3:2,0:0:0:0:
372,53,94525,2,0,P|311:58|252:51,1,121.499996292114,0|0,3:0|0:0,0:0:0:0:
175,24,94828,5,6,0:0:0:0:
271,148,94980,1,2,0:0:0:0:
129,113,95132,2,0,P|89:105|39:104,1,80.9999975280763,8|2,0:0|0:0,0:0:0:0:
23,202,95359,1,8,0:0:0:0:
25,221,95435,2,0,L|32:310,1,80.9999975280763,2|2,0:0|0:3,0:0:0:0:
173,362,95738,2,0,P|203:311|200:251,1,121.499996292114,8|0,0:0|0:0,0:0:0:0:
139,193,96041,5,2,0:0:0:0:
33,320,96192,1,2,0:0:0:0:
152,179,96344,2,0,P|188:164|227:171,1,80.9999975280763,8|2,0:0|0:0,0:0:0:0:
302,234,96571,1,8,0:0:0:0:
302,234,96647,2,0,P|339:250|379:247,1,80.9999975280763,2|2,0:0|0:3,0:0:0:0:
487,111,96950,2,0,P|453:65|398:110,1,121.499996292114,8|0,0:0|0:0,0:0:0:0:
425,167,97253,5,2,0:0:0:0:
485,281,97404,1,2,0:0:0:0:
362,345,97556,2,0,P|315:333|271:336,1,80.9999975280763,8|2,0:0|0:0,0:0:0:0:
197,362,97783,1,0,0:0:0:0:
197,362,97859,2,0,P|148:375|95:360,1,80.9999975280763,2|2,0:0|0:3,0:0:0:0:
94,189,98162,1,8,0:0:0:0:
209,266,98313,1,2,0:3:0:0:
34,345,98465,6,0,L|42:236,1,80.9999975280763,2|2,0:0|0:0,0:0:0:0:
198,179,98768,2,0,L|192:98,1,80.9999975280763,8|2,0:0|0:3,0:0:0:0:
94,189,99071,1,2,0:0:0:0:
197,283,99222,1,2,0:0:0:0:
283,191,99374,2,0,L|275:80,1,80.9999975280763,12|2,0:0|0:3,0:0:0:0:
460,53,99677,6,0,P|472:91|461:129,1,80.9999975280763,6|2,0:0|0:0,0:0:0:0:
501,261,99980,2,0,P|468:284|428:285,1,80.9999975280763,8|2,0:0|0:0,0:0:0:0:
373,207,100207,1,8,0:0:0:0:
363,196,100283,2,0,L|268:190,1,80.9999975280763,2|2,0:0|0:3,0:0:0:0:
141,263,100586,2,0,P|131:301|142:340,1,80.9999975280763,8|0,0:0|0:0,0:0:0:0:
282,277,100889,5,2,0:0:0:0:
196,148,101041,1,2,0:0:0:0:
31,177,101192,2,0,P|71:184|117:178,1,80.9999975280763,8|2,0:0|0:0,0:0:0:0:
196,148,101419,1,8,0:0:0:0:
196,148,101495,2,0,P|241:121|324:146,1,121.499996292114,2|0,0:0|0:0,0:0:0:0:
371,182,101798,2,0,L|366:299,1,80.9999975280763,12|0,0:0|0:0,0:0:0:0:
189,362,102101,5,2,0:0:0:0:
262,205,102253,1,2,0:0:0:0:
330,342,102404,1,8,0:0:0:0:
126,291,102556,1,2,0:0:0:0:
196,148,102707,2,0,P|241:121|324:146,1,121.499996292114,2|0,0:0|0:0,0:0:0:0:
385,166,103010,2,0,P|395:128|383:90,1,80.9999975280763,12|0,0:0|0:0,0:0:0:0:
261,205,103313,5,8,0:0:0:0:
239,224,103388,1,0,3:0:0:0:
230,253,103464,1,2,0:0:0:0:
237,282,103540,1,2,0:0:0:0:
258,304,103616,1,8,0:0:0:0:
288,311,103691,1,0,3:0:0:0:
316,302,103767,1,2,0:0:0:0:
336,280,103843,1,2,0:0:0:0:
342,250,103919,2,0,P|280:226|262:286,1,121.499996292114,12|0,0:0|0:0,0:0:0:0:
310,329,104222,2,0,P|390:322|418:285,1,121.499996292114,2|0,0:3|0:0,0:0:0:0:
417,212,104525,5,12,0:0:0:0:
253,153,104676,1,0,0:0:0:0:
367,40,104828,2,0,P|373:95|363:150,1,112.5,8|2,0:0|0:0,0:0:0:0:
325,221,105055,1,2,0:0:0:0:
325,221,105131,1,8,0:0:0:0:
151,186,105282,1,2,0:0:0:0:
215,350,105434,6,0,L|222:207,1,112.5,8|2,0:0|0:0,0:0:0:0:
85,134,105737,2,0,P|66:185|89:244,1,112.5,8|2,0:0|0:0,0:0:0:0:
296,133,106040,1,8,0:0:0:0:
174,61,106191,1,2,0:0:0:0:
174,61,106267,1,2,0:0:0:0:
174,61,106343,6,0,L|164:182,1,112.5,12|2,0:0|0:0,0:0:0:0:
331,229,106646,1,8,0:0:0:0:
302,36,106797,1,2,0:0:0:0:
248,202,106949,2,0,P|247:257|280:301,1,112.5,8|2,0:0|0:0,0:0:0:0:
365,308,107176,1,2,0:0:0:0:
365,308,107252,5,12,0:0:0:0:
453,147,107403,1,2,0:0:0:0:
331,229,107555,1,12,0:0:0:0:
451,296,107706,2,0,L|452:239,1,56.25,2|2,0:0|0:0,0:0:0:0:
437,134,107858,2,0,B|408:108|408:108|334:113,1,112.5,12|2,0:0|0:0,0:0:0:0:
152,186,108161,5,12,0:0:0:0:
268,55,108312,1,2,0:0:0:0:
331,229,108464,2,0,P|277:213|223:228,1,112.5,8|2,0:0|0:0,0:0:0:0:
112,319,108767,1,8,0:0:0:0:
71,131,108918,1,2,0:0:0:0:
71,131,108994,1,2,0:0:0:0:
71,131,109070,6,0,L|62:251,1,112.5,12|2,0:0|0:0,0:0:0:0:
195,355,109373,2,0,B|248:374|248:374|302:357,1,112.5,8|2,0:0|0:0,0:0:0:0:
470,237,109676,2,0,P|423:196|375:220,1,112.5,8|2,0:0|0:0,0:0:0:0:
404,294,109903,1,2,0:0:0:0:
404,294,109979,5,12,0:0:0:0:
227,223,110131,1,2,0:0:0:0:
435,143,110282,1,8,0:0:0:0:
206,233,110434,1,2,0:0:0:0:
336,69,110585,1,8,0:0:0:0:
298,331,110737,1,2,0:0:0:0:
298,331,110812,1,2,0:0:0:0:
298,331,110888,6,0,L|175:323,1,112.5,12|2,0:0|0:0,0:0:0:0:
63,169,111191,1,12,0:0:0:0:
98,315,111343,1,2,0:0:0:0:
141,132,111494,2,0,B|193:113|193:113|247:129,1,112.5,12|2,0:0|0:0,0:0:0:0:
327,158,111721,1,2,0:0:0:0:
327,158,111797,5,12,0:0:0:0:
420,40,111949,1,2,0:0:0:0:
465,218,112100,2,0,L|476:94,1,112.5,8|2,0:0|0:0,0:0:0:0:
299,57,112403,1,8,0:0:0:0:
364,234,112555,1,2,0:0:0:0:
364,234,112631,1,2,0:0:0:0:
364,234,112706,6,0,P|296:238|261:208,1,112.5,12|2,0:0|0:0,0:0:0:0:
113,254,113009,2,0,P|143:193|187:177,1,112.5,8|2,0:0|0:0,0:0:0:0:
220,26,113312,2,0,P|257:82|248:128,1,112.5,8|2,0:0|0:0,0:0:0:0:
58,93,113540,1,2,0:0:0:0:
71,79,113615,6,0,P|149:78|182:108,1,112.5,12|2,0:0|0:0,0:0:0:0:
364,234,113918,2,0,L|358:348,1,112.5,8|2,0:0|0:0,0:0:0:0:
123,381,114221,2,0,L|114:268,1,112.5,8|2,0:0|0:0,0:0:0:0:
168,208,114449,1,2,0:0:0:0:
168,208,114525,6,0,P|206:199|240:206,1,56.25,8|0,0:0|3:0,0:0:0:0:
363,233,114676,1,2,0:0:0:0:
400,237,114751,1,2,0:0:0:0:
430,216,114827,1,8,0:0:0:0:
439,180,114903,1,0,3:0:0:0:
422,148,114979,1,2,0:0:0:0:
388,134,115054,1,2,0:0:0:0:
353,145,115130,1,12,0:0:0:0:
327,355,115282,1,2,0:0:0:0:
223,201,115434,6,0,P|168:178|118:196,1,112.5,12|2,0:0|0:0,0:0:0:0:
44,373,115737,2,0,L|194:366,1,112.5,8|2,0:0|0:0,0:0:0:0:
327,355,116040,1,8,0:0:0:0:
166,264,116191,1,2,0:0:0:0:
292,141,116343,6,0,P|315:194|300:247,1,112.5,12|2,0:0|0:0,0:0:0:0:
251,309,116570,1,2,0:0:0:0:
251,309,116646,1,8,0:0:0:0:
112,189,116797,1,2,0:0:0:0:
277,129,116949,1,8,0:0:0:0:
166,264,117100,1,2,0:0:0:0:
205,81,117252,6,0,P|277:43|349:81,1,168.75,12|0,0:0|0:0,0:0:0:0:
391,154,117555,2,0,L|383:272,1,112.5,8|8,0:0|0:0,0:0:0:0:
322,320,117782,1,8,0:0:0:0:
322,320,117858,1,2,0:0:0:0:
166,264,118009,2,0,L|170:200,1,56.25,0|0,3:0|3:0,0:0:0:0:
277,129,118161,5,2,0:0:0:0:
326,337,118312,1,0,3:0:0:0:
165,286,118464,1,2,3:2:0:0:
359,194,118615,1,0,3:0:0:0:
237,333,118767,1,2,3:2:0:0:
196,172,118918,1,0,3:0:0:0:
306,257,119070,6,0,P|370:278|412:259,1,101.250003862381,6|0,0:0|0:0,0:0:0:0:
453,208,119373,1,8,3:2:0:0:
453,208,119676,1,8,3:2:0:0:
406,53,119979,6,0,L|276:59,1,101.250003862381,2|0,0:0|0:0,0:0:0:0:
226,63,120282,1,8,3:2:0:0:
226,63,120585,1,8,3:2:0:0:
74,219,120888,6,0,B|121:239|121:239|165:211,1,101.250003862381,2|0,0:0|0:0,0:0:0:0:
220,153,121191,1,8,3:2:0:0:
220,153,121494,1,8,3:2:0:0:
107,69,121797,6,0,P|103:102|108:135,1,67.5000025749208,2|8,0:0|0:0,0:0:0:0:
163,212,122100,1,2,0:3:0:0:
16,202,122252,2,0,P|91:171|162:211,1,168.750006437302,0|0,3:0|0:0,0:0:0:0:
215,279,122706,6,0,L|332:271,1,101.250003862381,2|0,0:0|0:0,0:0:0:0:
396,262,123009,1,8,3:2:0:0:
396,262,123312,1,8,3:2:0:0:
363,101,123615,6,0,B|338:129|338:129|346:192,1,101.250003862381,2|0,0:0|0:0,0:0:0:0:
396,262,123918,1,8,3:2:0:0:
396,262,124221,1,8,3:2:0:0:
464,107,124525,6,0,L|362:100,1,101.250003862381,2|0,0:0|0:0,0:0:0:0:
284,90,124828,1,8,3:2:0:0:
284,90,125131,1,8,3:2:0:0:
219,195,125434,5,2,0:0:0:0:
141,79,125585,1,0,3:0:0:0:
141,79,125661,1,0,3:0:0:0:
141,79,125737,2,0,L|144:141,3,33.7500012874604,2|0|0|0,3:2|3:0|3:0|3:0,0:0:0:0:
105,191,126040,2,0,L|108:253,3,33.7500012874604,2|0|0|0,3:2|3:0|3:0|3:0,0:0:0:0:
156,296,126343,6,0,B|203:313|203:313|251:296,1,101.250003862381,6|0,0:0|0:0,0:0:0:0:
325,259,126646,1,8,3:2:0:0:
325,259,126949,1,8,3:2:0:0:
426,367,127252,6,0,L|432:242,1,101.250003862381,2|0,0:0|0:0,0:0:0:0:
435,183,127555,1,8,3:2:0:0:
435,183,127858,1,8,3:2:0:0:
334,77,128161,6,0,P|286:88|236:81,1,101.250003862381,2|0,0:0|0:0,0:0:0:0:
161,46,128464,1,2,0:3:0:0:
145,202,128615,2,0,L|152:117,1,67.5000025749208,0|8,3:0|0:0,0:0:0:0:
161,46,128918,1,2,0:0:0:0:
53,204,129070,6,0,B|86:254|86:254|228:247,1,202.500007724762,0|2,3:0|3:2,0:0:0:0:
363,214,129676,2,0,P|334:199|298:200,1,67.5000025749208,0|0,3:0|3:0,0:0:0:0:
413,285,129979,6,0,L|421:150,1,135.000005149842,6|10,0:0|0:0,0:0:0:0:
292,67,130434,1,8,0:0:0:0:
299,199,130585,1,10,0:0:0:0:
421,134,130737,1,8,0:0:0:0:
273,63,130888,5,10,0:0:0:0:
285,212,131040,1,8,0:0:0:0:
192,82,131191,5,10,0:0:0:0:
204,231,131343,1,8,0:0:0:0:
111,101,131494,5,10,0:0:0:0:
123,250,131646,1,8,0:0:0:0:
30,120,131797,5,10,0:0:0:0:
42,269,131949,1,8,0:0:0:0:
149,172,132100,5,10,0:0:0:0:
161,321,132252,1,8,0:0:0:0:
268,224,132403,5,10,0:0:0:0:
280,373,132555,1,8,0:0:0:0:
387,276,132706,5,10,0:0:0:0:
387,276,133615,6,0,P|402:232|392:188,1,90,12|0,0:0|0:0,0:0:0:0:
293,83,133918,2,0,L|200:89,1,90,8|2,0:0|0:0,0:0:0:0:
123,97,134145,1,2,0:0:0:0:
123,97,134221,1,8,0:0:0:0:
267,191,134372,1,2,0:0:0:0:
45,152,134524,6,0,P|32:194|45:236,1,90,12|2,0:0|0:0,0:0:0:0:
154,263,134827,2,0,L|234:258,2,45,8|0|2,0:0|0:0|0:0,0:0:0:0:
121,351,135130,2,0,L|210:357,1,90,8|2,0:0|0:0,0:0:0:0:
291,369,135357,1,2,0:0:0:0:
291,369,135433,5,12,0:0:0:0:
267,191,135585,1,2,0:0:0:0:
416,248,135736,2,0,B|376:261|376:261|332:242,1,90,8|2,0:0|0:0,0:0:0:0:
341,54,136040,2,0,P|350:96|330:138,1,90,8|2,0:0|0:0,0:0:0:0:
267,191,136267,1,2,0:0:0:0:
267,191,136342,5,12,0:0:0:0:
105,158,136494,1,2,0:0:0:0:
262,86,136645,1,12,0:0:0:0:
194,298,136797,1,12,0:0:0:0:
31,205,136948,2,0,P|16:159|28:116,1,90,12|2,0:0|0:0,0:0:0:0:
82,37,137175,1,2,0:0:0:0:
102,38,137251,6,0,L|225:42,1,90,12|2,0:0|0:0,0:0:0:0:
341,54,137555,2,0,P|350:96|330:138,1,90,8|2,0:0|0:0,0:0:0:0:
267,191,137782,1,2,0:0:0:0:
267,191,137857,1,8,0:0:0:0:
212,43,138009,1,2,0:0:0:0:
127,249,138160,5,12,0:0:0:0:
161,122,138312,1,2,0:0:0:0:
161,122,138388,1,2,0:0:0:0:
161,122,138464,2,0,L|208:124,2,45,8|0|2,0:0|0:0|0:0,0:0:0:0:
61,119,138766,2,0,B|44:161|44:161|57:203,1,90,8|2,0:0|0:0,0:0:0:0:
127,249,138994,1,2,0:0:0:0:
127,249,139069,6,0,L|239:245,1,90,12|2,0:0|0:0,0:0:0:0:
341,295,139373,2,0,P|290:307|258:337,1,90,8|2,0:0|0:0,0:0:0:0:
382,220,139676,2,0,P|339:206|295:212,1,90,8|2,0:0|0:0,0:0:0:0:
216,245,139903,1,2,0:0:0:0:
216,245,139979,6,0,P|195:253|169:255,3,49.5000015106202,8|0|2|2,0:0|3:0|0:0|0:0,0:0:0:0:
181,169,140282,6,0,P|159:156|144:133,3,53.9999983520508,8|0|2|2,0:0|3:0|0:0|0:0,0:0:0:0:
219,96,140585,6,0,P|215:69|227:38,3,58.4999973220826,12|0|2|0,0:0|0:0|0:0|0:0,0:0:0:0:
314,23,140888,6,0,P|332:85|294:142,1,125.999996154785,12|2,0:0|0:0,0:0:0:0:
144,132,141115,1,2,0:0:0:0:
144,132,141191,2,0,B|60:125|60:125|29:153,1,125.999996154785,8|2,0:0|0:0,0:0:0:0:
133,348,141494,1,8,0:0:0:0:
241,236,141646,1,2,0:0:0:0:
241,236,141721,1,2,0:0:0:0:
241,236,141797,6,0,P|178:247|91:243,1,125.999996154785,12|2,0:0|0:0,0:0:0:0:
303,135,142100,2,0,P|365:126|424:206,1,125.999996154785,8|2,0:0|0:0,0:0:0:0:
361,340,142403,1,8,0:0:0:0:
329,337,142478,1,2,0:0:0:0:
298,335,142554,1,2,0:0:0:0:
266,333,142630,1,2,0:0:0:0:
235,331,142706,5,12,0:0:0:0:
215,121,142858,1,2,0:0:0:0:
148,326,143009,5,8,0:0:0:0:
127,115,143161,1,2,0:0:0:0:
60,320,143312,6,0,L|46:175,1,125.999996154785,8|2,0:0|0:0,0:0:0:0:
38,109,143540,1,2,0:0:0:0:
38,109,143615,5,0,3:0:0:0:
189,235,143767,1,2,0:0:0:0:
189,235,143843,1,2,0:0:0:0:
189,235,143918,2,0,P|252:235|278:220,1,62.9999980773926,8|0,0:0|3:0,0:0:0:0:
268,323,144070,2,0,P|322:291|337:265,1,62.9999980773926,2|2,0:0|0:0,0:0:0:0:
331,109,144221,2,0,P|313:167|356:209,1,125.999996154785,12|2,0:0|0:0,0:0:0:0:
419,80,144525,5,12,0:0:0:0:
211,128,144676,1,2,0:0:0:0:
374,220,144828,1,8,0:0:0:0:
277,35,144979,1,2,0:0:0:0:
189,235,145131,2,0,P|93:214|37:232,1,125.999996154785,8|2,0:0|0:0,0:0:0:0:
177,324,145358,1,2,0:0:0:0:
201,320,145434,6,0,P|256:293|273:234,1,125.999996154785,12|2,0:0|0:0,0:0:0:0:
121,61,145737,2,0,L|126:144,2,62.9999980773926,8|0|2,0:0|0:0|0:0,0:0:0:0:
228,29,146040,2,0,L|218:154,1,125.999996154785,8|2,0:0|0:0,0:0:0:0:
201,320,146343,6,0,B|224:352|224:352|312:347,1,125.999996154785,12|0,0:0|0:0,0:0:0:0:
418,164,146646,1,10,0:0:0:0:
427,327,146797,1,8,0:0:0:0:
342,97,146949,1,10,0:0:0:0:
328,256,147100,1,8,0:0:0:0:
237,71,147252,5,10,0:0:0:0:
243,288,147403,1,8,0:0:0:0:
156,64,147555,5,10,0:0:0:0:
162,298,147706,1,8,0:0:0:0:
75,57,147858,5,10,0:0:0:0:
81,309,148009,1,8,0:0:0:0:
274,171,148161,5,6,0:0:0:0:
78,354,155434,6,0,L|182:350,1,90,10|2,3:2|0:0,0:0:0:0:
256,346,156040,1,10,3:2:0:0:
78,354,156343,5,2,3:2:0:0:
167,350,156646,1,2,0:0:0:0:
256,346,156949,1,2,0:0:0:0:
434,254,157252,6,0,L|330:250,1,90,10|2,3:2|0:0,0:0:0:0:
256,246,157858,1,10,3:2:0:0:
434,254,158161,5,2,3:2:0:0:
345,250,158464,1,2,0:0:0:0:
256,246,158767,1,2,0:0:0:0:
103,212,159070,6,0,P|82:172|86:128,1,90,10|0,3:2|0:0,0:0:0:0:
136,57,159676,1,10,3:2:0:0:
182,249,159979,2,0,P|114:301|34:269,1,180,2|2,3:2|0:0,0:0:0:0:
169,152,160888,5,10,3:2:0:0:
277,166,161191,1,10,3:2:0:0:
385,180,161494,1,10,3:2:0:0:
441,292,161797,6,0,P|420:293|399:301,3,40.4999987640381,10|0|0|0,3:2|3:0|3:0|3:0,0:0:0:0:
319,361,162100,6,0,P|306:340|286:324,1,45,8|0,3:2|3:0,0:0:0:0:
198,289,162252,6,0,P|209:264|214:237,1,49.5000015106202,0|0,3:0|3:0,0:0:0:0:
198,148,162403,6,0,P|224:145|251:135,1,53.9999983520508,8|0,3:2|3:0,0:0:0:0:
321,78,162555,6,0,P|338:103|364:121,1,58.4999973220826,0|0,3:0|3:0,0:0:0:0:
435,203,162706,5,12,0:0:0:0:
480,53,162858,1,0,0:0:0:0:
435,203,163009,2,0,B|403:237|403:237|325:224,1,125.999996154785,8|2,0:0|0:0,0:0:0:0:
97,188,163312,1,8,0:0:0:0:
176,374,163463,1,2,0:0:0:0:
157,126,163615,6,0,P|100:101|42:122,1,125.999996154785,12|2,0:0|0:0,0:0:0:0:
4,285,163918,2,0,B|31:313|31:313|117:303,1,125.999996154785,8|2,0:0|0:0,0:0:0:0:
198,287,164146,1,2,0:0:0:0:
198,287,164221,1,8,0:0:0:0:
97,188,164373,1,2,0:0:0:0:
261,347,164524,6,0,P|284:289|265:231,1,125.999996154785,12|2,0:0|0:0,0:0:0:0:
99,225,164828,2,0,P|137:273|197:286,1,125.999996154785,8|2,0:0|0:0,0:0:0:0:
286,145,165131,2,0,P|224:153|183:199,1,125.999996154785,8|2,0:0|0:0,0:0:0:0:
197,286,165358,1,2,0:0:0:0:
197,286,165434,5,12,0:0:0:0:
131,92,165585,1,2,0:0:0:0:
342,212,165737,2,0,P|371:157|357:96,1,125.999996154785,12|2,0:0|0:0,0:0:0:0:
285,60,165964,1,2,0:0:0:0:
285,60,166040,1,12,0:0:0:0:
99,225,166191,1,2,0:0:0:0:
99,225,166267,1,2,0:0:0:0:
99,225,166343,6,0,L|110:364,1,125.999996154785,12|2,0:0|0:0,0:0:0:0:
164,169,166646,2,0,P|111:137|51:152,1,125.999996154785,8|2,0:0|0:0,0:0:0:0:
197,286,166949,1,8,0:0:0:0:
291,135,167100,1,2,0:0:0:0:
291,135,167176,1,2,0:0:0:0:
291,135,167252,6,0,L|281:260,1,125.999996154785,12|0,0:0|0:0,0:0:0:0:
209,84,167555,1,8,0:0:0:0:
384,158,167706,1,2,0:0:0:0:
163,199,167858,1,8,0:0:0:0:
402,154,168009,1,2,0:0:0:0:
122,122,168161,6,0,P|80:220|133:281,1,180,12|0,0:0|0:0,0:0:0:0:
376,375,168615,2,0,B|345:340|336:294|336:294|318:341|277:357,1,180,12|2,0:0|0:0,0:0:0:0:
468,101,169070,2,0,P|410:69|347:87,1,135,12|0,0:0|0:0,0:0:0:0:
283,143,169373,5,8,0:0:0:0:
278,357,169525,1,2,0:0:0:0:
210,191,169676,2,0,L|201:322,1,90,8|2,0:0|0:0,0:0:0:0:
200,316,169903,1,2,0:0:0:0:
200,316,169979,5,12,0:0:0:0:
344,216,170131,1,2,0:0:0:0:
149,130,170282,2,0,P|89:140|64:195,1,125.999996154785,8|2,0:0|0:0,0:0:0:0:
139,370,170585,2,0,P|203:363|264:361,1,125.999996154785,8|2,0:0|0:0,0:0:0:0:
344,353,170812,1,2,0:0:0:0:
344,353,170888,6,0,B|372:318|372:318|357:238,1,125.999996154785,12|2,0:0|0:0,0:0:0:0:
183,202,171191,2,0,B|199:243|199:243|275:270,1,125.999996154785,8|2,0:0|0:0,0:0:0:0:
395,139,171494,2,0,B|350:132|350:132|288:185,1,125.999996154785,8|2,0:0|0:0,0:0:0:0:
275,270,171721,1,2,0:0:0:0:
275,270,171797,6,0,P|246:283|214:282,3,62.9999980773926,8|8|2|2,0:0|0:0|0:0|0:0,0:0:0:0:
195,363,172100,2,0,P|166:351|144:328,3,62.9999980773926,0|0|2|2,3:0|3:0|0:0|0:0,0:0:0:0:
72,372,172403,2,0,P|59:343|60:311,3,62.9999980773926,0|0|2|2,3:0|3:0|0:0|0:0,0:0:0:0:
115,244,172706,5,8,0:0:0:0:
134,231,172781,1,0,3:0:0:0:
151,214,172857,1,2,0:0:0:0:
164,194,172933,1,2,0:0:0:0:
172,172,173009,1,8,0:0:0:0:
176,149,173084,1,0,3:0:0:0:
175,125,173160,1,2,0:0:0:0:
169,102,173236,1,2,0:0:0:0:
157,82,173312,2,0,B|132:87|115:106|115:106|180:140|249:116,1,188.999994232178,12|0,0:0|0:0,0:0:0:0:
330,91,173615,6,0,B|357:123|357:123|348:206,1,125.999996154785,12|0,0:0|0:0,0:0:0:0:
119,323,173918,5,10,0:0:0:0:
415,274,174070,1,8,0:0:0:0:
98,245,174221,5,10,0:0:0:0:
432,277,174373,1,8,0:0:0:0:
188,76,174525,5,10,0:0:0:0:
194,360,174676,1,8,0:0:0:0:
269,62,174828,5,10,0:0:0:0:
276,366,174979,1,8,0:0:0:0:
351,47,175131,5,10,0:0:0:0:
358,372,175282,1,8,0:0:0:0:
429,65,175434,6,0,B|433:120|433:120|416:146|416:146|419:194,2,135.000005149842,2|2|2,0:0|0:0|0:0,0:0:0:0:
471,255,176343,6,0,B|396:202|298:245|298:245|293:310,1,247.5,2|0,0:0|0:0,0:0:0:0:
291,325,177252,6,0,B|314:223|201:178|201:178|118:261|163:340,1,371.250014162064
163,340,178161,6,0,P|223:356|281:334,1,125.999996154785,12|0,0:0|0:0,0:0:0:0:
408,195,178464,2,0,L|282:187,1,125.999996154785,8|2,0:0|0:0,0:0:0:0:
201,178,178691,1,2,0:0:0:0:
201,178,178767,1,8,0:0:0:0:
378,312,178918,1,2,0:0:0:0:
463,110,179070,6,0,L|337:102,1,125.999996154785,12|2,0:0|0:0,0:0:0:0:
167,86,179373,2,0,P|157:56|161:25,2,62.9999980773926,8|0|2,0:0|0:0|0:0,0:0:0:0:
282,187,179676,2,0,B|304:220|304:220|287:316,1,125.999996154785,8|2,0:0|0:0,0:0:0:0:
225,356,179903,1,2,0:0:0:0:
225,356,179979,5,12,0:0:0:0:
201,178,180131,1,2,0:0:0:0:
115,349,180282,1,8,0:0:0:0:
305,302,180434,1,2,0:0:0:0:
137,120,180585,2,0,P|114:179|138:236,1,125.999996154785,8|2,0:0|0:0,0:0:0:0:
211,267,180812,1,2,0:0:0:0:
211,267,180888,5,12,0:0:0:0:
372,180,181040,1,2,0:0:0:0:
372,180,181115,1,2,0:0:0:0:
372,180,181191,1,12,0:0:0:0:
269,116,181343,1,2,0:0:0:0:
269,116,181418,1,2,0:0:0:0:
269,116,181494,1,12,0:0:0:0:
305,302,181646,1,2,0:0:0:0:
305,302,181721,1,2,0:0:0:0:
305,302,181797,6,0,L|430:294,1,125.999996154785,12|2,0:0|0:0,0:0:0:0:
249,232,182100,2,0,P|217:284|230:350,1,125.999996154785,8|2,0:0|0:0,0:0:0:0:
345,161,182403,2,0,P|355:100|323:47,1,125.999996154785,8|2,0:0|0:0,0:0:0:0:
245,33,182631,1,2,0:0:0:0:
245,33,182706,6,0,L|109:42,1,125.999996154785,12|2,0:0|0:0,0:0:0:0:
112,219,183009,2,0,P|70:220|44:204,2,62.9999980773926,8|0|2,0:0|0:0|0:0,0:0:0:0:
177,161,183312,2,0,P|199:226|170:282,1,125.999996154785,8|2,0:0|0:0,0:0:0:0:
94,133,183615,6,0,P|139:81|202:77,1,125.999996154785,12|2,0:0|0:0,0:0:0:0:
313,215,183918,2,0,P|310:280|300:363,1,125.999996154785,8|2,0:0|0:0,0:0:0:0:
454,188,184221,2,0,P|447:125|444:62,1,125.999996154785,8|2,0:0|0:0,0:0:0:0:
257,117,184525,5,8,0:0:0:0:
257,117,184600,1,0,3:0:0:0:
257,117,184676,2,0,L|343:112,1,62.9999980773926,2|2,0:0|0:0,0:0:0:0:
465,288,184828,1,8,0:0:0:0:
465,288,184903,1,0,3:0:0:0:
465,288,184979,2,0,L|379:283,1,62.9999980773926,2|2,0:0|0:0,0:0:0:0:
193,366,185131,2,0,B|153:302|187:231|187:231|234:226,1,188.999994232178,12|0,0:0|0:0,0:0:0:0:
313,215,185434,5,2,0:0:0:0:
