osu file format v14

[General]
AudioFilename: audio.mp3
AudioLeadIn: 0
PreviewTime: 54072
Countdown: 0
SampleSet: Soft
StackLeniency: 0.4
Mode: 0
LetterboxInBreaks: 0
WidescreenStoryboard: 0

[Editor]
Bookmarks: 285,104525,185434
DistanceSpacing: 2.1
BeatDivisor: 4
GridSize: 32
TimelineZoom: 1.7

[Metadata]
Title:Kimi ga Sora Koso Kanashikere
TitleUnicode:君ガ空コソカナシケレ
Artist:CHiCO with HoneyWorks
ArtistUnicode:CHiCO with HoneyWorks
Creator:Serizawa Haruki
Version:Seolwill's Insane
Source:
Tags:ハニーワークス ハニワ 世界はiに満ちている Sekai wa Ai ni Michiteiru 兎眠りおん Tone Rion 初音ミク Hatsune Miku ボーカロイド Vocaloid ゴム Gom フェルナンドP Fernando-P シト shito チョリスP Chorisu-P オジ Oji 海賊王 Kaizoku Ou Japanese Rock J-rock Jrock Jack J_a_c_k Cris- Kowari Akitoshi -Laura- Corinn Seolv [_L_u_k_a_s] Lukas William K William_K Taeyang Xen Xehn Xenon- Agatsu Elcheer
BeatmapID:1964724
BeatmapSetID:940746

[Difficulty]
HPDrainRate:5
CircleSize:3.7
OverallDifficulty:8
ApproachRate:9
SliderMultiplier:1.6
SliderTickRate:1

[Events]
//Background and Video events
0,0,"bg.jpg",0,0
//Break Periods
2,148361,154834
//Storyboard Layer 0 (Background)
//Storyboard Layer 1 (Fail)
//Storyboard Layer 2 (Pass)
//Storyboard Layer 3 (Foreground)
//Storyboard Layer 4 (Overlay)
//Storyboard Sound Samples

[TimingPoints]
285,303.030303030303,3,2,1,40,1,0
285,-133.333333333333,3,2,1,40,0,0
3315,-133.333333333333,3,2,1,60,0,0
3921,-95.2380952380952,3,2,1,70,0,0
18466,-111.111111111111,3,2,1,60,0,0
20284,-125,3,2,1,50,0,0
26648,-100,3,2,1,60,0,0
34830,303.030303030303,4,2,1,60,1,0
44451,-100,4,2,1,5,0,0
44526,-100,4,2,1,60,0,0
53011,-100,4,2,1,70,0,0
54223,303.030303030303,3,2,1,80,1,1
54223,-90.9090909090909,3,2,1,80,0,1
68768,-117.647058823529,3,2,1,60,0,0
70586,-117.647058823529,3,2,1,50,0,0
76950,-100,3,2,1,60,0,0
85056,-100,3,2,1,5,0,0
85132,303.030303030303,4,2,1,60,1,0
103313,-100,4,2,1,70,0,0
104525,303.030303030303,3,2,1,80,1,1
104525,-90.9090909090909,3,2,1,80,0,1
106873,-90.9090909090909,3,2,1,5,0,1
106949,-90.9090909090909,3,2,1,80,0,1
110206,-90.9090909090909,3,2,1,5,0,1
110282,-90.9090909090909,3,2,1,80,0,1
119070,-125,3,2,1,50,0,0
129979,-125,3,2,1,60,0,0
133615,-95.2380952380952,3,2,1,70,0,0
146570,-95.2380952380952,3,2,1,70,0,0
146646,-95.2380952380952,3,2,1,70,0,0
155434,-133.333333333333,3,2,2,50,0,0
160888,-95.2380952380952,3,2,2,60,0,0
162706,-83.3333333333333,3,2,1,80,0,1
164752,-83.3333333333333,3,2,1,5,0,1
164828,-83.3333333333333,3,2,1,80,0,1
167479,-83.3333333333333,3,2,1,5,0,1
167555,-83.3333333333333,3,2,1,80,0,1
168843,-83.3333333333333,3,2,1,5,0,1
168918,-83.3333333333333,3,2,1,80,0,1
173843,-83.3333333333333,3,2,1,5,0,1
173918,-83.3333333333333,3,2,1,80,0,1
175434,-250,3,2,2,30,0,0
178009,-250,3,2,2,5,0,0
178161,-90.9090909090909,3,2,1,70,0,0
185131,-166.666666666667,3,2,1,70,0,0
185434,-166.666666666667,3,2,2,30,0,0

[Colours]
Combo1 : 185,132,251
Combo2 : 255,181,43
Combo3 : 64,159,255
Combo4 : 252,109,24

[HitObjects]
100,88,285,6,0,L|110:154,1,60.0000022888184,2|2,0:0|0:0,0:0:0:0:
121,227,588,1,8,3:2:0:0:
121,227,891,1,8,3:2:0:0:
231,140,1194,6,0,L|168:115,1,60.0000022888184,2|2,0:0|0:0,0:0:0:0:
100,88,1497,1,8,3:2:0:0:
100,88,1800,1,8,3:2:0:0:
121,227,2103,6,0,L|173:185,1,60.0000022888184,2|2,0:0|0:0,0:0:0:0:
230,139,2406,1,8,3:2:0:0:
47,197,2709,1,8,3:2:0:0:
242,217,3012,5,8,0:0:0:0:
167,189,3163,1,2,0:0:0:0:
305,167,3315,5,8,3:2:0:0:
179,267,3466,1,2,3:2:0:0:
375,325,3618,5,8,3:2:0:0:
375,325,3921,6,0,L|474:298,1,83.9999974365235,12|0,0:0|0:0,0:0:0:0:
390,155,4224,2,0,P|383:204|395:260,1,83.9999974365235,8|2,0:0|0:0,0:0:0:0:
291,352,4527,2,0,P|295:310|288:269,1,83.9999974365235,8|2,0:0|0:0,0:0:0:0:
139,236,4830,6,0,P|198:235|247:135,1,167.999994873047,12|8,0:0|0:0,0:0:0:0:
243,131,5209,1,0,0:0:0:0:
243,131,5284,1,2,0:0:0:0:
151,69,5436,2,0,L|165:171,1,83.9999974365235,8|2,0:0|0:0,0:0:0:0:
336,28,5739,5,12,0:0:0:0:
324,120,5891,1,2,0:0:0:0:
314,13,6042,2,0,L|409:3,1,83.9999974365235,8|2,0:0|0:0,0:0:0:0:
495,100,6345,2,0,L|400:90,1,83.9999974365235,8|2,0:0|0:0,0:0:0:0:
312,212,6648,5,12,0:0:0:0:
402,192,6800,1,2,0:0:0:0:
464,299,6951,1,12,0:0:0:0:
374,279,7103,1,2,0:0:0:0:
314,378,7254,2,0,L|398:367,1,83.9999974365235,12|2,0:0|0:0,0:0:0:0:
312,212,7557,6,0,P|287:251|287:296,1,83.9999974365235,12|2,0:0|0:0,0:0:0:0:
219,384,7860,2,0,P|215:342|192:308,1,83.9999974365235,8|2,0:0|0:0,0:0:0:0:
76,224,8163,2,0,L|193:232,1,83.9999974365235,8|2,0:0|0:0,0:0:0:0:
287,112,8466,6,0,P|231:156|131:101,1,167.999994873047,12|8,0:0|0:0,0:0:0:0:
137,108,8845,1,0,0:0:0:0:
137,108,8921,1,2,0:0:0:0:
245,33,9072,2,0,B|285:21|285:21|344:33,1,83.9999974365235,8|2,0:0|0:0,0:0:0:0:
385,187,9375,6,0,L|376:92,1,83.9999974365235,12|2,0:0|0:0,0:0:0:0:
476,250,9678,2,0,L|485:155,1,83.9999974365235,8|2,0:0|0:0,0:0:0:0:
363,283,9981,2,0,L|354:188,1,83.9999974365235,8|2,0:0|0:0,0:0:0:0:
282,315,10285,5,12,0:0:0:0:
431,340,10436,1,0,3:0:0:0:
273,283,10588,5,2,3:2:0:0:
151,352,10739,1,0,3:0:0:0:
265,254,10891,5,0,3:0:0:0:
352,384,11042,1,0,3:0:0:0:
182,273,11194,6,0,P|140:266|86:297,1,83.9999974365235,12|0,0:0|0:0,0:0:0:0:
279,166,11497,2,0,P|321:173|375:142,1,83.9999974365235,8|2,0:0|0:0,0:0:0:0:
199,103,11800,2,0,L|190:211,1,83.9999974365235,8|2,0:0|0:0,0:0:0:0:
24,245,12103,6,0,L|17:161,1,83.9999974365235,12|2,0:0|0:0,0:0:0:0:
58,25,12406,1,8,0:0:0:0:
58,25,12481,1,0,0:0:0:0:
58,25,12557,1,2,0:0:0:0:
160,123,12709,2,0,B|118:130|118:130|81:107,1,83.9999974365235,8|2,0:0|0:0,0:0:0:0:
234,69,13012,5,12,0:0:0:0:
219,204,13163,1,2,0:0:0:0:
223,46,13315,2,0,B|258:24|258:24|300:31,1,83.9999974365235,8|2,0:0|0:0,0:0:0:0:
374,160,13618,2,0,B|332:167|332:167|296:145,1,83.9999974365235,8|2,0:0|0:0,0:0:0:0:
454,98,13921,5,12,0:0:0:0:
462,189,14072,1,2,0:0:0:0:
375,76,14224,5,12,0:0:0:0:
344,246,14375,1,12,0:0:0:0:
489,197,14527,2,0,L|496:290,1,83.9999974365235,12|2,0:0|0:0,0:0:0:0:
295,323,14830,6,0,P|262:282|257:240,1,83.9999974365235,12|2,0:0|0:0,0:0:0:0:
228,121,15133,2,0,P|217:161|189:191,1,83.9999974365235,8|2,0:0|0:0,0:0:0:0:
92,292,15436,2,0,L|205:272,1,83.9999974365235,8|2,0:0|0:0,0:0:0:0:
142,117,15739,6,0,L|29:97,1,83.9999974365235,12|2,0:0|0:0,0:0:0:0:
188,44,16042,1,8,0:0:0:0:
188,44,16118,1,0,0:0:0:0:
188,44,16194,1,2,0:0:0:0:
275,191,16345,2,0,L|388:171,1,83.9999974365235,8|2,0:0|0:0,0:0:0:0:
291,32,16648,6,0,B|270:70|270:70|281:123,1,83.9999974365235,12|2,0:0|0:0,0:0:0:0:
174,277,16951,2,0,B|195:239|195:239|184:186,1,83.9999974365235,8|2,0:0|0:0,0:0:0:0:
338,261,17254,2,0,B|329:300|329:300|350:338,1,83.9999974365235,8|2,0:0|0:0,0:0:0:0:
275,191,17557,5,12,0:0:0:0:
214,350,17709,1,2,0:0:0:0:
103,222,17860,2,0,L|9:208,1,83.9999974365235,12|2,0:0|0:0,0:0:0:0:
136,51,18163,2,0,L|123:134,1,83.9999974365235,12|0,0:0|0:0,0:0:0:0:
137,308,18466,6,0,P|184:267|288:295,1,143.999995605469,2|8,3:2|3:2,0:0:0:0:
371,272,18921,2,0,P|334:234|330:185,1,71.9999978027344,2|8,3:2|3:2,0:0:0:0:
328,216,19375,6,0,P|266:228|190:151,1,143.999995605469,2|8,3:2|3:2,0:0:0:0:
108,131,19830,2,0,P|121:182|100:226,1,71.9999978027344,2|8,3:2|3:2,0:0:0:0:
36,176,20133,1,2,3:2:0:0:
186,102,20284,6,0,L|320:123,1,128,6|2,3:2|0:0,0:0:0:0:
386,85,20739,1,2,0:3:0:0:
386,85,20891,2,0,L|461:72,1,64,2|0,0:0|0:0,0:0:0:0:
336,199,21194,6,0,P|364:260|327:328,1,128,2|2,3:2|0:0,0:0:0:0:
283,261,21648,1,2,0:3:0:0:
269,340,21800,2,0,L|193:332,1,64,2|2,0:0|0:3,0:0:0:0:
123,253,22103,6,0,B|187:256|187:256|234:194,1,128,2|2,3:2|0:0,0:0:0:0:
149,178,22557,1,2,0:3:0:0:
149,178,22709,2,0,L|144:103,1,64,2|2,0:0|0:3,0:0:0:0:
273,138,23012,5,2,3:2:0:0:
235,68,23163,2,0,L|178:59,2,32,2|2|2,0:3|0:3|0:0,0:0:0:0:
273,138,23466,2,0,L|330:129,2,32,2|2|2,0:3|0:3|0:0,0:0:0:0:
225,205,23769,1,2,0:3:0:0:
225,205,23845,1,2,0:3:0:0:
225,205,23921,6,0,L|215:333,1,128,2|2,3:2|0:0,0:0:0:0:
297,319,24375,1,2,0:3:0:0:
297,319,24527,2,0,L|306:391,1,64,2|2,0:0|0:3,0:0:0:0:
407,280,24830,6,0,P|367:239|275:247,1,128,2|2,3:2|0:0,0:0:0:0:
225,205,25284,1,2,0:3:0:0:
286,153,25436,2,0,P|294:128|285:63,1,64,2|2,0:0|0:3,0:0:0:0:
285,78,25663,1,2,0:3:0:0:
285,78,25739,6,0,L|132:66,1,128,2|2,3:2|0:0,0:0:0:0:
91,114,26194,1,2,0:3:0:0:
28,64,26345,2,0,L|21:-5,1,64,2|2,0:0|0:3,0:0:0:0:
162,146,26648,5,2,3:2:0:0:
18,144,26800,2,0,L|-36:135,2,40,8|8|2,3:2|3:2|3:2,0:0:0:0:
157,67,27103,1,8,3:2:0:0:
172,227,27254,2,0,L|182:313,1,80,2|8,3:2|3:2,0:0:0:0:
229,102,27557,6,0,B|268:93|268:93|334:111,1,80,6|8,0:0|0:0,0:0:0:0:
330,118,27784,1,8,0:0:0:0:
330,118,27860,2,0,L|312:210,1,80,0|2,3:0|3:2,0:0:0:0:
410,250,28163,2,0,L|395:172,1,80,0|0,3:0|3:0,0:0:0:0:
251,245,28466,5,6,0:0:0:0:
326,272,28618,2,0,L|317:324,2,40,8|8|2,0:0|0:0|3:2,0:0:0:0:
237,164,28921,1,2,3:2:0:0:
174,216,29072,2,0,L|94:206,1,80,0|0,3:0|3:0,0:0:0:0:
0,312,29375,6,0,L|80:302,1,80,6|8,0:0|0:0,0:0:0:0:
89,287,29603,1,8,0:0:0:0:
89,287,29678,2,0,L|169:297,1,80,0|2,3:0|3:2,0:0:0:0:
155,140,29981,2,0,P|156:180|173:215,1,80,2|0,3:2|3:0,0:0:0:0:
323,178,30284,6,0,P|290:155|250:152,1,80,6|8,0:0|0:0,0:0:0:0:
237,164,30512,1,8,0:0:0:0:
237,164,30588,1,0,3:0:0:0:
251,245,30739,1,0,3:0:0:0:
401,202,30891,2,0,P|404:162|387:126,1,80,2|2,3:2|3:2,0:0:0:0:
251,245,31194,6,0,P|247:284|264:320,1,80,6|0,0:0|0:0,0:0:0:0:
283,338,31421,1,8,0:0:0:0:
283,338,31497,2,0,L|386:318,1,80,2|2,3:2|3:2,0:0:0:0:
509,293,31800,2,0,L|406:273,1,80,0|0,3:0|3:0,0:0:0:0:
323,178,32103,5,6,0:0:0:0:
401,202,32254,2,0,L|460:185,2,40,8|8|2,0:0|0:0|3:2,0:0:0:0:
383,123,32557,1,2,3:2:0:0:
245,154,32709,2,0,L|132:182,1,80,0|0,3:0|3:0,0:0:0:0:
85,51,33012,6,0,P|106:90|86:150,1,80,6|8,0:0|0:0,0:0:0:0:
91,139,33239,1,8,0:0:0:0:
91,139,33315,2,0,L|-22:111,1,80,0|2,3:0|3:2,0:0:0:0:
98,219,33618,2,0,L|78:296,1,80,0|2,3:0|3:2,0:0:0:0:
228,320,33921,6,0,P|189:285|130:285,1,80,2|0,3:2|3:0,0:0:0:0:
295,270,34224,2,0,P|278:220|227:190,1,80,2|0,3:2|3:0,0:0:0:0:
378,260,34527,2,0,P|388:208|359:157,1,80,0|0,3:0|3:0,0:0:0:0:
316,62,34830,6,0,P|306:100|314:138,1,80,6|2,0:0|0:0,0:0:0:0:
263,3,35133,2,0,P|224:-7|186:0,1,80,8|2,0:0|0:0,0:0:0:0:
174,15,35360,1,8,0:0:0:0:
174,15,35436,2,0,L|192:108,1,80,2|2,0:0|0:3,0:0:0:0:
53,103,35739,2,0,L|37:181,1,80,8|0,0:0|0:0,0:0:0:0:
127,136,36042,6,0,L|96:293,1,160,2|8,0:0|0:0,0:0:0:0:
172,328,36496,1,2,0:0:0:0:
278,257,36648,2,0,P|240:243|200:251,1,80,2|2,0:0|0:3,0:0:0:0:
357,226,36951,2,0,P|363:264|350:302,1,80,8|0,0:0|0:0,0:0:0:0:
269,177,37254,6,0,L|279:270,1,80,2|2,0:0|0:0,0:0:0:0:
366,123,37557,2,0,L|357:202,1,80,8|2,0:0|0:0,0:0:0:0:
357,226,37784,1,8,0:0:0:0:
357,226,37860,2,0,P|394:239|434:231,1,80,2|2,0:0|0:3,0:0:0:0:
291,98,38163,2,0,P|253:96|206:122,1,80,8|2,0:0|0:3,0:0:0:0:
107,190,38466,5,2,0:0:0:0:
189,187,38617,1,2,0:0:0:0:
104,275,38769,2,0,L|18:261,1,80,8|2,0:0|0:3,0:0:0:0:
21,248,38996,1,2,0:3:0:0:
21,248,39072,2,0,L|8:326,1,80,2|2,0:0|0:0,0:0:0:0:
184,265,39375,2,0,L|196:343,1,80,12|2,0:0|0:3,0:0:0:0:
374,230,39678,6,0,P|330:206|282:210,1,80,6|2,0:0|0:0,0:0:0:0:
172,170,39981,2,0,P|211:166|245:145,1,80,8|2,0:0|0:0,0:0:0:0:
259,131,40208,1,8,0:0:0:0:
259,131,40284,2,0,L|240:32,1,80,2|2,0:0|0:3,0:0:0:0:
125,37,40587,2,0,L|109:115,1,80,8|0,0:0|0:0,0:0:0:0:
172,170,40890,6,0,P|124:150|31:206,1,160,2|8,0:0|0:0,0:0:0:0:
48,278,41345,1,2,0:0:0:0:
207,247,41496,2,0,P|257:240|301:251,1,80,2|2,0:0|0:3,0:0:0:0:
434,236,41799,2,0,P|418:199|393:168,1,80,8|0,0:0|0:0,0:0:0:0:
362,273,42102,6,0,L|350:357,1,80,2|2,0:0|0:0,0:0:0:0:
285,245,42405,2,0,L|273:165,1,80,8|2,0:0|0:0,0:0:0:0:
208,273,42708,2,0,L|196:352,1,80,2|2,0:0|0:3,0:0:0:0:
55,253,43011,2,0,P|92:238|131:245,1,80,12|2,0:0|0:3,0:0:0:0:
155,83,43314,5,2,3:2:0:0:
142,163,43466,1,8,3:2:0:0:
86,35,43617,1,8,3:2:0:0:
86,35,43769,1,8,3:2:0:0:
229,48,43920,2,0,L|308:38,1,80,2|2,3:2|0:3,0:0:0:0:
428,26,44223,2,0,P|389:60|401:152,1,120,0|0,3:0|0:0,0:0:0:0:
460,100,44526,6,0,L|470:271,1,160,6|8,0:0|0:0,0:0:0:0:
387,212,44981,1,2,0:0:0:0:
387,212,45057,1,8,0:0:0:0:
387,212,45133,2,0,L|287:218,1,80,2|2,0:0|0:3,0:0:0:0:
193,139,45436,2,0,L|272:143,1,80,8|0,0:0|0:0,0:0:0:0:
60,187,45739,6,0,P|99:185|153:288,1,160,2|8,0:0|0:0,0:0:0:0:
160,363,46193,1,2,0:0:0:0:
160,363,46269,1,8,0:0:0:0:
160,363,46345,2,0,P|120:363|85:382,1,80,2|2,0:0|0:3,0:0:0:0:
239,376,46648,2,0,P|292:371|333:329,1,80,8|0,0:0|0:0,0:0:0:0:
298,206,46951,6,0,P|275:254|291:310,1,80,2|2,0:0|0:0,0:0:0:0:
376,183,47254,1,8,0:0:0:0:
357,262,47405,1,2,0:0:0:0:
317,131,47557,2,0,L|293:41,1,80,2|2,0:0|0:3,0:0:0:0:
435,239,47860,1,8,0:0:0:0:
454,160,48011,1,2,0:3:0:0:
298,206,48163,6,0,L|207:188,1,80,2|2,0:0|0:0,0:0:0:0:
121,326,48466,2,0,L|212:308,1,80,8|2,0:0|0:3,0:0:0:0:
215,296,48693,1,2,0:3:0:0:
215,296,48769,2,0,L|233:387,1,80,2|2,0:0|0:0,0:0:0:0:
137,217,49072,2,0,L|152:138,1,80,12|2,0:0|0:3,0:0:0:0:
296,285,49375,6,0,P|346:237|445:269,1,160,6|8,0:0|0:0,0:0:0:0:
498,199,49830,1,2,0:0:0:0:
498,199,49905,1,8,0:0:0:0:
498,199,49981,2,0,P|515:162|503:106,1,80,2|2,0:0|0:3,0:0:0:0:
417,65,50284,2,0,L|429:145,1,80,8|0,0:0|0:0,0:0:0:0:
347,260,50587,6,0,L|358:180,1,80,2|2,0:0|0:0,0:0:0:0:
333,71,50890,2,0,P|297:58|242:69,1,80,8|2,0:0|0:0,0:0:0:0:
211,133,51193,2,0,P|247:146|302:135,1,80,2|2,0:0|0:3,0:0:0:0:
175,61,51496,2,0,P|139:48|84:59,1,80,12|0,0:0|0:0,0:0:0:0:
41,171,51799,6,0,L|56:262,1,80,2|2,0:0|0:0,0:0:0:0:
192,213,52102,2,0,L|177:304,1,80,8|2,0:0|0:0,0:0:0:0:
302,160,52405,2,0,L|317:251,1,80,2|2,0:0|0:3,0:0:0:0:
453,202,52708,2,0,L|438:293,1,80,12|0,0:0|0:0,0:0:0:0:
380,120,53011,5,2,3:2:0:0:
255,91,53163,1,8,3:2:0:0:
409,102,53314,5,8,3:2:0:0:
231,112,53466,1,8,3:2:0:0:
438,84,53617,6,0,L|518:78,2,80,8|2|0,3:2|3:2|3:0,0:0:0:0:
193,177,54223,5,12,0:0:0:0:
173,290,54374,1,0,0:0:0:0:
171,158,54526,2,0,B|213:148|213:148|283:180,1,88.000002685547,8|2,0:0|0:0,0:0:0:0:
307,312,54829,1,8,0:0:0:0:
326,211,54980,1,2,0:0:0:0:
247,323,55132,6,0,B|288:342|288:342|330:332,1,88.000002685547,12|0,0:0|0:0,0:0:0:0:
482,259,55435,2,0,B|440:249|440:249|400:268,1,88.000002685547,8|2,0:0|0:0,0:0:0:0:
244,220,55738,2,0,B|286:230|286:230|326:211,1,88.000002685547,8|2,0:0|0:0,0:0:0:0:
418,71,56041,6,0,L|394:188,1,88.000002685547,12|0,0:0|0:0,0:0:0:0:
217,24,56344,2,0,L|241:141,1,88.000002685547,8|2,0:0|0:0,0:0:0:0:
336,21,56647,2,0,L|312:138,1,88.000002685547,8|2,0:0|0:0,0:0:0:0:
265,191,56874,1,2,0:0:0:0:
265,191,56950,5,12,0:0:0:0:
262,321,57101,1,2,0:0:0:0:
384,345,57253,2,0,P|386:288|400:238,1,88.000002685547,12|2,0:0|0:0,0:0:0:0:
456,209,57480,1,2,0:0:0:0:
456,209,57556,2,0,L|354:203,1,88.000002685547,12|2,0:0|0:0,0:0:0:0:
239,301,57859,5,12,0:0:0:0:
109,285,58010,1,2,0:0:0:0:
262,321,58162,2,0,L|276:208,1,88.000002685547,8|2,0:0|0:0,0:0:0:0:
107,153,58465,1,8,0:0:0:0:
236,134,58616,1,2,0:0:0:0:
73,85,58768,6,0,L|84:173,1,88.000002685547,12|2,0:0|0:0,0:0:0:0:
212,52,59071,2,0,L|222:139,1,88.000002685547,8|2,0:0|0:0,0:0:0:0:
370,65,59374,2,0,L|360:153,1,88.000002685547,8|2,0:0|0:0,0:0:0:0:
390,227,59601,1,2,0:0:0:0:
390,227,59677,6,0,P|338:204|282:217,1,88.000002685547,12|2,0:0|0:0,0:0:0:0:
295,340,59980,2,0,P|338:339|376:319,1,88.000002685547,8|2,0:0|0:0,0:0:0:0:
285,126,60283,2,0,P|239:159|222:214,1,88.000002685547,8|2,0:0|0:0,0:0:0:0:
212,267,60510,1,2,0:0:0:0:
212,267,60586,6,0,P|207:210|170:166,1,88.000002685547,12|2,0:0|0:0,0:0:0:0:
107,161,60813,1,2,0:0:0:0:
107,161,60889,1,12,0:0:0:0:
126,247,61041,1,12,0:0:0:0:
194,85,61192,1,12,0:0:0:0:
194,85,61495,5,12,0:0:0:0:
337,48,61647,1,2,0:0:0:0:
173,58,61798,2,0,L|162:150,1,88.000002685547,8|2,0:0|0:0,0:0:0:0:
238,268,62101,1,8,0:0:0:0:
91,235,62253,1,2,0:0:0:0:
259,241,62404,6,0,L|270:333,1,88.000002685547,12|2,0:0|0:0,0:0:0:0:
372,174,62707,2,0,L|361:266,1,88.000002685547,8|2,0:0|0:0,0:0:0:0:
458,105,63010,2,0,L|469:197,1,88.000002685547,8|2,0:0|0:0,0:0:0:0:
269,57,63313,6,0,P|234:48|160:94,1,88.000002685547,12|2,0:0|0:0,0:0:0:0:
11,105,63616,2,0,P|53:112|86:141,1,88.000002685547,8|2,0:0|0:0,0:0:0:0:
260,186,63919,2,0,P|225:195|184:272,1,88.000002685547,8|2,0:0|0:0,0:0:0:0:
126,291,64147,1,2,0:0:0:0:
126,291,64223,5,12,0:0:0:0:
164,145,64374,1,2,0:0:0:0:
172,354,64526,2,0,P|211:358|274:325,1,88.000002685547,12|2,0:0|0:0,0:0:0:0:
294,268,64753,1,2,0:0:0:0:
294,268,64829,2,0,P|337:264|377:281,1,88.000002685547,12|2,0:0|0:0,0:0:0:0:
490,180,65132,5,12,0:0:0:0:
484,312,65283,1,2,0:0:0:0:
471,163,65435,2,0,L|457:72,1,88.000002685547,8|2,0:0|0:0,0:0:0:0:
377,281,65738,1,8,0:0:0:0:
385,143,65889,1,2,0:0:0:0:
399,293,66041,5,12,0:0:0:0:
320,210,66192,1,8,0:0:0:0:
320,210,66268,1,8,0:0:0:0:
320,210,66344,1,10,0:0:0:0:
228,282,66495,1,8,0:0:0:0:
165,214,66647,1,10,0:0:0:0:
98,273,66798,1,8,0:0:0:0:
29,144,66950,6,0,P|18:114|30:45,1,88.000002685547,10|8,0:0|0:0,0:0:0:0:
153,65,67253,2,0,P|125:99|115:141,1,88.000002685547,10|8,0:0|0:0,0:0:0:0:
164,213,67556,2,0,P|194:181|235:166,1,88.000002685547,6|0,0:0|0:0,0:0:0:0:
373,136,67859,6,0,P|310:154|244:55,2,176.000005371094,12|2|2,0:0|0:0|0:0,0:0:0:0:
373,136,68768,6,0,L|357:283,1,136.000002593994,2|2,3:2|3:2,0:0:0:0:
301,332,69223,2,0,P|324:359|354:369,2,68.0000012969971,0|2|0,0:0|3:2|3:0,0:0:0:0:
203,261,69677,6,0,P|172:272|144:302,1,68.0000012969971,2|2,3:2|0:3,0:0:0:0:
282,251,69980,1,2,3:2:0:0:
233,188,70132,5,8,3:2:0:0:
236,170,70283,1,8,3:2:0:0:
239,152,70435,1,8,3:2:0:0:
193,83,70586,6,0,L|105:75,1,68.0000012969971,6|0,0:0|0:0,0:0:0:0:
49,107,70889,2,0,P|63:143|77:195,1,68.0000012969971,2|0,0:0|0:0,0:0:0:0:
145,209,71192,2,0,P|131:245|117:297,1,68.0000012969971,2|2,0:0|0:3,0:0:0:0:
127,299,71419,1,2,0:3:0:0:
127,299,71495,6,0,P|224:280|290:286,1,136.000002593994,2|2,0:0|0:0,0:0:0:0:
331,326,71950,1,2,0:3:0:0:
397,277,72101,2,0,P|408:228|402:180,1,68.0000012969971,2|2,0:0|0:3,0:0:0:0:
254,202,72404,6,0,P|243:153|249:105,1,68.0000012969971,2|2,0:0|0:3,0:0:0:0:
313,88,72707,2,0,P|324:137|318:185,1,68.0000012969971,2|2,0:0|0:3,0:0:0:0:
239,57,73010,2,0,P|181:49|150:50,1,68.0000012969971,2|2,0:0|0:3,0:0:0:0:
165,32,73238,1,2,0:3:0:0:
165,32,73313,6,0,P|87:47|21:47,1,136.000002593994,2|2,0:0|0:0,0:0:0:0:
8,129,73768,1,2,0:3:0:0:
48,203,73919,2,0,P|102:189|136:189,1,68.0000012969971,2|2,0:0|0:3,0:0:0:0:
243,135,74223,6,0,P|232:176|230:234,1,68.0000012969971,2|2,0:0|0:3,0:0:0:0:
164,252,74526,2,0,P|175:293|177:351,1,68.0000012969971,2|2,0:0|0:3,0:0:0:0:
287,259,74829,2,0,P|327:245|374:245,1,68.0000012969971,2|2,0:0|0:3,0:0:0:0:
372,263,75056,1,2,0:3:0:0:
372,263,75132,6,0,P|373:211|408:119,1,136.000002593994,2|2,0:0|0:0,0:0:0:0:
457,72,75586,1,2,0:3:0:0:
507,137,75738,2,0,P|517:224|517:230,1,68.0000012969971,2|2,0:0|0:3,0:0:0:0:
512,230,75965,1,2,0:3:0:0:
512,230,76041,6,0,P|487:229|437:247,1,68.0000012969971,2|0,0:0|0:0,0:0:0:0:
329,330,76344,2,0,P|360:341|394:341,1,68.0000012969971,2|2,0:0|0:3,0:0:0:0:
335,209,76647,2,0,P|303:197|269:197,1,68.0000012969971,6|0,0:0|0:0,0:0:0:0:
179,352,76950,5,2,0:0:0:0:
250,307,77101,2,0,L|243:268,2,40,8|8|2,0:0|0:0|0:0,0:0:0:0:
159,224,77404,1,0,3:0:0:0:
117,296,77556,1,2,3:2:0:0:
91,175,77707,1,2,3:2:0:0:
236,188,77859,6,0,L|328:178,1,80,6|8,0:0|0:0,0:0:0:0:
332,161,78086,1,8,0:0:0:0:
332,161,78162,2,0,L|411:169,1,80,0|2,3:0|3:2,0:0:0:0:
470,108,78465,1,0,3:0:0:0:
470,108,78616,1,2,3:2:0:0:
477,224,78768,6,0,L|471:315,1,80,6|2,0:0|0:0,0:0:0:0:
450,303,78995,1,2,0:0:0:0:
450,303,79071,2,0,L|455:382,1,80,2|2,3:2|3:2,0:0:0:0:
374,362,79374,2,0,L|294:367,1,80,0|0,3:0|3:0,0:0:0:0:
179,312,79677,6,0,P|226:312|271:268,1,80,6|2,0:0|0:0,0:0:0:0:
268,277,79904,1,2,0:0:0:0:
268,277,79980,2,0,L|249:192,1,80,0|2,3:0|3:2,0:0:0:0:
182,152,80283,2,0,L|164:230,1,80,0|2,3:0|3:2,0:0:0:0:
258,115,80586,5,6,0:0:0:0:
190,69,80738,2,0,L|126:64,2,40,8|8|0,0:0|0:0|3:0,0:0:0:0:
319,59,81041,1,2,3:2:0:0:
258,115,81192,1,0,3:0:0:0:
372,129,81344,1,2,3:2:0:0:
250,198,81495,6,0,L|270:288,1,80,6|0,0:0|0:0,0:0:0:0:
252,298,81723,1,8,0:0:0:0:
252,298,81798,2,0,P|200:293|161:312,1,80,0|2,3:0|3:2,0:0:0:0:
218,374,82101,2,0,P|270:379|309:360,1,80,0|2,3:0|3:2,0:0:0:0:
341,238,82404,5,6,0:0:0:0:
362,319,82556,2,0,L|419:313,2,40,8|8|0,0:0|0:0|3:0,0:0:0:0:
426,231,82859,1,2,3:2:0:0:
482,292,83010,2,0,L|479:381,1,80,0|2,3:0|3:2,0:0:0:0:
341,238,83313,5,6,0:0:0:0:
379,159,83465,2,0,L|322:153,2,40,8|8|8,0:0|0:0|0:0,0:0:0:0:
266,199,83768,1,8,0:0:0:0:
266,114,83919,2,0,L|275:18,1,80,0|0,3:0|0:0,0:0:0:0:
189,159,84223,6,0,P|175:148|94:144,1,80,12|2,0:0|0:3,0:0:0:0:
98,150,84450,1,2,0:3:0:0:
98,150,84526,2,0,L|113:243,1,80,2|2,0:0|0:3,0:0:0:0:
0,253,84829,2,0,B|71:261|29:307|122:310,1,120,6|0,0:0|0:0,0:0:0:0:
177,277,85132,6,0,L|268:267,1,80,6|2,0:0|0:0,0:0:0:0:
325,153,85435,2,0,L|335:244,1,80,8|2,0:0|0:0,0:0:0:0:
336,262,85662,1,8,0:0:0:0:
336,262,85738,2,0,P|367:253|439:274,1,80,2|2,0:0|0:3,0:0:0:0:
486,147,86041,2,0,P|446:153|408:144,1,80,8|0,0:0|0:0,0:0:0:0:
325,153,86344,6,0,P|380:124|386:17,1,160,2|8,0:0|0:0,0:0:0:0:
324,73,86798,1,2,0:0:0:0:
324,73,86950,2,0,L|245:62,1,80,2|2,0:0|0:3,0:0:0:0:
269,217,87253,2,0,L|190:228,1,80,8|0,0:0|0:0,0:0:0:0:
169,101,87556,6,0,P|160:62|177:12,1,80,2|2,0:0|0:0,0:0:0:0:
128,171,87859,2,0,P|89:180|39:163,1,80,8|2,0:0|0:0,0:0:0:0:
32,159,88086,1,0,0:0:0:0:
32,159,88162,2,0,L|41:270,1,80,2|2,0:0|0:3,0:0:0:0:
189,228,88465,2,0,L|180:339,1,80,8|2,0:0|0:3,0:0:0:0:
234,155,88768,5,2,0:0:0:0:
274,229,88919,1,2,0:0:0:0:
337,109,89071,2,0,P|343:77|312:21,1,80,8|2,0:0|0:3,0:0:0:0:
311,19,89298,1,2,0:3:0:0:
311,19,89374,2,0,L|232:10,1,80,2|2,0:0|0:0,0:0:0:0:
234,155,89677,2,0,L|155:164,1,80,12|2,0:0|0:3,0:0:0:0:
352,190,89980,6,0,L|361:269,1,80,6|2,0:0|0:0,0:0:0:0:
491,249,90283,2,0,L|482:328,1,80,8|2,0:0|0:0,0:0:0:0:
468,351,90510,1,0,0:0:0:0:
468,351,90586,2,0,B|430:337|430:337|382:341,1,80,2|2,0:0|0:3,0:0:0:0:
283,280,90889,2,0,B|322:283|322:283|360:269,1,80,8|0,0:0|0:0,0:0:0:0:
310,202,91192,6,0,L|146:187,1,160,2|8,0:0|0:0,0:0:0:0:
79,234,91647,1,2,0:0:0:0:
79,234,91722,1,8,0:0:0:0:
79,234,91798,2,0,P|65:184|79:135,1,80,2|2,0:0|0:3,0:0:0:0:
152,270,92101,2,0,P|166:320|152:369,1,80,12|0,0:0|0:0,0:0:0:0:
150,187,92404,6,0,L|162:107,1,80,2|2,0:0|0:0,0:0:0:0:
225,227,92707,2,0,L|304:239,1,80,8|2,0:0|0:0,0:0:0:0:
398,305,93010,2,0,L|385:225,1,80,2|2,0:0|0:3,0:0:0:0:
323,345,93313,2,0,L|243:357,1,80,8|8,0:0|0:0,0:0:0:0:
219,332,93541,1,8,0:0:0:0:
219,332,93616,5,2,3:2:0:0:
140,362,93768,1,8,3:2:0:0:
87,296,93919,1,8,3:2:0:0:
133,225,94071,1,8,3:2:0:0:
215,248,94222,2,0,P|247:232|279:183,1,80,8|2,3:2|3:2,0:0:0:0:
133,225,94525,2,0,P|127:189|90:144,1,80,0|0,3:0|0:0,0:0:0:0:
254,118,94828,6,0,L|345:111,1,80,6|2,0:0|0:0,0:0:0:0:
360,191,95132,2,0,L|440:198,1,80,8|2,0:0|0:0,0:0:0:0:
470,197,95359,1,8,0:0:0:0:
470,197,95435,2,0,P|453:239|464:291,1,80,2|2,0:0|0:3,0:0:0:0:
458,383,95738,2,0,P|435:351|400:334,1,80,8|0,0:0|0:0,0:0:0:0:
299,248,96041,6,0,P|275:280|240:297,1,80,2|2,0:0|0:0,0:0:0:0:
137,208,96344,1,8,0:0:0:0:
218,215,96495,2,0,L|229:160,2,40,2|8|2,0:0|0:0|0:0,0:0:0:0:
162,130,96798,1,2,0:3:0:0:
111,285,96950,2,0,L|84:374,1,80,8|0,0:0|0:0,0:0:0:0:
81,149,97253,6,0,L|57:72,1,80,2|2,0:0|0:0,0:0:0:0:
237,96,97556,1,8,0:0:0:0:
237,96,97707,1,2,0:0:0:0:
162,130,97859,2,0,L|138:53,1,80,2|2,0:0|0:3,0:0:0:0:
280,167,98162,2,0,B|293:205|293:205|278:279,1,80,8|2,0:0|0:3,0:0:0:0:
323,94,98465,6,0,L|399:70,1,80,2|2,0:0|0:0,0:0:0:0:
469,180,98768,2,0,L|392:156,1,80,8|2,0:0|0:3,0:0:0:0:
372,170,98995,1,2,0:3:0:0:
372,170,99071,2,0,P|391:222|393:272,1,80,2|2,0:0|0:0,0:0:0:0:
275,341,99374,1,12,0:0:0:0:
275,341,99525,1,2,0:3:0:0:
354,320,99677,6,0,L|168:310,1,160,6|8,0:0|0:0,0:0:0:0:
130,259,100132,1,2,0:0:0:0:
130,259,100207,1,8,0:0:0:0:
130,259,100283,2,0,P|165:232|232:238,1,80,2|2,0:0|0:3,0:0:0:0:
315,191,100586,2,0,P|275:184|245:159,1,80,8|0,0:0|0:0,0:0:0:0:
304,33,100889,6,0,P|317:70|311:109,1,80,2|2,0:0|0:0,0:0:0:0:
165,154,101192,2,0,P|151:116|157:77,1,80,8|2,0:0|0:0,0:0:0:0:
177,60,101419,1,8,0:0:0:0:
177,60,101495,2,0,L|74:50,1,80,2|2,0:0|0:3,0:0:0:0:
245,159,101798,2,0,L|237:238,1,80,12|0,0:0|0:0,0:0:0:0:
104,289,102101,5,2,0:0:0:0:
104,289,102253,1,2,0:0:0:0:
237,238,102404,2,0,B|201:219|201:219|145:230,1,80,8|2,0:0|0:0,0:0:0:0:
22,262,102707,1,2,0:0:0:0:
22,262,102859,1,2,0:3:0:0:
179,383,103010,2,0,B|198:347|198:347|187:291,1,80,12|0,0:0|0:0,0:0:0:0:
310,207,103313,6,0,L|320:266,3,40,8|0|2|2,0:0|3:0|0:0|0:0,0:0:0:0:
390,280,103616,2,0,L|396:240,1,40,8|0,0:0|3:0,0:0:0:0:
411,162,103768,2,0,L|404:201,1,40,2|2,0:0|0:0,0:0:0:0:
376,362,103919,5,12,0:0:0:0:
274,44,104525,5,12,0:0:0:0:
189,114,104676,1,0,0:0:0:0:
274,44,104828,2,0,B|226:68|226:68|202:150|250:181,1,176.000005371094,8|8,0:0|0:0,0:0:0:0:
304,120,105282,1,2,0:0:0:0:
186,37,105434,6,0,L|99:18,1,88.000002685547,8|2,0:0|0:0,0:0:0:0:
3,119,105737,1,8,0:0:0:0:
118,204,105888,2,0,P|128:183|125:152,1,44.0000013427735,2|0,0:0|0:0,0:0:0:0:
80,98,106040,1,8,0:0:0:0:
31,278,106191,5,2,0:0:0:0:
31,278,106267,1,2,0:0:0:0:
31,278,106343,2,0,P|54:332|61:392,1,88.000002685547,12|2,0:0|0:0,0:0:0:0:
118,204,106646,2,0,P|170:243|209:296,1,132.00000402832,8|0,0:0|0:0,0:0:0:0:
209,296,106949,2,0,P|213:252|230:211,1,88.000002685547,8|2,0:0|0:0,0:0:0:0:
292,151,107176,5,2,0:0:0:0:
292,151,107252,2,0,L|404:176,1,88.000002685547,12|2,0:0|0:0,0:0:0:0:
210,133,107555,2,0,L|124:113,1,88.000002685547,12|2,0:0|0:0,0:0:0:0:
112,108,107782,1,2,0:0:0:0:
111,93,107858,1,12,0:0:0:0:
184,40,108009,1,2,0:0:0:0:
292,153,108161,6,0,B|316:204|303:252|280:237|263:289|293:331,2,176.000005371094,12|8|8,0:0|0:0|0:0,0:0:0:0:
370,299,108918,1,2,0:0:0:0:
370,299,108994,1,2,0:0:0:0:
370,299,109070,2,0,P|294:316|270:334,1,88.000002685547,12|2,0:0|0:0,0:0:0:0:
398,204,109373,2,0,P|437:222|481:225,1,88.000002685547,8|2,0:0|0:0,0:0:0:0:
387,83,109676,1,8,0:0:0:0:
296,49,109828,5,2,0:0:0:0:
296,49,109903,1,2,0:0:0:0:
296,49,109979,2,0,B|221:58|221:58|192:85|221:118,1,132.00000402832,12|0,0:0|0:0,0:0:0:0:
211,125,110282,2,0,P|196:99|217:38,1,88.000002685547,8|2,0:0|0:0,0:0:0:0:
173,202,110585,2,0,P|142:201|100:153,1,88.000002685547,8|2,0:0|0:0,0:0:0:0:
269,206,110888,5,12,0:0:0:0:
322,268,111040,1,2,0:0:0:0:
294,346,111191,1,12,0:0:0:0:
322,268,111343,1,2,0:0:0:0:
362,246,111418,1,2,0:0:0:0:
403,254,111494,2,0,P|426:218|418:166,1,88.000002685547,12|2,0:0|0:0,0:0:0:0:
255,34,111797,5,12,0:0:0:0:
187,98,111949,1,2,0:0:0:0:
255,34,112100,2,0,B|200:34|174:68|182:75|158:113|92:106,1,176.000005371094,8|8,0:0|0:0,0:0:0:0:
239,218,112555,5,2,0:0:0:0:
239,218,112631,1,2,0:0:0:0:
239,218,112706,2,0,B|268:180|268:180|241:108,1,88.000002685547,12|2,0:0|0:0,0:0:0:0:
159,246,113009,2,0,B|177:290|177:290|217:296,1,88.000002685547,8|2,0:0|0:0,0:0:0:0:
163,160,113312,2,0,B|115:153|115:153|90:184,1,88.000002685547,8|2,0:0|0:0,0:0:0:0:
217,296,113615,6,0,P|266:282|326:269,1,88.000002685547,12|2,0:0|0:0,0:0:0:0:
90,184,113918,2,0,P|77:233|58:291,1,88.000002685547,8|2,0:0|0:0,0:0:0:0:
253,142,114221,2,0,P|216:106|175:61,1,88.000002685547,8|2,0:0|0:0,0:0:0:0:
184,3,114449,5,2,0:0:0:0:
184,3,114525,2,0,L|235:-6,3,44.0000013427735,8|0|2|2,0:0|3:0|0:0|0:0,0:0:0:0:
289,43,114828,2,0,L|332:50,3,44.0000013427735,8|0|2|2,0:0|3:0|0:0|0:0,0:0:0:0:
398,13,115131,1,12,0:0:0:0:
346,239,115434,6,0,B|245:267|245:267|237:306|199:334,2,176.000005371094,12|8|8,0:0|0:0|0:0,0:0:0:0:
289,298,116191,1,2,0:0:0:0:
357,222,116343,2,0,L|442:244,1,88.000002685547,12|2,0:0|0:0,0:0:0:0:
452,239,116571,1,2,0:0:0:0:
459,233,116646,2,0,P|477:191|461:136,1,88.000002685547,8|2,0:0|0:0,0:0:0:0:
367,139,116949,2,0,P|349:181|365:236,1,88.000002685547,8|2,0:0|0:0,0:0:0:0:
432,54,117252,6,0,B|394:18|344:28|344:28|323:77|265:73,1,176.000005371094,12|8,0:0|0:0,0:0:0:0:
177,20,117706,1,8,0:0:0:0:
188,16,117782,1,8,0:0:0:0:
200,18,117858,1,2,0:0:0:0:
233,158,118009,6,0,L|220:219,2,44.0000013427735,0|0|2,3:0|3:0|0:0,0:0:0:0:
153,146,118312,1,0,3:0:0:0:
89,187,118464,1,2,3:2:0:0:
68,261,118615,1,0,3:0:0:0:
95,337,118767,2,0,P|131:321|150:266,1,88.000002685547,2|0,3:2|3:0,0:0:0:0:
81,107,119070,5,6,0:0:0:0:
81,107,119373,2,0,P|44:97|10:99,1,64,8|0,3:2|0:0,0:0:0:0:
129,43,119676,2,0,P|101:15|71:0,1,64,8|0,3:2|0:0,0:0:0:0:
72,187,119979,5,2,0:0:0:0:
72,187,120282,2,0,P|34:196|6:215,1,64,8|2,3:2|0:3,0:0:0:0:
81,107,120585,2,0,P|44:96|9:98,1,64,8|0,3:2|0:0,0:0:0:0:
105,261,120888,5,2,0:0:0:0:
105,261,121191,2,0,P|77:288|62:318,1,64,8|2,3:2|0:3,0:0:0:0:
72,187,121494,2,0,P|34:196|6:215,1,64,8|0,3:2|0:0,0:0:0:0:
175,306,121797,5,2,0:0:0:0:
175,306,121949,2,0,P|165:343|167:377,1,64,8|2,0:0|0:3,0:0:0:0:
244,380,122252,2,0,P|254:343|251:308,1,64,0|8,3:0|3:2,0:0:0:0:
390,112,122706,5,2,0:0:0:0:
390,112,123009,2,0,L|469:100,1,64,8|2,3:2|0:3,0:0:0:0:
465,180,123312,2,0,L|401:189,1,64,8|0,3:2|0:0,0:0:0:0:
271,138,123615,5,2,0:0:0:0:
271,138,123918,2,0,L|345:167,1,64,8|0,3:2|0:0,0:0:0:0:
301,234,124221,2,0,L|241:210,1,64,8|0,3:2|0:0,0:0:0:0:
152,95,124525,5,2,0:0:0:0:
152,95,124828,2,0,L|201:157,1,64,8|2,3:2|0:3,0:0:0:0:
129,193,125131,2,0,L|89:143,1,64,8|0,3:2|0:0,0:0:0:0:
174,18,125434,6,0,L|219:8,3,32,2|0|0|0,0:0|0:0|3:0|3:0,0:0:0:0:
245,31,125737,2,0,L|290:21,3,32,2|0|0|0,3:2|3:0|3:0|3:0,0:0:0:0:
316,44,126040,2,0,L|361:34,3,32,2|0|0|0,3:2|3:0|3:0|3:0,0:0:0:0:
394,55,126343,6,0,P|382:105|386:134,1,64,6|0,0:0|0:0,0:0:0:0:
476,198,126646,2,0,P|488:248|484:277,1,64,8|0,3:2|0:0,0:0:0:0:
426,365,126949,1,8,3:2:0:0:
426,365,127252,6,0,P|414:315|418:286,1,64,2|0,0:0|0:0,0:0:0:0:
476,198,127555,2,0,P|488:148|484:119,1,64,8|2,3:2|0:3,0:0:0:0:
394,55,127858,1,8,3:2:0:0:
394,55,128161,6,0,P|344:43|296:110,1,128,2|2,0:0|0:3,0:0:0:0:
259,164,128615,2,0,L|275:226,1,64,0|8,3:0|0:0,0:0:0:0:
274,225,128918,1,2,0:0:0:0:
213,308,129070,6,0,B|148:298|148:298|145:293|145:293|76:284,2,128,0|2|0,3:0|0:3|3:0,0:0:0:0:
41,206,129979,5,6,0:0:0:0:
41,206,130282,2,0,P|36:166|28:129,1,64,10|8,0:0|0:0,0:0:0:0:
140,266,130585,2,0,P|145:226|153:189,1,64,10|8,0:0|0:0,0:0:0:0:
56,319,130888,5,10,0:0:0:0:
56,319,131040,1,8,0:0:0:0:
140,266,131191,5,10,0:0:0:0:
140,266,131343,1,8,0:0:0:0:
238,339,131494,5,10,0:0:0:0:
238,339,131646,1,8,0:0:0:0:
335,267,131797,5,10,0:0:0:0:
421,301,131949,1,8,0:0:0:0:
480,232,132100,1,10,0:0:0:0:
431,153,132252,1,8,0:0:0:0:
341,175,132403,1,10,0:0:0:0:
421,301,132555,1,8,0:0:0:0:
431,153,132706,5,10,0:0:0:0:
113,146,133615,5,12,0:0:0:0:
21,208,133767,1,0,0:0:0:0:
113,146,133918,2,0,L|12:130,1,83.9999974365235,8|2,0:0|0:0,0:0:0:0:
125,262,134221,2,0,L|226:246,1,83.9999974365235,8|2,0:0|0:0,0:0:0:0:
342,161,134525,6,0,P|300:129|304:214,1,167.999994873047,12|8,0:0|0:0,0:0:0:0:
289,216,134903,1,0,0:0:0:0:
300,222,134979,1,2,0:0:0:0:
419,163,135131,2,0,P|409:124|385:85,1,83.9999974365235,8|2,0:0|0:0,0:0:0:0:
200,4,135434,5,12,0:0:0:0:
101,52,135585,1,2,0:0:0:0:
200,4,135737,2,0,L|188:109,1,83.9999974365235,8|2,0:0|0:0,0:0:0:0:
118,237,136040,2,0,L|108:153,1,83.9999974365235,8|2,0:0|0:0,0:0:0:0:
190,87,136343,5,12,0:0:0:0:
231,193,136494,1,2,0:0:0:0:
231,193,136570,1,2,0:0:0:0:
231,193,136646,1,12,0:0:0:0:
118,237,136797,5,12,0:0:0:0:
91,330,136949,2,0,P|63:336|91:326,1,83.9999974365235,12|2,0:0|0:0,0:0:0:0:
246,362,137252,5,12,0:0:0:0:
333,384,137403,1,2,0:0:0:0:
246,362,137555,2,0,P|257:311|254:253,1,83.9999974365235,8|2,0:0|0:0,0:0:0:0:
360,178,137858,2,0,P|361:219|371:260,1,83.9999974365235,8|2,0:0|0:0,0:0:0:0:
211,138,138161,6,0,P|275:127|298:13,1,167.999994873047,12|8,0:0|0:0,0:0:0:0:
309,38,138540,1,0,0:0:0:0:
309,38,138615,1,2,0:0:0:0:
191,15,138767,2,0,P|133:33|95:35,1,83.9999974365235,8|2,0:0|0:0,0:0:0:0:
14,130,139070,6,0,B|74:130|94:166|90:166|105:202|171:200,2,167.999994873047,12|8|8,0:0|0:0|0:0,0:0:0:0:
0,384,139979,2,0,P|29:359|80:358,1,83.9999974365235,8|2,0:0|0:0,0:0:0:0:
87,357,140206,1,2,0:0:0:0:
96,362,140282,1,8,0:0:0:0:
154,296,140434,6,0,L|212:276,1,41.9999987182618,2|2,0:0|0:0,0:0:0:0:
245,349,140585,2,0,L|284:362,3,41.9999987182618,12|0|2|0,0:0|0:0|0:0|0:0,0:0:0:0:
300,365,140888,6,0,P|284:325|281:284,1,83.9999974365235,12|2,0:0|0:0,0:0:0:0:
406,202,141191,1,8,0:0:0:0:
474,266,141343,1,2,0:0:0:0:
406,202,141494,1,8,0:0:0:0:
486,96,141646,5,2,0:0:0:0:
486,96,141721,1,2,0:0:0:0:
486,96,141797,2,0,P|503:136|495:179,1,83.9999974365235,12|2,0:0|0:0,0:0:0:0:
393,53,142100,2,0,P|419:18|460:3,1,83.9999974365235,8|2,0:0|0:0,0:0:0:0:
396,157,142403,2,0,L|334:145,3,41.9999987182618,8|0|2|2,0:0|0:0|0:0|0:0,0:0:0:0:
337,131,142706,6,0,P|279:144|252:151,1,83.9999974365235,12|2,0:0|0:0,0:0:0:0:
154,44,143009,2,0,P|96:31|69:24,1,83.9999974365235,8|2,0:0|0:0,0:0:0:0:
16,157,143312,5,8,0:0:0:0:
46,249,143464,1,2,0:0:0:0:
15,157,143615,2,0,P|56:149|93:168,1,83.9999974365235,0|2,3:0|0:0,0:0:0:0:
150,105,143918,2,0,P|176:136|179:178,1,83.9999974365235,8|2,0:0|0:0,0:0:0:0:
46,249,144221,1,12,0:0:0:0:
262,345,144525,5,12,0:0:0:0:
352,331,144676,1,2,0:0:0:0:
433,242,144828,5,8,0:0:0:0:
343,228,144979,1,2,0:0:0:0:
433,242,145131,2,0,P|453:196|440:148,1,83.9999974365235,8|2,0:0|0:0,0:0:0:0:
310,39,145434,6,0,P|232:79|128:74,1,167.999994873047,12|8,0:0|0:0,0:0:0:0:
153,80,145812,1,0,0:0:0:0:
153,80,145888,1,2,0:0:0:0:
245,120,146040,2,0,P|281:143|305:190,1,83.9999974365235,8|2,0:0|0:0,0:0:0:0:
325,317,146343,5,12,0:0:0:0:
325,317,146646,1,10,0:0:0:0:
243,286,146797,1,8,0:0:0:0:
152,341,146949,5,10,0:0:0:0:
240,294,147100,1,8,0:0:0:0:
125,239,147252,5,10,0:0:0:0:
248,294,147403,1,8,0:0:0:0:
119,247,147555,5,10,0:0:0:0:
234,191,147706,1,8,0:0:0:0:
91,125,147858,5,10,0:0:0:0:
239,183,148009,1,8,0:0:0:0:
91,125,148161,5,6,0:0:0:0:
75,303,155434,6,0,P|107:270|78:329,1,240.000009155274,8|8,3:2|3:2,0:0:0:0:
167,254,156343,1,0,3:0:0:0:
372,359,157252,6,0,B|415:365|435:325|435:325|405:149,1,240.000009155274,8|8,3:2|3:2,0:0:0:0:
385,47,158161,1,0,3:0:0:0:
207,88,158464,6,0,P|284:96|310:139,1,120.000004577637
225,256,159070,2,0,B|160:296|111:244|116:244|66:179|-3:228,1,240.000009155274,8|8,3:2|3:2,0:0:0:0:
48,302,159979,5,0,3:0:0:0:
12,380,160282,1,0,0:0:0:0:
48,302,160585,1,0,0:0:0:0:
198,173,160888,5,8,3:2:0:0:
342,285,161191,1,8,3:2:0:0:
503,170,161494,1,8,3:2:0:0:
497,159,161797,6,0,L|435:171,3,41.9999987182618,8|0|0|0,3:2|3:0|3:0|3:0,0:0:0:0:
406,234,162100,2,0,L|344:222,3,41.9999987182618,8|0|0|0,3:2|3:0|3:0|3:0,0:0:0:0:
313,162,162403,2,0,L|251:174,1,41.9999987182618,8|0,3:2|3:0,0:0:0:0:
212,238,162555,2,0,L|150:226,1,41.9999987182618,0|0,3:0|3:0,0:0:0:0:
28,235,162706,6,0,P|5:194|23:152,1,95.9999970703126,12|0,0:0|0:0,0:0:0:0:
170,230,163009,2,0,P|146:270|100:275,1,95.9999970703126,8|2,0:0|0:0,0:0:0:0:
131,118,163312,1,8,0:0:0:0:
245,127,163464,5,2,0:0:0:0:
245,127,163540,1,0,0:0:0:0:
245,127,163615,2,0,P|334:172|427:173,1,191.999994140625,12|8,0:0|0:0,0:0:0:0:
402,84,164070,1,2,0:0:0:0:
402,84,164146,1,2,0:0:0:0:
402,84,164221,2,0,P|354:82|312:60,1,95.9999970703126,8|2,0:0|0:0,0:0:0:0:
140,30,164525,6,0,B|101:68|101:68|123:176,1,143.999995605469,12|0,0:0|0:0,0:0:0:0:
109,169,164828,2,0,L|86:61,1,95.9999970703126,8|2,0:0|0:0,0:0:0:0:
225,220,165131,2,0,L|248:112,1,95.9999970703126,8|2,0:0|0:0,0:0:0:0:
128,316,165434,5,12,0:0:0:0:
223,343,165585,1,2,0:0:0:0:
322,286,165737,5,12,0:0:0:0:
417,259,165888,1,2,0:0:0:0:
490,319,166040,1,12,0:0:0:0:
333,377,166191,5,2,0:0:0:0:
333,377,166267,1,2,0:0:0:0:
333,377,166343,2,0,P|315:328|326:275,1,95.9999970703126,12|2,0:0|0:0,0:0:0:0:
405,167,166646,2,0,P|423:216|412:269,1,95.9999970703126,8|2,0:0|0:0,0:0:0:0:
259,144,166949,5,8,0:0:0:0:
322,80,167100,1,2,0:0:0:0:
322,80,167176,1,2,0:0:0:0:
322,80,167252,2,0,L|167:115,1,143.999995605469,12|0,0:0|0:0,0:0:0:0:
181,111,167555,1,8,0:0:0:0:
70,65,167706,5,2,0:0:0:0:
31,189,167858,1,8,0:0:0:0:
70,65,168009,1,2,0:0:0:0:
139,213,168161,6,0,P|48:235|19:326,1,191.999994140625,12|0,0:0|0:0,0:0:0:0:
205,263,168615,2,0,P|218:193|174:139,1,143.999995605469,12|0,0:0|0:0,0:0:0:0:
174,139,168918,1,2,0:0:0:0:
133,300,169070,2,0,P|166:332|213:341,1,95.9999970703126,12|0,0:0|0:0,0:0:0:0:
346,204,169373,5,8,0:0:0:0:
272,225,169525,1,2,0:0:0:0:
346,204,169676,1,8,0:0:0:0:
421,274,169828,5,2,0:0:0:0:
421,274,169903,1,2,0:0:0:0:
421,274,169979,2,0,L|432:373,1,95.9999970703126,12|2,0:0|0:0,0:0:0:0:
272,225,170282,2,0,L|282:129,1,95.9999970703126,8|2,0:0|0:0,0:0:0:0:
435,26,170585,1,8,0:0:0:0:
501,92,170737,5,2,0:0:0:0:
501,92,170812,1,2,0:0:0:0:
501,92,170888,2,0,B|433:82|433:82|402:107|402:107,1,95.9999970703126,12|2,0:0|0:0,0:0:0:0:
289,28,171191,2,0,B|221:38|221:38|190:13|190:13,1,95.9999970703126,8|2,0:0|0:0,0:0:0:0:
295,35,171494,1,8,0:0:0:0:
200,142,171646,5,2,0:0:0:0:
200,142,171721,1,2,0:0:0:0:
200,142,171797,2,0,L|147:154,3,47.9999985351563,8|8|2|2,0:0|0:0|0:0|0:0,0:0:0:0:
119,192,172100,2,0,L|71:183,2,47.9999985351563,0|0|2,3:0|3:0|0:0,0:0:0:0:
190,282,172403,2,0,L|202:335,3,47.9999985351563,0|0|2|2,3:0|3:0|0:0|0:0,0:0:0:0:
200,328,172706,5,8,0:0:0:0:
310,353,172858,1,2,0:0:0:0:
310,353,172934,1,2,0:0:0:0:
310,353,173009,1,8,0:0:0:0:
349,255,173161,2,0,L|420:263,1,47.9999985351563,2|2,0:0|0:0,0:0:0:0:
411,255,173312,1,12,0:0:0:0:
455,67,173615,6,0,B|386:86|386:86|363:126|393:166,1,143.999995605469,12|0,0:0|0:0,0:0:0:0:
379,166,173918,2,0,P|363:127|379:70,1,95.9999970703126,10|8,0:0|0:0,0:0:0:0:
280,6,174221,2,0,P|246:39|238:86,1,95.9999970703126,10|8,0:0|0:0,0:0:0:0:
239,236,174525,5,10,0:0:0:0:
239,236,174676,1,8,0:0:0:0:
171,173,174828,5,10,0:0:0:0:
307,195,174979,1,8,0:0:0:0:
207,328,175131,5,10,0:0:0:0:
71,350,175282,1,8,0:0:0:0:
130,293,175434,5,2,0:0:0:0:
130,292,177252,6,0,P|204:308|223:382,1,160
341,294,178161,6,0,L|322:181,1,88.000002685547,12|0,0:0|0:0,0:0:0:0:
393,86,178464,1,8,0:0:0:0:
476,135,178615,1,2,0:0:0:0:
393,86,178767,2,0,L|306:100,1,88.000002685547,8|2,0:0|0:0,0:0:0:0:
213,222,179070,6,0,P|299:222|338:313,2,176.000005371094,12|8|8,0:0|0:0|0:0,0:0:0:0:
105,137,179828,1,2,0:0:0:0:
105,137,179903,1,2,0:0:0:0:
105,137,179979,2,0,B|16:60|127:-14|145:68,1,176.000005371094,12|8,0:0|0:0,0:0:0:0:
97,148,180434,1,2,0:0:0:0:
213,222,180585,2,0,P|193:171|195:130,1,88.000002685547,8|2,0:0|0:0,0:0:0:0:
95,268,180888,5,12,0:0:0:0:
95,268,181040,1,2,0:0:0:0:
209,348,181191,5,12,0:0:0:0:
209,348,181343,1,2,0:0:0:0:
301,301,181494,6,0,P|343:312|386:318,1,88.000002685547,12|2,0:0|0:0,0:0:0:0:
474,186,181797,5,12,0:0:0:0:
453,107,181949,1,2,0:0:0:0:
391,10,182100,5,8,0:0:0:0:
370,89,182252,1,2,0:0:0:0:
348,167,182403,2,0,P|338:126|357:87,1,88.000002685547,8|2,0:0|0:0,0:0:0:0:
474,186,182706,6,0,P|371:211|311:254,2,176.000005371094,12|8|8,0:0|0:0|0:0,0:0:0:0:
494,333,183464,1,2,0:0:0:0:
494,333,183540,1,2,0:0:0:0:
494,333,183615,2,0,P|457:309|414:300,1,88.000002685547,12|2,0:0|0:0,0:0:0:0:
314,250,183918,2,0,P|277:273|234:282,1,88.000002685547,8|2,0:0|0:0,0:0:0:0:
129,304,184221,2,0,P|152:340|161:383,1,88.000002685547,8|2,0:0|0:0,0:0:0:0:
167,210,184525,5,8,0:0:0:0:
170,200,184600,1,0,3:0:0:0:
172,190,184676,1,2,0:0:0:0:
102,128,184828,2,0,L|48:145,2,44.0000013427735,8|0|2,0:0|3:0|0:0,0:0:0:0:
199,1,185131,6,0,L|188:102,1,95.9999970703126,12|2,0:0|0:0,0:0:0:0:
