osu file format v14

[General]
AudioFilename: audio.mp3
AudioLeadIn: 0
PreviewTime: 54072
Countdown: 0
SampleSet: Soft
StackLeniency: 0.3
Mode: 0
LetterboxInBreaks: 0
WidescreenStoryboard: 0

[Editor]
Bookmarks: 285,20284,34830,54223,70586,85132,104525,119070,133615,162706
DistanceSpacing: 1
BeatDivisor: 2
GridSize: 4
TimelineZoom: 1.8

[Metadata]
Title:Kimi ga Sora Koso Kanashikere
TitleUnicode:君ガ空コソカナシケレ
Artist:CHiCO with HoneyWorks
ArtistUnicode:CHiCO with HoneyWorks
Creator:Serizawa Haruki
Version:Kowaruki's Normal
Source:
Tags:ハニーワークス ハニワ 世界はiに満ちている Sekai wa Ai ni Michiteiru 兎眠りおん Tone Rion 初音ミク Hatsune Miku ボーカロイド Vocaloid ゴム Gom フェルナンドP Fernando-P シト shito チョリスP Chorisu-P オジ Oji 海賊王 Kaizoku Ou Japanese Rock J-rock Jrock Jack J_a_c_k Cris- Kowari Akitoshi -Laura- Corinn Seolv [_L_u_k_a_s] Lukas William K William_K Taeyang Xen Xehn Xenon- Agatsu Elcheer
BeatmapID:1964723
BeatmapSetID:940746

[Difficulty]
HPDrainRate:3
CircleSize:3
OverallDifficulty:4
ApproachRate:5
SliderMultiplier:1
SliderTickRate:1

[Events]
//Background and Video events
0,0,"bg.jpg",0,0
//Break Periods
2,148361,154234
//Storyboard Layer 0 (Background)
//Storyboard Layer 1 (Fail)
//Storyboard Layer 2 (Pass)
//Storyboard Layer 3 (Foreground)
//Storyboard Layer 4 (Overlay)
//Storyboard Sound Samples

[TimingPoints]
285,303.030303030303,3,2,1,40,1,0
3315,-100,3,2,1,60,0,0
3921,-100,3,2,1,70,0,0
18466,-100,3,2,1,60,0,0
18769,-100,3,2,1,60,0,0
20284,-100,3,2,1,50,0,0
26648,-100,3,2,1,60,0,0
34830,303.030303030303,4,2,1,60,1,0
53011,-100,4,2,1,70,0,0
54223,303.030303030303,3,2,1,80,1,1
68768,-100,3,2,1,60,0,0
70586,-100,3,2,1,50,0,0
76950,-100,3,2,1,60,0,0
85132,303.030303030303,4,2,1,60,1,0
103313,-100,4,2,1,70,0,0
104525,303.030303030303,3,2,1,80,1,1
119070,-100,3,2,1,50,0,0
129979,-100,3,2,1,60,0,0
133615,-100,3,2,1,70,0,0
155434,-100,3,2,2,50,0,0
160888,-100,3,2,2,60,0,0
162706,-100,3,2,1,80,0,1
175434,-100,3,2,2,30,0,0
178161,-100,3,2,1,70,0,0
185434,-100,3,2,2,30,0,0

[Colours]
Combo1 : 185,132,251
Combo2 : 255,181,43
Combo3 : 64,159,255
Combo4 : 252,109,24

[HitObjects]
204,229,285,6,0,P|216:181|204:133,2,100,2|8|8,0:0|3:2|3:2,0:0:0:0:
116,181,1194,2,0,P|68:194|32:229,2,100,2|8|8,0:0|3:2|3:2,0:0:0:0:
118,281,2103,6,0,P|153:315|201:329,1,100,2|8,0:0|3:2,0:0:0:0:
302,321,2709,1,8,3:2:0:0:
344,230,3012,1,8,0:0:0:0:
287,148,3315,2,0,L|237:152,2,50,8|2|8,3:2|3:2|3:2,0:0:0:0:
329,57,3921,6,0,P|332:32|329:7,2,50,12|0|8,0:0|0:0|0:0,0:0:0:0:
232,32,4527,1,8,0:0:0:0:
150,89,4830,2,0,L|50:97,2,100,12|8|8,0:0|0:0|0:0,0:0:0:0:
241,131,5739,6,0,L|290:135,2,50,12|2|8,0:0|0:0|0:0,0:0:0:0:
159,188,6345,1,8,0:0:0:0:
129,283,6648,2,0,P|126:308|129:333,1,50,12|2,0:0|0:0,0:0:0:0:
160,372,6951,2,0,P|185:375|210:372,1,50,12|2,0:0|0:0,0:0:0:0:
258,360,7254,1,12,0:0:0:0:
357,367,7557,6,0,L|406:371,2,50,12|2|8,0:0|0:0|0:0,0:0:0:0:
314,275,8163,1,8,0:0:0:0:
371,193,8466,2,0,P|383:145|371:97,2,100,12|8|8,0:0|0:0|0:0,0:0:0:0:
283,145,9375,6,0,P|271:97|283:49,2,100,12|8|8,0:0|0:0|0:0,0:0:0:0:
371,193,10285,1,12,0:0:0:0:
379,292,10588,1,2,3:2:0:0:
298,350,10891,1,0,3:0:0:0:
207,307,11194,6,0,L|157:311,2,50,12|0|8,0:0|0:0|0:0,0:0:0:0:
198,208,11800,1,8,0:0:0:0:
280,150,12103,2,0,L|379:158,2,100,12|8|8,0:0|0:0|0:0,0:0:0:0:
259,52,13012,6,0,P|256:27|259:2,2,50,12|2|8,0:0|0:0|0:0,0:0:0:0:
280,150,13618,1,8,0:0:0:0:
222,232,13921,2,0,L|172:227,1,50,12|2,0:0|0:0,0:0:0:0:
134,195,14224,2,0,L|84:199,1,50,12|12,0:0|0:0,0:0:0:0:
34,203,14527,1,12,0:0:0:0:
12,105,14830,6,0,P|9:80|12:55,2,50,12|2|8,0:0|0:0|0:0,0:0:0:0:
109,80,15436,1,8,0:0:0:0:
200,121,15739,2,0,P|248:133|296:121,2,100,12|8|8,0:0|0:0|0:0,0:0:0:0:
248,33,16648,6,0,P|296:21|344:33,2,100,12|8|8,0:0|0:0|0:0,0:0:0:0:
200,121,17557,1,12,0:0:0:0:
257,203,17860,1,12,0:0:0:0:
215,294,18163,2,0,L|115:302,1,100,12|2,0:0|3:2,0:0:0:0:
16,310,18769,6,0,L|20:260,1,50,8|2,3:2|3:2,0:0:0:0:
50,220,19072,2,0,P|62:172|50:124,1,100,8|2,3:2|3:2,0:0:0:0:
15,30,19678,2,0,L|64:34,1,50,8|2,3:2|3:2,0:0:0:0:
109,11,19981,2,0,L|158:6,1,50,8|2,3:2|3:2,0:0:0:0:
200,35,20284,6,0,L|326:39,1,100,6|2,3:2|0:0,0:0:0:0:
366,113,20891,1,2,0:0:0:0:
312,197,21194,2,0,L|212:193,1,100,2|2,3:2|0:0,0:0:0:0:
157,277,21800,1,2,0:0:0:0:
211,361,22103,6,0,L|310:357,1,100,2|2,3:2|0:0,0:0:0:0:
385,290,22709,1,2,0:0:0:0:
324,210,23012,2,0,P|315:150|341:106,2,100,2|2|2,3:2|0:0|0:0,0:0:0:0:
385,290,23921,5,2,3:2:0:0:
484,272,24224,2,0,P|465:218|477:167,1,100,2|2,0:0|0:0,0:0:0:0:
512,85,24830,2,0,L|388:78,1,100,2|2,3:2|0:0,0:0:0:0:
328,134,25436,1,2,0:0:0:0:
235,172,25739,6,0,P|179:173|140:145,1,100,2|2,3:2|0:0,0:0:0:0:
97,60,26345,1,2,0:0:0:0:
24,128,26648,2,0,L|16:202,1,50,2|8,3:2|3:2,0:0:0:0:
43,221,26951,2,0,L|51:295,1,50,2|8,3:2|3:2,0:0:0:0:
73,314,27254,2,0,P|106:315|124:308,1,50,2|8,3:2|3:2,0:0:0:0:
144,265,27557,6,0,P|200:247|256:268,1,100,6|0,0:0|3:0,0:0:0:0:
313,322,28163,2,0,L|380:324,1,50,0|0,3:0|3:0,0:0:0:0:
412,327,28466,2,0,P|391:273|393:227,1,100,6|2,0:0|3:2,0:0:0:0:
435,141,29072,1,0,3:0:0:0:
353,82,29375,6,0,L|282:86,1,50,6|8,0:0|0:0,0:0:0:0:
253,92,29678,1,0,3:0:0:0:
159,57,29981,1,2,3:2:0:0:
64,90,30284,2,0,P|84:154|79:178,1,50,6|8,0:0|0:0,0:0:0:0:
50,174,30588,2,0,P|30:238|35:262,1,50,0|0,3:0|3:0,0:0:0:0:
32,269,30891,1,2,3:2:0:0:
109,332,31194,5,6,0:0:0:0:
205,309,31497,2,0,L|326:319,1,100,2|0,3:2|3:0,0:0:0:0:
404,326,32103,2,0,P|382:258|392:223,1,100,6|2,0:0|3:2,0:0:0:0:
442,148,32709,1,0,3:0:0:0:
342,154,33012,6,0,L|231:166,1,100,6|0,0:0|3:0,0:0:0:0:
145,187,33618,1,0,3:0:0:0:
52,149,33921,2,0,P|27:97|33:47,1,100,2|2,3:2|3:2,0:0:0:0:
119,12,34527,1,0,3:0:0:0:
210,55,34830,5,6,0:0:0:0:
219,154,35133,2,0,L|227:253,1,100,8|2,0:0|0:0,0:0:0:0:
237,353,35739,1,8,0:0:0:0:
318,295,36042,2,0,P|366:283|414:295,1,100,2|8,0:0|0:0,0:0:0:0:
496,353,36648,1,2,0:0:0:0:
504,253,36951,1,8,0:0:0:0:
422,195,37254,6,0,L|413:95,1,100,2|8,0:0|0:0,0:0:0:0:
344,23,37860,2,0,P|296:11|248:23,1,100,2|8,0:0|0:0,0:0:0:0:
190,105,38466,1,2,0:0:0:0:
190,105,38617,2,0,B|177:153|177:153|190:201,1,100,2|2,0:0|0:3,0:0:0:0:
203,250,39072,1,2,0:0:0:0:
146,332,39375,1,12,0:0:0:0:
46,323,39678,5,6,0:0:0:0:
4,232,39981,2,0,L|12:132,1,100,8|2,0:0|0:0,0:0:0:0:
21,33,40587,1,8,0:0:0:0:
103,90,40890,2,0,P|151:102|199:90,1,100,2|8,0:0|0:0,0:0:0:0:
281,33,41496,1,2,0:0:0:0:
372,76,41799,1,8,0:0:0:0:
380,175,42102,6,0,L|388:274,1,100,2|8,0:0|0:0,0:0:0:0:
308,332,42708,2,0,B|260:345|260:345|212:332,1,100,2|12,0:0|0:0,0:0:0:0:
119,310,43314,1,2,3:2:0:0:
119,310,43466,2,0,L|114:359,2,50,8|8|8,3:2|3:2|3:2,0:0:0:0:
123,260,43920,1,2,3:2:0:0:
131,161,44223,1,0,3:0:0:0:
222,118,44526,5,6,0:0:0:0:
304,176,44830,1,8,0:0:0:0:
395,133,45133,2,0,L|403:33,1,100,2|8,0:0|0:0,0:0:0:0:
304,25,45739,1,2,0:0:0:0:
204,17,46042,1,8,0:0:0:0:
147,98,46345,2,0,P|135:146|147:194,1,100,2|8,0:0|0:0,0:0:0:0:
217,265,46951,5,2,0:0:0:0:
316,256,47254,1,8,0:0:0:0:
358,165,47557,2,0,L|457:173,1,100,2|8,0:0|0:0,0:0:0:0:
511,182,48011,1,2,0:3:0:0:
511,182,48163,1,2,0:0:0:0:
503,83,48466,1,8,0:0:0:0:
406,57,48769,2,0,B|358:44|358:44|310:57,1,100,2|12,0:0|0:0,0:0:0:0:
266,75,49223,1,2,0:3:0:0:
266,75,49375,5,6,0:0:0:0:
214,160,49678,2,0,P|202:208|214:256,1,100,8|2,0:0|0:0,0:0:0:0:
271,338,50284,1,8,0:0:0:0:
171,346,50587,2,0,L|71:354,1,100,2|8,0:0|0:0,0:0:0:0:
14,273,51193,1,2,0:0:0:0:
56,182,51496,1,12,0:0:0:0:
156,173,51799,6,0,L|255:164,2,100,2|8|2,0:0|0:0|0:0,0:0:0:0:
98,91,52708,1,12,0:0:0:0:
140,0,53011,2,0,L|189:-4,1,50,2|8,3:2|3:2,0:0:0:0:
231,25,53314,2,0,L|280:29,1,50,8|8,3:2|3:2,0:0:0:0:
329,16,53617,2,0,B|377:3|377:3|425:16,1,100,8|0,3:2|3:0,0:0:0:0:
449,113,54223,6,0,L|447:181,1,50,12|0,0:0|0:0,0:0:0:0:
445,213,54526,2,0,P|390:227|339:198,1,100,8|8,0:0|0:0,0:0:0:0:
322,178,54980,1,2,0:0:0:0:
322,178,55132,2,0,L|207:172,1,100,12|8,0:0|0:0,0:0:0:0:
162,90,55738,1,8,0:0:0:0:
61,95,56041,5,12,0:0:0:0:
45,194,56344,2,0,P|83:218|106:221,1,50,8|2,0:0|0:0,0:0:0:0:
134,236,56647,1,8,0:0:0:0:
216,179,56950,2,0,L|222:289,1,100,12|12,0:0|0:0,0:0:0:0:
222,378,57556,1,12,0:0:0:0:
319,359,57859,6,0,L|388:353,1,50,12|2,0:0|0:0,0:0:0:0:
415,337,58162,2,0,P|429:282|411:237,1,100,8|8,0:0|0:0,0:0:0:0:
371,217,58616,1,2,0:0:0:0:
371,217,58768,1,12,0:0:0:0:
381,117,59071,1,8,0:0:0:0:
327,32,59374,1,8,0:0:0:0:
226,29,59677,6,0,L|232:151,1,100,12|8,0:0|0:0,0:0:0:0:
233,228,60283,1,8,0:0:0:0:
197,321,60586,2,0,P|128:343|85:328,1,100,12|12,0:0|0:0,0:0:0:0:
72,304,61041,1,12,0:0:0:0:
72,304,61192,1,12,0:0:0:0:
64,199,61495,6,0,L|64:128,1,50,12|2,0:0|0:0,0:0:0:0:
65,98,61798,2,0,P|127:76|166:92,1,100,8|8,0:0|0:0,0:0:0:0:
189,124,62253,1,2,0:0:0:0:
189,124,62404,2,0,P|244:132|295:106,1,100,12|8,0:0|0:0,0:0:0:0:
363,55,63010,1,8,0:0:0:0:
430,129,63313,5,12,0:0:0:0:
434,228,63616,2,0,L|426:303,1,50,8|2,0:0|0:0,0:0:0:0:
401,320,63919,1,8,0:0:0:0:
315,270,64223,2,0,P|259:256|212:281,1,100,12|12,0:0|0:0,0:0:0:0:
195,314,64677,1,2,0:0:0:0:
195,314,64829,1,12,0:0:0:0:
107,266,65132,6,0,L|91:379,2,100,12|8|8,0:0|0:0|0:0,0:0:0:0:
122,218,65889,1,2,0:0:0:0:
122,218,66041,2,0,L|111:152,2,50,12|8|10,0:0|0:0|0:0,0:0:0:0:
221,214,66647,1,10,0:0:0:0:
276,130,66950,6,0,P|326:114|398:134,2,100,10|10|6,0:0|0:0|0:0,0:0:0:0:
221,214,67859,1,12,0:0:0:0:
270,300,68162,1,2,0:0:0:0:
369,302,68465,1,2,0:0:0:0:
437,232,68768,6,0,L|427:113,1,100,2|2,3:2|3:2,0:0:0:0:
362,58,69374,2,0,L|307:67,1,50,2|0,3:2|3:0,0:0:0:0:
268,90,69677,2,0,P|216:98|164:72,1,100,2|2,3:2|3:2,0:0:0:0:
132,51,70132,2,0,L|136:1,2,50,8|8|8,3:2|3:2|3:2,0:0:0:0:
86,70,70586,6,0,L|77:169,1,100,6|2,0:0|0:0,0:0:0:0:
69,268,71192,1,2,0:0:0:0:
151,326,71495,2,0,P|199:338|247:326,1,100,2|2,0:0|0:0,0:0:0:0:
329,268,72101,2,0,L|378:272,1,50,2|2,0:0|0:3,0:0:0:0:
429,276,72404,6,0,B|416:228|416:228|429:180,1,100,2|2,0:0|0:0,0:0:0:0:
455,83,73010,1,2,0:0:0:0:
364,41,73313,2,0,P|316:29|268:41,2,100,2|2|2,0:0|0:0|0:0,0:0:0:0:
316,129,74223,6,0,P|268:141|220:129,1,100,2|2,0:0|0:0,0:0:0:0:
135,76,74829,1,2,0:0:0:0:
53,134,75132,2,0,L|61:233,1,100,2|2,0:0|0:0,0:0:0:0:
71,332,75738,1,2,0:0:0:0:
167,359,76041,6,0,B|215:372|215:372|263:359,1,100,2|2,0:0|0:0,0:0:0:0:
359,332,76647,1,6,0:0:0:0:
351,233,76950,2,0,L|346:183,1,50,2|8,0:0|0:0,0:0:0:0:
375,142,77253,2,0,L|379:92,1,50,2|0,0:0|3:0,0:0:0:0:
383,42,77556,1,2,3:2:0:0:
482,50,77859,6,0,L|473:149,1,100,6|0,0:0|3:0,0:0:0:0:
500,246,78465,2,0,P|503:271|500:296,1,50,0|2,3:0|3:2,0:0:0:0:
470,335,78768,2,0,B|422:348|422:348|374:335,1,100,6|2,0:0|3:2,0:0:0:0:
277,309,79374,1,0,3:0:0:0:
187,352,79677,6,0,P|139:364|91:352,1,100,6|0,0:0|3:0,0:0:0:0:
1,309,80283,1,0,3:0:0:0:
40,217,80586,2,0,P|43:192|40:167,1,50,6|8,0:0|0:0,0:0:0:0:
25,120,80889,2,0,P|22:95|25:70,1,50,0|2,3:0|3:2,0:0:0:0:
40,23,81192,1,0,3:0:0:0:
140,32,81495,6,0,L|239:40,1,100,6|0,0:0|3:0,0:0:0:0:
282,132,82101,1,0,3:0:0:0:
225,214,82404,2,0,P|213:262|225:310,1,100,6|0,0:0|3:0,0:0:0:0:
293,384,83010,1,0,3:0:0:0:
382,340,83313,6,0,L|390:240,1,100,6|8,0:0|0:0,0:0:0:0:
401,142,83919,1,0,3:0:0:0:
309,183,84223,2,0,P|261:195|213:183,2,100,12|2|6,0:0|0:0|0:0,0:0:0:0:
401,142,85132,5,6,0:0:0:0:
344,60,85435,2,0,L|230:66,1,100,8|2,0:0|0:0,0:0:0:0:
143,71,86041,1,8,0:0:0:0:
43,78,86344,2,0,P|23:130|35:183,1,100,2|8,0:0|0:0,0:0:0:0:
126,196,86950,1,2,0:0:0:0:
91,289,87253,1,8,0:0:0:0:
60,384,87556,6,0,L|176:376,1,100,2|8,0:0|0:0,0:0:0:0:
253,342,88162,2,0,L|352:348,1,100,2|8,0:0|0:0,0:0:0:0:
438,297,88768,1,2,0:0:0:0:
438,297,88919,2,0,B|450:245|450:245|433:197,1,100,2|2,0:0|0:3,0:0:0:0:
396,168,89374,1,2,0:0:0:0:
359,75,89677,1,12,0:0:0:0:
259,71,89980,5,6,0:0:0:0:
214,160,90283,2,0,L|220:275,1,100,8|2,0:0|0:0,0:0:0:0:
164,343,90889,1,8,0:0:0:0:
64,353,91192,2,0,P|25:306|26:254,1,100,2|8,0:0|0:0,0:0:0:0:
91,196,91798,2,0,L|87:137,1,50,2|2,0:0|0:3,0:0:0:0:
85,95,92101,1,12,0:0:0:0:
159,27,92404,6,0,L|273:40,1,100,2|8,0:0|0:0,0:0:0:0:
294,131,93010,2,0,L|393:119,1,100,2|8,0:0|0:0,0:0:0:0:
429,154,93465,1,8,0:0:0:0:
429,154,93616,2,0,L|419:222,1,50,2|8,3:2|3:2,0:0:0:0:
379,230,93919,2,0,L|389:298,1,50,8|8,3:2|3:2,0:0:0:0:
396,328,94222,2,0,B|346:341|346:341|292:328,1,100,8|0,3:2|3:0,0:0:0:0:
229,257,94828,5,6,0:0:0:0:
303,190,95132,1,8,0:0:0:0:
259,101,95435,2,0,L|154:103,1,100,2|8,0:0|0:0,0:0:0:0:
68,146,96041,2,0,L|11:140,2,50,2|2|8,0:0|0:0|0:0,0:0:0:0:
153,198,96647,2,0,P|162:250|132:299,1,100,2|8,0:0|0:0,0:0:0:0:
87,373,97253,6,0,L|194:379,1,100,2|8,0:0|0:0,0:0:0:0:
260,310,97859,2,0,L|376:315,1,100,2|8,0:0|0:0,0:0:0:0:
409,314,98313,1,2,0:3:0:0:
409,314,98465,2,0,P|420:265|402:201,1,100,2|8,0:0|0:0,0:0:0:0:
360,130,99071,1,2,0:0:0:0:
283,64,99374,2,0,L|272:120,1,50,12|2,0:0|0:3,0:0:0:0:
238,149,99677,5,6,0:0:0:0:
285,237,99980,1,8,0:0:0:0:
224,316,100283,2,0,L|115:309,1,100,2|8,0:0|0:0,0:0:0:0:
40,255,100889,2,0,P|33:197|57:155,1,100,2|8,0:0|0:0,0:0:0:0:
109,79,101495,1,2,0:0:0:0:
203,112,101798,1,12,0:0:0:0:
300,133,102101,6,0,L|299:-1,2,100,2|8|2,0:0|0:0|0:0,0:0:0:0:
393,97,103010,1,12,0:0:0:0:
484,139,103313,2,0,L|477:199,1,50,8|2,0:0|0:0,0:0:0:0:
433,211,103616,2,0,L|440:271,1,50,8|2,0:0|0:0,0:0:0:0:
441,310,103919,2,0,B|390:321|390:321|335:309,1,100,12|2,0:0|0:3,0:0:0:0:
246,284,104525,6,0,L|250:234,1,50,12|0,0:0|0:0,0:0:0:0:
254,184,104828,1,8,0:0:0:0:
344,141,105131,2,0,L|340:91,1,50,8|2,0:0|0:0,0:0:0:0:
302,58,105434,2,0,P|254:46|206:58,1,100,8|8,0:0|0:0,0:0:0:0:
124,115,106040,1,8,0:0:0:0:
116,214,106343,6,0,L|107:313,1,100,12|8,0:0|0:0,0:0:0:0:
189,371,106949,1,8,0:0:0:0:
284,340,107252,2,0,P|309:337|334:340,1,50,12|2,0:0|0:0,0:0:0:0:
382,353,107555,2,0,P|407:356|432:353,1,50,12|2,0:0|0:0,0:0:0:0:
480,340,107858,1,12,0:0:0:0:
472,241,108161,5,12,0:0:0:0:
381,198,108464,1,8,0:0:0:0:
299,256,108767,2,0,L|249:260,1,50,8|2,0:0|0:0,0:0:0:0:
209,230,109070,2,0,B|196:182|196:182|209:134,1,100,12|8,0:0|0:0,0:0:0:0:
234,36,109676,1,8,0:0:0:0:
324,79,109979,6,0,P|372:91|420:79,1,100,12|8,0:0|0:0,0:0:0:0:
510,36,110585,1,8,0:0:0:0:
501,136,110888,2,0,L|492:235,1,100,12|12,0:0|0:0,0:0:0:0:
491,289,111343,1,2,0:0:0:0:
491,289,111494,1,12,0:0:0:0:
396,320,111797,6,0,P|371:323|346:320,1,50,12|2,0:0|0:0,0:0:0:0:
299,305,112100,1,8,0:0:0:0:
200,314,112403,2,0,L|150:318,1,50,8|2,0:0|0:0,0:0:0:0:
100,322,112706,2,0,B|113:274|113:274|100:226,1,100,12|8,0:0|0:0,0:0:0:0:
74,128,113312,1,8,0:0:0:0:
26,40,113615,6,0,P|74:28|122:40,1,100,12|8,0:0|0:0,0:0:0:0:
209,90,114221,1,8,0:0:0:0:
201,189,114525,2,0,B|195:255|195:255|223:316|223:316|217:381,1,200,8|12,0:0|0:0,0:0:0:0:
316,373,115434,5,12,0:0:0:0:
358,282,115737,1,8,0:0:0:0:
301,200,116040,2,0,L|305:150,1,50,8|2,0:0|0:0,0:0:0:0:
340,114,116343,2,0,L|331:14,1,100,12|8,0:0|0:0,0:0:0:0:
231,23,116949,1,8,0:0:0:0:
174,105,117252,6,0,P|162:153|174:201,1,100,12|8,0:0|0:0,0:0:0:0:
231,283,117858,1,2,0:0:0:0:
132,292,118161,2,0,L|32:301,2,100,2|2|2,0:0|3:2|3:2,0:0:0:0:
231,283,119070,6,0,L|346:297,2,100,6|8|8,0:0|3:2|3:2,0:0:0:0:
174,201,119979,2,0,P|165:140|180:92,1,100,2|8,0:0|3:2,0:0:0:0:
252,41,120585,1,8,3:2:0:0:
350,63,120888,6,0,L|474:74,2,100,2|8|8,0:0|3:2|3:2,0:0:0:0:
273,127,121797,2,0,P|186:149|139:123,1,100,2|2,0:0|0:3,0:0:0:0:
138,118,122252,1,0,3:0:0:0:
138,118,122403,1,8,3:2:0:0:
42,149,122706,6,0,L|53:277,1,100,2|8,0:0|3:2,0:0:0:0:
106,331,123312,1,8,3:2:0:0:
162,248,123615,2,0,P|208:224|276:236,2,100,2|8|8,0:0|3:2|3:2,0:0:0:0:
229,322,124525,6,0,L|346:326,1,100,2|8,0:0|3:2,0:0:0:0:
406,261,125131,1,8,3:2:0:0:
365,169,125434,2,0,B|415:151|415:151|495:189,2,100,2|2|2,0:0|3:2|3:2,0:0:0:0:
285,230,126343,6,0,L|281:119,1,100,6|8,0:0|3:2,0:0:0:0:
277,30,126949,1,8,3:2:0:0:
178,13,127252,2,0,L|174:121,1,100,2|8,0:0|3:2,0:0:0:0:
108,188,127858,1,8,3:2:0:0:
147,279,128161,6,0,P|213:300|266:274,1,100,2|2,0:0|0:3,0:0:0:0:
283,266,128615,2,0,L|361:273,2,50,0|8|2,3:0|0:0|0:0,0:0:0:0:
258,222,129070,2,0,L|271:105,1,100,0|2,3:0|0:3,0:0:0:0:
274,72,129525,1,2,3:2:0:0:
274,72,129676,1,0,3:0:0:0:
178,101,129979,5,6,0:0:0:0:
126,186,130282,1,10,0:0:0:0:
164,278,130585,2,0,L|154:353,1,50,10|8,0:0|0:0,0:0:0:0:
152,377,130888,2,0,L|271:363,1,100,10|10,0:0|0:0,0:0:0:0:
318,291,131494,1,10,0:0:0:0:
274,201,131797,6,0,L|279:147,1,50,10|8,0:0|0:0,0:0:0:0:
305,108,132100,1,10,0:0:0:0:
376,37,132403,1,10,0:0:0:0:
458,94,132706,1,10,0:0:0:0:
172,174,133615,6,0,L|167:223,2,50,12|0|8,0:0|0:0|0:0,0:0:0:0:
263,131,134221,1,8,0:0:0:0:
345,189,134525,2,0,L|336:288,2,100,12|8|8,0:0|0:0|0:0,0:0:0:0:
435,146,135434,6,0,L|430:96,2,50,12|2|8,0:0|0:0|0:0,0:0:0:0:
443,245,136040,1,8,0:0:0:0:
468,342,136343,2,0,P|443:345|418:342,1,50,12|2,0:0|0:0,0:0:0:0:
371,326,136646,2,0,P|346:323|321:326,1,50,12|12,0:0|0:0,0:0:0:0:
274,342,136949,1,12,0:0:0:0:
175,335,137252,6,0,L|125:330,2,50,12|2|8,0:0|0:0|0:0,0:0:0:0:
232,254,137858,1,8,0:0:0:0:
190,163,138161,2,0,P|178:115|190:67,2,100,12|8|8,0:0|0:0|0:0,0:0:0:0:
278,115,139070,6,0,P|290:67|278:19,2,100,12|8|8,0:0|0:0|0:0,0:0:0:0:
190,163,139979,1,8,0:0:0:0:
99,120,140282,1,8,0:0:0:0:
17,178,140585,1,12,0:0:0:0:
26,277,140888,5,12,0:0:0:0:
117,320,141191,1,8,0:0:0:0:
198,262,141494,2,0,L|247:257,1,50,8|2,0:0|0:0,0:0:0:0:
297,254,141797,1,12,0:0:0:0:
388,297,142100,1,8,0:0:0:0:
469,239,142403,2,0,L|464:189,1,50,8|2,0:0|0:0,0:0:0:0:
460,139,142706,5,12,0:0:0:0:
370,97,143009,1,8,0:0:0:0:
281,142,143312,2,0,P|256:145|231:142,1,50,8|2,0:0|0:0,0:0:0:0:
186,122,143615,2,0,P|138:110|90:122,1,100,0|8,3:0|0:0,0:0:0:0:
2,170,144221,1,12,0:0:0:0:
11,269,144525,6,0,L|15:318,1,50,12|2,0:0|0:0,0:0:0:0:
50,355,144828,2,0,P|75:358|100:355,1,50,8|2,0:0|0:0,0:0:0:0:
148,342,145131,1,8,0:0:0:0:
205,260,145434,1,12,0:0:0:0:
163,169,145737,2,0,P|160:144|163:119,1,50,8|2,0:0|0:0,0:0:0:0:
184,74,146040,1,8,0:0:0:0:
284,83,146343,6,0,L|383:91,1,100,12|10,0:0|0:0,0:0:0:0:
433,97,146797,2,0,B|420:145|420:145|433:193,1,100,8|8,0:0|0:0,0:0:0:0:
452,240,147252,2,0,P|464:288|452:336,2,100,10|10|10,0:0|0:0|0:0,0:0:0:0:
364,288,148161,5,6,0:0:0:0:
364,288,155434,6,0,B|316:265|268:288|268:288|220:311|172:288,1,200,8|8,3:2|3:2,0:0:0:0:
86,235,156343,1,0,3:0:0:0:
86,235,157252,6,0,B|114:173|114:173|102:41,1,200,8|8,3:2|3:2,0:0:0:0:
203,50,158161,1,0,3:0:0:0:
203,50,159070,6,0,B|251:73|299:50|299:50|352:54|382:98,1,200,8|8,3:2|3:2,0:0:0:0:
434,185,159979,1,0,3:0:0:0:
434,185,160888,6,0,L|425:284,2,100,8|8|8,3:2|3:2|3:2,0:0:0:0:
352,127,161797,1,8,3:2:0:0:
261,170,162100,2,0,L|211:165,1,50,8|0,3:2|3:0,0:0:0:0:
176,130,162403,2,0,L|126:134,1,50,8|0,3:2|3:0,0:0:0:0:
77,147,162706,6,0,L|85:221,1,50,12|0,0:0|0:0,0:0:0:0:
115,234,163009,2,0,L|102:363,1,100,8|8,0:0|0:0,0:0:0:0:
194,379,163615,1,12,0:0:0:0:
275,321,163918,1,8,0:0:0:0:
268,221,164221,1,8,0:0:0:0:
260,120,164525,6,0,P|314:99|363:115,1,100,12|8,0:0|0:0,0:0:0:0:
410,191,165131,1,8,0:0:0:0:
373,284,165434,2,0,P|329:298|306:295,1,50,12|2,0:0|0:0,0:0:0:0:
277,285,165737,2,0,P|235:263|221:245,1,50,12|2,0:0|0:0,0:0:0:0:
215,215,166039,1,12,0:0:0:0:
127,265,166343,6,0,L|64:257,1,50,12|2,0:0|0:0,0:0:0:0:
28,246,166646,2,0,P|21:192|46:146,1,100,8|8,0:0|0:0,0:0:0:0:
134,120,167252,1,12,0:0:0:0:
193,39,167555,1,8,0:0:0:0:
292,46,167858,1,8,0:0:0:0:
310,143,168161,6,0,B|363:150|363:150|405:138|405:138|486:146,2,150,12|12|12,0:0|0:0|0:0,0:0:0:0:
226,198,169373,2,0,L|232:272,1,50,8|2,0:0|0:0,0:0:0:0:
268,280,169676,2,0,L|262:354,1,50,8|2,0:0|0:0,0:0:0:0:
254,379,169979,6,0,L|175:360,1,50,12|2,0:0|0:0,0:0:0:0:
157,352,170282,1,8,0:0:0:0:
62,320,170585,2,0,L|75:257,1,50,8|2,0:0|0:0,0:0:0:0:
88,223,170888,2,0,L|81:104,1,100,12|8,0:0|0:0,0:0:0:0:
151,50,171494,1,8,0:0:0:0:
211,129,171797,6,0,P|246:145|313:121,1,100,8|0,0:0|3:0,0:0:0:0:
317,82,172252,1,2,0:0:0:0:
317,82,172403,2,0,P|345:72|379:74,1,50,0|2,3:0|0:0,0:0:0:0:
413,84,172706,1,8,0:0:0:0:
479,158,173009,2,0,L|470:232,1,50,8|2,0:0|0:0,0:0:0:0:
465,257,173312,1,12,0:0:0:0:
374,300,173615,6,0,L|380:362,2,50,12|0|10,0:0|0:0|0:0,0:0:0:0:
279,267,174221,2,0,L|286:194,1,50,10|8,0:0|0:0,0:0:0:0:
290,167,174525,1,10,0:0:0:0:
205,112,174828,1,10,0:0:0:0:
112,150,175131,2,0,L|115:206,1,50,10|8,0:0|0:0,0:0:0:0:
117,249,175434,5,2,0:0:0:0:
389,45,178161,6,0,L|448:53,2,50,12|0|8,0:0|0:0|0:0,0:0:0:0:
301,92,178767,2,0,L|298:142,1,50,8|2,0:0|0:0,0:0:0:0:
321,186,179070,2,0,P|375:205|417:187,1,100,12|8,0:0|0:0,0:0:0:0:
487,257,179676,1,8,0:0:0:0:
415,326,179979,6,0,L|422:382,2,50,12|2|8,0:0|0:0|0:0,0:0:0:0:
328,276,180585,1,8,0:0:0:0:
249,338,180888,2,0,P|208:348|179:341,1,50,12|2,0:0|0:0,0:0:0:0:
160,317,181191,2,0,P|136:308|111:307,1,50,12|2,0:0|0:0,0:0:0:0:
68,332,181494,1,12,0:0:0:0:
48,233,181797,6,0,L|-9:229,2,50,12|2|8,0:0|0:0|0:0,0:0:0:0:
119,163,182403,2,0,L|116:103,1,50,8|2,0:0|0:0,0:0:0:0:
113,62,182706,2,0,B|161:37|161:37|213:56,1,100,12|8,0:0|0:0,0:0:0:0:
289,103,183312,1,8,0:0:0:0:
253,196,183615,6,0,L|381:205,1,100,12|8,0:0|0:0,0:0:0:0:
452,203,184221,1,8,0:0:0:0:
473,105,184525,2,0,P|437:58|383:55,1,100,8|8,0:0|0:0,0:0:0:0:
355,73,184979,1,2,0:0:0:0:
355,73,185131,1,12,0:0:0:0:
288,147,185434,5,2,0:0:0:0:
