osu file format v14

[General]
AudioFilename: audio.mp3
AudioLeadIn: 0
PreviewTime: 54072
Countdown: 0
SampleSet: Soft
StackLeniency: 0.6
Mode: 0
LetterboxInBreaks: 0
WidescreenStoryboard: 0

[Editor]
Bookmarks: 285,20284,34830,54223,70586,85132,104525,119070,133615,162706
DistanceSpacing: 1.3
BeatDivisor: 4
GridSize: 32
TimelineZoom: 1.9

[Metadata]
Title:Kimi ga Sora Koso Kanashikere
TitleUnicode:君ガ空コソカナシケレ
Artist:CHiCO with HoneyWorks
ArtistUnicode:CHiCO with HoneyWorks
Creator:Serizawa Haruki
Version:Harukitoshi's Hard
Source:
Tags:ハニーワークス ハニワ 世界はiに満ちている Sekai wa Ai ni Michiteiru 兎眠りおん Tone Rion 初音ミク Hatsune Miku ボーカロイド Vocaloid ゴム Gom フェルナンドP Fernando-P シト shito チョリスP Chorisu-P オジ Oji 海賊王 Kaizoku Ou Japanese Rock J-rock Jrock Jack J_a_c_k Cris- Kowari Akitoshi -Laura- Corinn Seolv [_L_u_k_a_s] Lukas William K William_K Taeyang Xen Xehn Xenon- Agatsu Elcheer
BeatmapID:2090272
BeatmapSetID:940746

[Difficulty]
HPDrainRate:4
CircleSize:3.5
OverallDifficulty:6
ApproachRate:8
SliderMultiplier:1.35
SliderTickRate:1

[Events]
//Background and Video events
0,0,"bg.jpg",0,0
//Break Periods
2,148361,154684
//Storyboard Layer 0 (Background)
//Storyboard Layer 1 (Fail)
//Storyboard Layer 2 (Pass)
//Storyboard Layer 3 (Foreground)
//Storyboard Layer 4 (Overlay)
//Storyboard Sound Samples

[TimingPoints]
285,303.030303030303,3,2,1,40,1,0
3315,-100,3,2,1,60,0,0
3921,-100,3,2,1,70,0,0
18466,-142.857142857143,3,2,1,60,0,0
20284,-111.111111111111,3,2,1,50,0,0
26648,-111.111111111111,3,2,1,60,0,0
34830,303.030303030303,4,2,1,60,1,0
42936,-100,4,2,1,5,0,0
43011,-100,4,2,1,60,0,0
51420,-100,4,2,1,5,0,0
51496,-100,4,2,1,60,0,0
53011,-100,4,2,1,70,0,0
54223,303.030303030303,3,2,1,80,1,1
54223,-90.9090909090909,3,2,1,80,0,1
68768,-100,3,2,1,60,0,0
70586,-111.111111111111,3,2,1,50,0,0
76950,-111.111111111111,3,2,1,60,0,0
84753,-111.111111111111,3,2,1,5,0,0
84829,-111.111111111111,3,2,1,60,0,0
85132,303.030303030303,4,2,1,60,1,0
103313,-100,4,2,1,70,0,0
104525,303.030303030303,3,2,1,80,1,1
104525,-90.9090909090909,3,2,1,80,0,1
108388,-90.9090909090909,3,2,1,5,0,1
108464,-90.9090909090909,3,2,1,80,0,1
112934,-90.9090909090909,3,2,1,5,0,1
113009,-90.9090909090909,3,2,1,80,0,1
113843,-90.9090909090909,3,2,1,5,0,1
113918,-90.9090909090909,3,2,1,80,0,1
119070,-125,3,2,1,50,0,0
129979,-125,3,2,1,60,0,0
133615,-100,3,2,1,70,0,0
144449,-100,3,2,1,5,0,0
144525,-100,3,2,1,70,0,0
155434,-142.857142857143,3,2,2,50,0,0
160888,-125,3,2,2,60,0,0
161797,-111.111111111111,3,2,2,60,0,0
162706,-90.9090909090909,3,2,1,80,0,1
175434,-100,3,2,2,30,0,0
178161,-100,3,2,1,70,0,0
185434,-100,3,2,2,30,0,0

[Colours]
Combo1 : 185,132,251
Combo2 : 255,181,43
Combo3 : 64,159,255
Combo4 : 252,109,24

[HitObjects]
256,192,285,12,8,3618,3:2:0:0:
332,146,3921,6,0,P|263:124|187:153,1,135,12|8,0:0|0:0,0:0:0:0:
167,224,4375,1,2,0:0:0:0:
167,224,4527,2,0,P|173:258|178:302,1,67.5,8|2,0:0|0:0,0:0:0:0:
74,213,4830,2,0,P|78:179|84:146,1,67.5,12|2,0:0|0:0,0:0:0:0:
142,80,5133,2,0,L|132:32,2,33.75,8|0|2,0:0|0:0|0:0,0:0:0:0:
204,140,5436,2,0,P|257:144|311:122,1,101.25,8|2,0:0|0:0,0:0:0:0:
332,113,5739,6,0,P|365:117|408:121,1,67.5,12|2,0:0|0:0,0:0:0:0:
417,206,6042,2,0,P|383:209|349:213,1,67.5,8|2,0:0|0:0,0:0:0:0:
268,246,6345,2,0,P|256:288|264:324,1,67.5,8|2,0:0|0:0,0:0:0:0:
201,377,6648,1,12,0:0:0:0:
201,377,6800,1,2,0:0:0:0:
123,336,6951,1,12,0:0:0:0:
123,336,7103,1,2,0:0:0:0:
154,254,7254,2,0,P|166:210|136:145,1,101.25,12|2,0:0|0:0,0:0:0:0:
132,128,7557,6,0,B|183:116|183:116|206:98|206:98|264:85,1,135,12|8,0:0|0:0,0:0:0:0:
348,77,8012,1,2,0:0:0:0:
348,77,8163,2,0,P|354:42|345:9,1,67.5,8|2,0:0|0:0,0:0:0:0:
309,156,8466,2,0,P|303:191|312:224,1,67.5,12|2,0:0|0:0,0:0:0:0:
365,290,8769,2,0,L|412:282,2,33.75,8|0|2,0:0|0:0|0:0,0:0:0:0:
294,342,9072,2,0,P|245:321|183:325,1,101.25,8|2,0:0|0:0,0:0:0:0:
164,328,9375,6,0,P|160:289|156:254,1,67.5,12|2,0:0|0:0,0:0:0:0:
70,242,9678,2,0,P|74:203|78:168,1,67.5,8|2,0:0|0:0,0:0:0:0:
163,155,9981,2,0,P|157:100|151:51,1,101.25,8|2,0:0|0:0,0:0:0:0:
182,39,10285,2,0,P|217:46|268:33,1,67.5,12|0,0:0|3:0,0:0:0:0:
338,23,10588,1,2,3:2:0:0:
338,23,10739,1,0,3:0:0:0:
421,66,10891,1,0,3:0:0:0:
421,66,11042,1,0,3:0:0:0:
390,148,11194,6,0,P|398:214|407:289,1,135,12|8,0:0|0:0,0:0:0:0:
321,303,11648,1,2,0:0:0:0:
321,303,11800,2,0,P|287:291|249:288,1,67.5,8|2,0:0|0:0,0:0:0:0:
246,200,12103,2,0,P|279:196|311:184,1,67.5,12|2,0:0|0:0,0:0:0:0:
390,148,12406,2,0,L|427:151,2,33.75,8|0|2,0:0|0:0|0:0,0:0:0:0:
322,91,12709,2,0,P|268:73|218:75,1,101.25,8|2,0:0|0:0,0:0:0:0:
191,82,13012,6,0,P|186:40|179:8,1,67.5,12|2,0:0|0:0,0:0:0:0:
92,15,13315,2,0,P|85:48|81:81,1,67.5,8|2,0:0|0:0,0:0:0:0:
68,168,13618,2,0,P|110:184|144:179,1,67.5,8|2,0:0|0:0,0:0:0:0:
225,177,13921,1,12,0:0:0:0:
225,177,14072,1,2,0:0:0:0:
260,264,14224,1,12,0:0:0:0:
260,264,14375,1,12,0:0:0:0:
218,341,14527,2,0,P|260:371|332:375,1,101.25,12|2,0:0|0:0,0:0:0:0:
341,382,14830,6,0,B|348:329|348:329|366:304|366:304|373:246,1,135,12|8,0:0|0:0,0:0:0:0:
380,166,15285,1,2,0:0:0:0:
380,166,15436,2,0,P|420:160|455:156,1,67.5,8|2,0:0|0:0,0:0:0:0:
348,77,15739,2,0,P|314:72|281:67,1,67.5,12|2,0:0|0:0,0:0:0:0:
195,47,16042,2,0,L|203:8,2,33.75,8|0|2,0:0|0:0|0:0,0:0:0:0:
162,128,16345,2,0,P|117:141|61:131,1,101.25,8|2,0:0|0:0,0:0:0:0:
30,125,16648,6,0,P|23:176|21:195,1,67.5,12|2,0:0|0:0,0:0:0:0:
101,227,16951,2,0,P|108:278|110:297,1,67.5,8|2,0:0|0:0,0:0:0:0:
172,356,17254,2,0,P|225:346|283:336,1,101.25,8|2,0:0|0:0,0:0:0:0:
305,333,17557,2,0,P|342:336|382:326,1,67.5,12|2,0:0|0:0,0:0:0:0:
414,253,17860,2,0,P|398:219|369:189,1,67.5,12|2,0:0|0:0,0:0:0:0:
290,198,18163,2,0,P|268:228|257:268,1,67.5,12|0,0:0|0:0,0:0:0:0:
179,264,18466,6,0,P|152:248|70:242,1,94.4999971160889,2|8,3:2|3:2,0:0:0:0:
15,261,18921,1,2,3:2:0:0:
15,261,19072,1,8,3:2:0:0:
2,119,19375,2,0,P|29:103|111:97,1,94.4999971160889,2|8,3:2|3:2,0:0:0:0:
173,116,19830,1,2,3:2:0:0:
173,116,19981,2,0,P|177:149|180:169,1,47.2499985580445,8|2,3:2|3:2,0:0:0:0:
238,225,20284,6,0,P|296:241|354:225,1,121.499996292114,6|2,3:2|0:0,0:0:0:0:
491,125,20891,1,2,0:0:0:0:
337,55,21194,2,0,L|215:65,1,121.499996292114,2|2,3:2|0:0,0:0:0:0:
47,80,21800,1,2,0:0:0:0:
145,220,22103,6,0,P|161:278|145:336,1,121.499996292114,2|2,3:2|0:0,0:0:0:0:
299,263,22709,1,2,0:0:0:0:
439,361,23012,1,2,3:2:0:0:
446,276,23163,2,0,L|476:278,2,30.3749990730286,2|2|2,0:3|0:3|0:0,0:0:0:0:
453,191,23466,2,0,L|483:193,2,30.3749990730286,2|2|2,0:3|0:3|0:0,0:0:0:0:
376,228,23769,1,2,0:3:0:0:
376,228,23845,1,2,0:3:0:0:
376,228,23921,6,0,P|318:244|260:228,1,121.499996292114,2|2,3:2|0:0,0:0:0:0:
125,125,24527,1,2,0:0:0:0:
260,22,24830,2,0,P|302:64|318:122,1,121.499996292114,2|2,3:2|0:0,0:0:0:0:
304,292,25436,1,2,0:0:0:0:
150,365,25739,6,0,L|28:354,1,121.499996292114,2|2,3:2|0:0,0:0:0:0:
43,184,26345,1,2,0:0:0:0:
200,250,26648,2,0,P|230:255|260:250,1,60.7499981460572,2|8,3:2|3:2,0:0:0:0:
344,235,26951,2,0,P|333:206|314:183,1,60.7499981460572,2|8,3:2|3:2,0:0:0:0:
259,118,27254,2,0,P|240:141|230:170,1,60.7499981460572,2|8,3:2|3:2,0:0:0:0:
200,250,27557,6,0,L|207:340,1,91.1249972190858,6|8,0:0|0:0,0:0:0:0:
242,365,27860,2,0,P|272:370|302:365,1,60.7499981460572,0|2,3:0|3:2,0:0:0:0:
365,308,28163,2,0,P|370:278|365:248,1,60.7499981460572,0|0,3:0|3:0,0:0:0:0:
330,171,28466,1,6,0:0:0:0:
249,183,28618,1,8,0:0:0:0:
249,183,28769,2,0,L|243:122,1,60.7499981460572,2|2,3:2|3:2,0:0:0:0:
162,150,29072,2,0,L|156:210,1,60.7499981460572,0|0,3:0|3:0,0:0:0:0:
71,205,29375,5,6,0:0:0:0:
40,131,29527,1,8,0:0:0:0:
40,131,29678,2,0,P|35:101|40:71,1,60.7499981460572,0|2,3:0|3:2,0:0:0:0:
92,4,29981,2,0,P|122:-1|152:4,1,60.7499981460572,2|0,3:2|3:0,0:0:0:0:
223,51,30284,1,6,0:0:0:0:
297,6,30436,1,8,0:0:0:0:
297,6,30588,2,0,L|356:0,1,60.7499981460572,0|0,3:0|3:0,0:0:0:0:
433,40,30891,2,0,P|438:70|433:100,1,60.7499981460572,2|2,3:2|3:2,0:0:0:0:
360,144,31194,6,0,P|315:151|270:144,1,91.1249972190858,6|8,0:0|0:0,0:0:0:0:
230,131,31497,2,0,L|236:192,1,60.7499981460572,2|2,3:2|3:2,0:0:0:0:
151,200,31800,2,0,L|145:260,1,60.7499981460572,0|0,3:0|3:0,0:0:0:0:
137,345,32103,1,6,0:0:0:0:
218,313,32254,1,8,0:0:0:0:
218,313,32406,2,0,P|248:308|278:313,1,60.7499981460572,2|2,3:2|3:2,0:0:0:0:
357,345,32709,2,0,P|387:350|417:345,1,60.7499981460572,0|0,3:0|3:0,0:0:0:0:
492,306,33012,5,6,0:0:0:0:
489,226,33163,1,8,0:0:0:0:
489,226,33315,2,0,L|483:165,1,60.7499981460572,0|2,3:0|3:2,0:0:0:0:
399,150,33618,2,0,L|393:210,1,60.7499981460572,0|2,3:0|3:2,0:0:0:0:
320,255,33921,2,0,P|290:260|260:255,2,60.7499981460572,2|0|2,3:2|3:0|3:2,0:0:0:0:
290,176,34375,1,0,3:0:0:0:
206,190,34527,2,0,P|187:213|177:242,1,60.7499981460572,0|0,3:0|3:0,0:0:0:0:
113,302,34830,5,6,0:0:0:0:
113,302,34981,1,2,0:0:0:0:
31,268,35133,2,0,P|34:220|38:163,1,101.25,8|8,0:0|0:0,0:0:0:0:
42,133,35436,2,0,P|78:140|116:131,1,67.5,2|2,0:0|0:3,0:0:0:0:
182,87,35739,2,0,P|218:80|256:89,1,67.5,8|0,0:0|0:0,0:0:0:0:
315,141,36042,6,0,P|308:209|301:291,1,135,2|8,0:0|0:0,0:0:0:0:
348,356,36496,1,2,0:0:0:0:
348,356,36648,2,0,P|391:362|423:353,1,67.5,2|2,0:0|0:3,0:0:0:0:
482,301,36951,2,0,P|488:258|479:226,1,67.5,8|0,0:0|0:0,0:0:0:0:
430,163,37254,5,2,0:0:0:0:
430,163,37405,1,2,0:0:0:0:
357,212,37557,2,0,P|302:207|234:202,1,101.25,8|8,0:0|0:0,0:0:0:0:
227,185,37860,2,0,P|185:188|134:192,1,67.5,2|2,0:0|0:3,0:0:0:0:
78,156,38163,2,0,P|71:118|82:82,1,67.5,8|2,0:0|0:3,0:0:0:0:
122,14,38466,5,2,0:0:0:0:
208,25,38617,2,0,P|212:59|217:94,1,67.5,2|8,0:0|0:0,0:0:0:0:
300,145,38920,1,2,0:3:0:0:
300,145,38996,1,2,0:3:0:0:
300,145,39072,2,0,P|334:135|372:138,1,67.5,2|2,0:0|0:0,0:0:0:0:
280,232,39375,2,0,P|246:233|214:223,1,67.5,12|2,0:0|0:3,0:0:0:0:
151,165,39678,5,6,0:0:0:0:
151,165,39830,1,2,0:0:0:0:
76,213,39981,2,0,P|82:266|87:333,1,101.25,8|8,0:0|0:0,0:0:0:0:
93,346,40284,2,0,P|126:355|172:348,1,67.5,2|2,0:0|0:3,0:0:0:0:
220,289,40587,2,0,P|222:255|213:223,1,67.5,8|0,0:0|0:0,0:0:0:0:
151,165,40890,6,0,P|210:176|276:134,1,135,2|8,0:0|0:0,0:0:0:0:
347,93,41345,1,2,0:0:0:0:
347,93,41496,2,0,P|380:96|424:101,1,67.5,2|2,0:0|0:3,0:0:0:0:
443,182,41799,2,0,P|409:185|375:188,1,67.5,8|0,0:0|0:0,0:0:0:0:
305,241,42102,6,0,P|292:272|291:305,1,67.5,2|2,0:0|0:0,0:0:0:0:
203,316,42405,2,0,P|201:282|189:251,1,67.5,8|2,0:0|0:0,0:0:0:0:
130,186,42708,2,0,P|135:134|140:70,1,101.25,2|0,0:0|0:0,0:0:0:0:
142,51,43011,2,0,P|177:55|215:44,1,67.5,12|2,0:0|0:3,0:0:0:0:
293,18,43314,5,2,3:2:0:0:
293,18,43466,1,8,3:2:0:0:
318,106,43617,1,8,3:2:0:0:
318,106,43769,1,8,3:2:0:0:
404,93,43920,2,0,P|423:128|412:229,1,135,2|0,3:2|3:0,0:0:0:0:
292,343,44526,6,0,B|202:357|202:357|189:344|153:330,1,135,6|8,0:0|0:0,0:0:0:0:
143,252,44981,1,2,0:0:0:0:
143,252,45133,2,0,P|175:253|218:243,1,67.5,2|2,0:0|0:3,0:0:0:0:
244,165,45436,2,0,P|211:158|177:159,1,67.5,8|0,0:0|0:0,0:0:0:0:
91,178,45739,6,0,P|73:139|89:46,1,135,2|8,0:0|0:0,0:0:0:0:
169,24,46193,1,2,0:0:0:0:
169,24,46345,2,0,P|202:26|246:30,1,67.5,2|2,0:0|0:3,0:0:0:0:
303,85,46648,2,0,P|336:82|370:80,1,67.5,8|0,0:0|0:0,0:0:0:0:
444,139,46951,5,2,0:0:0:0:
444,139,47102,1,2,0:0:0:0:
373,190,47254,2,0,P|364:223|371:260,1,67.5,8|2,0:0|0:0,0:0:0:0:
427,323,47557,2,0,P|378:297|296:311,1,135,2|8,0:0|0:0,0:0:0:0:
225,350,48011,1,2,0:3:0:0:
156,295,48163,6,0,B|151:244|151:244|131:217|131:217|125:144,2,135,2|8|2,0:0|0:0|0:0,0:0:0:0:
129,378,48920,1,2,0:0:0:0:
129,378,49072,2,0,P|89:370|57:365,1,67.5,12|2,0:0|0:3,0:0:0:0:
4,306,49375,5,6,0:0:0:0:
4,306,49526,1,2,0:0:0:0:
42,227,49678,2,0,P|38:191|30:119,1,101.25,8|8,0:0|0:0,0:0:0:0:
26,91,49981,2,0,P|60:98|95:90,1,67.5,2|2,0:0|0:3,0:0:0:0:
164,40,50284,2,0,P|197:33|232:41,1,67.5,8|0,0:0|0:0,0:0:0:0:
287,107,50587,6,0,P|290:140|295:174,1,67.5,2|2,0:0|0:0,0:0:0:0:
380,195,50890,2,0,P|384:161|388:127,1,67.5,8|2,0:0|0:0,0:0:0:0:
428,268,51193,2,0,P|380:283|330:267,1,101.25,2|0,0:0|0:0,0:0:0:0:
301,255,51496,2,0,P|267:259|233:263,1,67.5,12|0,0:0|0:0,0:0:0:0:
150,276,51799,5,2,0:0:0:0:
150,276,51951,1,2,0:0:0:0:
75,230,52102,2,0,P|87:140|58:91,2,135,8|2|12,0:0|0:0|0:0,0:0:0:0:
205,354,53011,5,2,3:2:0:0:
205,354,53163,1,8,3:2:0:0:
279,306,53314,1,8,3:2:0:0:
279,306,53466,1,8,3:2:0:0:
294,219,53617,2,0,P|282:187|279:144,2,67.5,8|2|0,3:2|3:2|3:0,0:0:0:0:
468,134,54223,5,12,0:0:0:0:
468,134,54374,1,0,0:0:0:0:
413,55,54526,2,0,L|338:61,1,74.2500022659302,8|2,0:0|0:0,0:0:0:0:
247,74,54829,1,8,0:0:0:0:
247,74,54980,1,2,0:0:0:0:
174,3,55132,2,0,P|147:70|174:137,1,148.50000453186,12|8,0:0|0:0,0:0:0:0:
251,195,55586,1,2,0:0:0:0:
285,286,55738,2,0,P|292:322|285:358,1,74.2500022659302,8|2,0:0|0:0,0:0:0:0:
195,322,56041,6,0,L|121:315,1,74.2500022659302,12|0,0:0|0:0,0:0:0:0:
24,306,56344,2,0,L|66:245,1,74.2500022659302,8|2,0:0|0:0,0:0:0:0:
123,165,56647,2,0,L|154:232,1,74.2500022659302,8|2,0:0|0:0,0:0:0:0:
195,322,56950,1,12,0:0:0:0:
250,242,57101,1,2,0:0:0:0:
291,330,57253,1,12,0:0:0:0:
346,250,57404,1,2,0:0:0:0:
387,338,57556,2,0,P|423:345|459:338,1,74.2500022659302,12|2,0:0|0:0,0:0:0:0:
512,256,57859,6,0,L|505:182,1,74.2500022659302,12|2,0:0|0:0,0:0:0:0:
418,141,58162,2,0,L|424:67,1,74.2500022659302,8|2,0:0|0:0,0:0:0:0:
349,15,58465,1,8,0:0:0:0:
349,15,58616,1,2,0:0:0:0:
269,70,58768,2,0,P|202:97|135:70,1,148.50000453186,12|8,0:0|0:0,0:0:0:0:
202,0,59223,1,2,0:0:0:0:
269,70,59374,2,0,L|262:143,1,74.2500022659302,8|2,0:0|0:0,0:0:0:0:
213,227,59677,6,0,P|188:254|177:289,1,74.2500022659302,12|2,0:0|0:0,0:0:0:0:
226,373,59980,2,0,P|262:380|298:373,1,74.2500022659302,8|2,0:0|0:0,0:0:0:0:
347,289,60283,2,0,P|335:254|310:226,1,74.2500022659302,8|2,0:0|0:0,0:0:0:0:
213,227,60586,2,0,L|139:233,1,74.2500022659302,12|2,0:0|0:0,0:0:0:0:
47,246,60889,1,12,0:0:0:0:
47,246,61041,1,12,0:0:0:0:
14,156,61192,2,0,P|7:120|14:84,1,74.2500022659302,12|2,0:0|0:0,0:0:0:0:
92,25,61495,5,12,0:0:0:0:
92,25,61647,1,2,0:0:0:0:
179,66,61798,2,0,P|215:73|251:66,1,74.2500022659302,8|2,0:0|0:0,0:0:0:0:
341,25,62101,1,8,0:0:0:0:
341,25,62253,1,2,0:0:0:0:
333,121,62404,2,0,L|326:194,1,74.2500022659302,12|2,0:0|0:0,0:0:0:0:
407,251,62707,2,0,L|413:177,1,74.2500022659302,8|2,0:0|0:0,0:0:0:0:
501,136,63010,2,0,L|494:209,1,74.2500022659302,8|2,0:0|0:0,0:0:0:0:
487,306,63313,6,0,P|461:331|427:346,1,74.2500022659302,12|2,0:0|0:0,0:0:0:0:
330,346,63616,2,0,P|294:336|265:314,1,74.2500022659302,8|2,0:0|0:0,0:0:0:0:
216,230,63919,2,0,P|206:194|210:158,1,74.2500022659302,8|2,0:0|0:0,0:0:0:0:
251,70,64223,1,12,0:0:0:0:
306,149,64374,1,2,0:0:0:0:
347,62,64526,1,12,0:0:0:0:
402,141,64677,1,2,0:0:0:0:
362,228,64829,2,0,L|368:301,1,74.2500022659302,12|2,0:0|0:0,0:0:0:0:
295,365,65132,6,0,P|259:372|223:365,1,74.2500022659302,12|2,0:0|0:0,0:0:0:0:
149,302,65435,2,0,P|142:266|149:230,1,74.2500022659302,8|2,0:0|0:0,0:0:0:0:
195,146,65738,1,8,0:0:0:0:
195,146,65889,1,2,0:0:0:0:
154,58,66041,2,0,L|80:51,1,74.2500022659302,12|8,0:0|0:0,0:0:0:0:
36,50,66268,1,8,0:0:0:0:
36,50,66344,2,0,L|42:123,1,74.2500022659302,10|8,0:0|0:0,0:0:0:0:
6,214,66647,2,0,P|42:221|78:214,1,74.2500022659302,10|8,0:0|0:0,0:0:0:0:
171,185,66950,6,0,P|207:178|243:185,1,74.2500022659302,10|8,0:0|0:0,0:0:0:0:
336,214,67253,2,0,L|342:140,1,74.2500022659302,10|8,0:0|0:0,0:0:0:0:
351,44,67556,1,6,0:0:0:0:
504,162,67859,2,0,B|495:260|495:260|466:300,2,148.50000453186,12|2|2,0:0|0:0|0:0,0:0:0:0:
336,214,68768,5,2,3:2:0:0:
168,266,69071,2,0,L|162:198,1,67.5,2|0,3:2|0:0,0:0:0:0:
86,166,69374,1,2,3:2:0:0:
86,166,69526,1,0,3:0:0:0:
154,111,69677,2,0,B|192:88|192:88|237:106|281:88,1,135,2|2,3:2|3:2,0:0:0:0:
317,9,70132,1,8,3:2:0:0:
367,80,70283,1,8,3:2:0:0:
404,1,70435,1,8,3:2:0:0:
454,72,70586,6,0,P|470:137|446:209,2,121.499996292114,6|2|2,0:0|0:0|0:0,0:0:0:0:
284,66,71495,2,0,P|275:144|270:204,1,121.499996292114,2|2,0:0|0:0,0:0:0:0:
260,359,72101,1,2,0:0:0:0:
260,359,72253,1,2,0:3:0:0:
180,329,72404,6,0,P|123:346|56:322,2,121.499996292114,2|2|2,0:0|0:0|0:0,0:0:0:0:
279,190,73313,2,0,L|347:198,1,60.7499981460572,2|2,0:0|0:3,0:0:0:0:
404,251,73616,2,0,P|383:196|405:136,1,121.499996292114,2|2,0:0|0:0,0:0:0:0:
268,33,74223,6,0,P|203:40|134:51,2,121.499996292114,2|2|2,0:0|0:0|0:0,0:0:0:0:
402,139,75132,2,0,P|423:194|403:251,1,121.499996292114,2|2,0:0|0:0,0:0:0:0:
259,341,75738,2,0,P|225:335|189:329,1,60.7499981460572,2|2,0:0|0:3,0:0:0:0:
124,289,76041,6,0,P|81:315|0:304,1,121.499996292114,2|2,0:0|0:0,0:0:0:0:
43,143,76647,1,6,0:0:0:0:
201,205,76950,1,2,0:0:0:0:
201,205,77101,2,0,L|203:248,2,30.3749990730286,8|8|2,0:0|0:0|0:0,0:0:0:0:
249,134,77404,1,0,3:0:0:0:
306,196,77556,2,0,P|353:199|382:191,1,60.7499981460572,2|2,3:2|3:2,0:0:0:0:
442,159,77859,5,6,0:0:0:0:
378,102,78010,1,8,0:0:0:0:
378,102,78162,2,0,L|372:26,1,60.7499981460572,0|2,3:0|3:2,0:0:0:0:
293,10,78465,1,0,3:0:0:0:
214,42,78616,1,2,3:2:0:0:
211,127,78768,2,0,P|150:143|103:126,1,91.1249972190858,6|2,0:0|0:0,0:0:0:0:
94,128,79071,2,0,P|88:163|84:198,1,60.7499981460572,2|2,3:2|3:2,0:0:0:0:
22,246,79374,2,0,P|27:281|32:316,1,60.7499981460572,0|0,3:0|3:0,0:0:0:0:
90,367,79677,6,0,P|130:346|183:348,1,91.1249972190858,6|2,0:0|0:0,0:0:0:0:
202,359,79980,2,0,P|237:353|272:349,1,60.7499981460572,0|2,3:0|3:2,0:0:0:0:
303,275,80283,2,0,P|267:269|233:265,1,60.7499981460572,0|2,3:0|3:2,0:0:0:0:
192,196,80586,1,6,0:0:0:0:
255,139,80738,1,8,0:0:0:0:
255,139,80889,2,0,P|268:109|271:70,1,60.7499981460572,0|2,3:0|3:2,0:0:0:0:
331,21,81192,1,0,3:0:0:0:
416,21,81344,1,2,3:2:0:0:
475,80,81495,6,0,B|491:157|491:157|461:203,1,121.499996292114,6|0,0:0|3:0,0:0:0:0:
400,245,81950,1,2,3:2:0:0:
400,245,82101,2,0,P|406:278|410:320,1,60.7499981460572,0|2,3:0|3:2,0:0:0:0:
355,371,82404,1,6,0:0:0:0:
279,330,82556,1,8,0:0:0:0:
279,330,82707,2,0,P|240:337|206:330,1,60.7499981460572,0|2,3:0|3:2,0:0:0:0:
150,283,83010,2,0,P|143:244|150:210,1,60.7499981460572,0|2,3:0|3:2,0:0:0:0:
177,144,83313,5,6,0:0:0:0:
106,95,83465,1,8,0:0:0:0:
106,95,83616,2,0,P|54:104|24:109,1,60.7499981460572,8|8,0:0|0:0,0:0:0:0:
151,22,83919,2,0,P|203:31|233:36,1,60.7499981460572,0|0,3:0|0:0,0:0:0:0:
285,74,84223,2,0,B|263:117|263:117|278:173,1,91.1249972190858,12|2,0:0|0:3,0:0:0:0:
282,187,84526,2,0,B|325:165|325:165|381:180,1,91.1249972190858,2|0,0:0|0:0,0:0:0:0:
394,187,84829,1,6,0:0:0:0:
298,335,85132,5,6,0:0:0:0:
298,335,85283,1,2,0:0:0:0:
217,300,85435,2,0,P|167:290|117:300,1,101.25,8|8,0:0|0:0,0:0:0:0:
79,320,85738,2,0,L|73:252,1,67.5,2|2,0:0|0:3,0:0:0:0:
144,201,86041,2,0,L|149:133,1,67.5,8|0,0:0|0:0,0:0:0:0:
108,56,86344,6,0,P|160:94|225:87,1,135,2|8,0:0|0:0,0:0:0:0:
303,42,86798,1,2,0:0:0:0:
303,42,86950,2,0,L|370:48,1,67.5,2|2,0:0|0:3,0:0:0:0:
458,56,87253,2,0,P|452:89|458:122,1,67.5,8|0,0:0|0:0,0:0:0:0:
507,201,87556,5,2,0:0:0:0:
507,201,87707,1,2,0:0:0:0:
470,281,87859,2,0,L|402:286,1,67.5,8|2,0:0|0:0,0:0:0:0:
321,320,88162,2,0,P|315:287|321:254,1,67.5,2|2,0:0|0:3,0:0:0:0:
351,171,88465,2,0,P|357:138|351:105,1,67.5,8|2,0:0|0:3,0:0:0:0:
296,36,88768,5,2,0:0:0:0:
214,66,88919,2,0,P|181:72|148:66,1,67.5,2|8,0:0|0:0,0:0:0:0:
66,36,89222,1,2,0:3:0:0:
66,36,89298,1,2,0:3:0:0:
66,36,89374,2,0,L|60:103,1,67.5,2|2,0:0|0:0,0:0:0:0:
132,153,89677,2,0,L|137:220,1,67.5,12|2,0:0|0:3,0:0:0:0:
66,271,89980,5,6,0:0:0:0:
66,271,90132,1,2,0:0:0:0:
146,309,90283,2,0,P|179:315|212:309,1,67.5,8|2,0:0|0:0,0:0:0:0:
284,259,90586,2,0,P|290:225|284:192,1,67.5,2|2,0:0|0:3,0:0:0:0:
254,110,90889,2,0,P|248:76|254:43,1,67.5,8|0,0:0|0:0,0:0:0:0:
336,76,91192,6,0,P|397:52|458:76,1,135,2|8,0:0|0:0,0:0:0:0:
405,147,91647,1,2,0:0:0:0:
405,147,91722,1,8,0:0:0:0:
405,147,91798,2,0,L|410:214,1,67.5,2|2,0:0|0:3,0:0:0:0:
490,253,92101,2,0,L|484:320,1,67.5,12|0,0:0|0:0,0:0:0:0:
409,362,92404,5,2,0:0:0:0:
409,362,92556,1,2,0:0:0:0:
332,322,92707,2,0,P|298:316|265:322,1,67.5,8|2,0:0|0:0,0:0:0:0:
180,342,93010,2,0,P|186:308|180:275,1,67.5,2|2,0:0|0:3,0:0:0:0:
160,190,93313,2,0,P|193:196|226:190,1,67.5,8|8,0:0|0:0,0:0:0:0:
307,152,93616,5,2,3:2:0:0:
307,152,93768,1,8,3:2:0:0:
383,207,93919,1,8,3:2:0:0:
383,207,94071,1,8,3:2:0:0:
462,169,94222,2,0,L|467:101,2,67.5,8|2|0,3:2|3:2|3:0,0:0:0:0:
391,14,94828,5,6,0:0:0:0:
391,14,94980,1,2,0:0:0:0:
313,55,95132,2,0,P|263:65|213:55,1,101.25,8|8,0:0|0:0,0:0:0:0:
174,38,95435,2,0,L|106:43,1,67.5,2|2,0:0|0:3,0:0:0:0:
92,130,95738,2,0,L|159:124,1,67.5,8|0,0:0|0:0,0:0:0:0:
244,166,96041,5,2,0:0:0:0:
244,166,96192,1,2,0:0:0:0:
195,239,96344,2,0,P|185:289|195:339,1,101.25,8|8,0:0|0:0,0:0:0:0:
212,378,96647,2,0,L|144:372,1,67.5,2|2,0:0|0:3,0:0:0:0:
57,364,96950,2,0,P|63:330|57:297,1,67.5,8|0,0:0|0:0,0:0:0:0:
18,225,97253,5,2,0:0:0:0:
18,225,97404,1,2,0:0:0:0:
25,138,97556,2,0,L|30:70,1,67.5,8|2,0:0|0:0,0:0:0:0:
118,55,97859,2,0,L|123:122,1,67.5,2|2,0:0|0:3,0:0:0:0:
204,159,98162,1,8,0:0:0:0:
276,109,98313,1,2,0:3:0:0:
356,146,98465,6,0,B|389:158|422:146|422:146|457:153|479:179,2,135,2|8|2,0:0|0:0|0:0,0:0:0:0:
280,113,99222,1,2,0:0:0:0:
280,113,99374,2,0,L|285:45,1,67.5,12|2,0:0|0:3,0:0:0:0:
217,0,99677,5,6,0:0:0:0:
217,0,99828,1,2,0:0:0:0:
137,37,99980,2,0,L|128:137,1,101.25,8|8,0:0|0:0,0:0:0:0:
148,177,100283,2,0,P|154:210|147:243,1,67.5,2|2,0:0|0:3,0:0:0:0:
109,322,100586,2,0,L|176:327,1,67.5,8|0,0:0|0:0,0:0:0:0:
268,339,100889,5,2,0:0:0:0:
268,339,101041,1,2,0:0:0:0:
341,290,101192,2,0,P|391:280|441:290,1,101.25,8|8,0:0|0:0,0:0:0:0:
478,312,101495,2,0,L|472:244,1,67.5,2|2,0:0|0:3,0:0:0:0:
421,172,101798,2,0,L|426:104,1,67.5,12|0,0:0|0:0,0:0:0:0:
439,22,102101,5,2,0:0:0:0:
439,22,102253,1,2,0:0:0:0:
356,51,102404,2,0,P|289:63|223:51,2,135,8|2|12,0:0|0:0|0:0,0:0:0:0:
509,137,103313,6,0,L|512:170,3,33.75,8|0|2|2,0:0|3:0|0:0|0:0,0:0:0:0:
485,205,103616,2,0,L|482:238,3,33.75,8|0|2|2,0:0|3:0|0:0|0:0,0:0:0:0:
477,282,103919,1,12,0:0:0:0:
216,353,104525,5,12,0:0:0:0:
216,353,104676,1,0,0:0:0:0:
164,270,104828,2,0,P|168:213|175:146,1,111.375003398895,8|2,0:0|0:0,0:0:0:0:
197,130,105131,2,0,P|194:92|191:49,1,74.2500022659302,8|2,0:0|0:0,0:0:0:0:
282,22,105434,2,0,B|364:12|346:60|431:45,1,148.50000453186,8|8,0:0|0:0,0:0:0:0:
489,124,105888,1,2,0:0:0:0:
489,124,106040,2,0,P|458:175|472:241,1,111.375003398895,8|2,0:0|0:0,0:0:0:0:
467,261,106343,6,0,P|430:264|393:267,1,74.2500022659302,12|2,0:0|0:0,0:0:0:0:
346,352,106646,2,0,P|382:355|419:358,1,74.2500022659302,8|2,0:0|0:0,0:0:0:0:
295,276,106949,2,0,P|258:279|221:282,1,74.2500022659302,8|2,0:0|0:0,0:0:0:0:
125,298,107252,1,12,0:0:0:0:
35,264,107403,1,2,0:0:0:0:
109,202,107555,1,12,0:0:0:0:
17,169,107706,1,2,0:0:0:0:
92,107,107858,2,0,P|129:110|176:114,1,74.2500022659302,12|2,0:0|0:0,0:0:0:0:
243,170,108161,6,0,P|296:187|368:159,1,111.375003398895,12|0,0:0|0:0,0:0:0:0:
375,147,108464,2,0,P|372:109|370:64,1,74.2500022659302,8|2,0:0|0:0,0:0:0:0:
292,24,108767,1,8,0:0:0:0:
292,24,108918,1,2,0:0:0:0:
195,33,109070,2,0,P|151:12|52:36,1,148.50000453186,12|8,0:0|0:0,0:0:0:0:
14,120,109525,1,2,0:0:0:0:
14,120,109676,2,0,P|20:175|25:237,1,111.375003398895,8|2,0:0|0:0,0:0:0:0:
30,267,109979,6,0,P|68:270|112:250,1,74.2500022659302,12|2,0:0|0:0,0:0:0:0:
169,326,110282,2,0,P|190:294|195:246,1,74.2500022659302,8|2,0:0|0:0,0:0:0:0:
290,234,110585,2,0,P|273:199|234:171,1,74.2500022659302,8|2,0:0|0:0,0:0:0:0:
157,137,110888,2,0,P|160:99|167:57,1,74.2500022659302,12|2,0:0|0:0,0:0:0:0:
247,9,111191,1,12,0:0:0:0:
247,9,111343,1,2,0:0:0:0:
326,63,111494,2,0,P|332:99|335:137,1,74.2500022659302,12|2,0:0|0:0,0:0:0:0:
394,219,111797,5,12,0:0:0:0:
394,219,111949,1,2,0:0:0:0:
459,289,112100,2,0,P|453:325|450:363,1,74.2500022659302,8|2,0:0|0:0,0:0:0:0:
358,375,112403,1,8,0:0:0:0:
358,375,112555,1,2,0:0:0:0:
281,316,112706,2,0,P|226:307|166:343,1,111.375003398895,12|0,0:0|0:0,0:0:0:0:
147,352,113009,2,0,P|107:346|68:340,1,74.2500022659302,8|2,0:0|0:0,0:0:0:0:
11,266,113312,1,8,0:0:0:0:
97,218,113464,1,2,0:0:0:0:
97,218,113540,1,2,0:0:0:0:
97,218,113615,6,0,L|91:92,1,111.375003398895,12|0,0:0|0:0,0:0:0:0:
88,69,113918,2,0,P|129:76|162:66,1,74.2500022659302,8|2,0:0|0:0,0:0:0:0:
245,21,114221,1,8,0:0:0:0:
327,91,114373,1,2,0:0:0:0:
327,91,114449,1,2,0:0:0:0:
327,91,114525,2,0,L|319:140,3,37.1250011329651,8|0|2|2,0:0|3:0|0:0|0:0,0:0:0:0:
297,156,114828,2,0,L|305:205,3,37.1250011329651,8|0|2|2,0:0|3:0|0:0|0:0,0:0:0:0:
313,228,115131,2,0,P|348:235|395:225,1,74.2500022659302,12|2,0:0|0:0,0:0:0:0:
454,161,115434,6,0,B|427:208|427:208|448:303,2,148.50000453186,12|8|8,0:0|0:0|0:0,0:0:0:0:
499,76,116191,1,2,0:0:0:0:
499,76,116343,2,0,P|458:71|375:62,1,111.375003398895,12|2,0:0|0:0,0:0:0:0:
351,60,116646,2,0,P|332:105|332:140,1,74.2500022659302,8|2,0:0|0:0,0:0:0:0:
240,164,116949,2,0,P|236:127|219:94,1,74.2500022659302,8|2,0:0|0:0,0:0:0:0:
143,34,117252,6,0,P|107:38|59:44,1,74.2500022659302,12|0,0:0|0:0,0:0:0:0:
13,121,117555,1,8,0:0:0:0:
96,187,117706,1,8,0:0:0:0:
96,187,117782,1,8,0:0:0:0:
96,187,117858,2,0,P|92:225|88:274,1,74.2500022659302,2|0,0:0|3:0,0:0:0:0:
159,327,118161,2,0,P|194:314|234:315,1,74.2500022659302,2|0,0:0|3:0,0:0:0:0:
327,321,118464,1,2,3:2:0:0:
285,234,118615,1,0,3:0:0:0:
381,239,118767,2,0,P|394:204|393:164,1,74.2500022659302,2|0,3:2|3:0,0:0:0:0:
372,89,119070,5,6,0:0:0:0:
226,21,119373,1,8,3:2:0:0:
241,183,119676,1,8,3:2:0:0:
255,344,119979,1,2,0:0:0:0:
387,251,120282,1,8,3:2:0:0:
241,183,120585,1,8,3:2:0:0:
95,115,120888,5,2,0:0:0:0:
109,276,121191,1,8,3:2:0:0:
241,183,121494,1,8,3:2:0:0:
372,89,121797,2,0,P|399:85|426:89,1,54,2|8,0:0|0:0,0:0:0:0:
498,124,122100,2,0,L|493:177,1,54,2|0,0:3|3:0,0:0:0:0:
486,257,122403,1,8,3:2:0:0:
339,325,122706,6,0,P|286:334|234:325,1,108,2|8,0:0|3:2,0:0:0:0:
87,257,123312,1,8,3:2:0:0:
234,189,123615,2,0,P|287:179|340:189,1,108,2|8,0:0|3:2,0:0:0:0:
486,257,124221,1,8,3:2:0:0:
472,96,124525,5,2,0:0:0:0:
340,189,124828,1,8,3:2:0:0:
326,28,125131,1,8,3:2:0:0:
194,121,125434,1,2,0:0:0:0:
120,87,125585,1,0,3:0:0:0:
120,87,125661,1,0,3:0:0:0:
120,87,125737,2,0,L|93:89,3,27,2|0|0|0,3:2|3:0|3:0|3:0,0:0:0:0:
61,114,126040,2,0,L|34:111,3,27,2|0|0|0,3:2|3:0|3:0|3:0,0:0:0:0:
2,87,126343,5,6,0:0:0:0:
16,248,126646,1,8,3:2:0:0:
148,155,126949,1,8,3:2:0:0:
280,62,127252,1,2,0:0:0:0:
294,223,127555,1,8,3:2:0:0:
148,155,127858,1,8,3:2:0:0:
162,316,128161,5,2,0:0:0:0:
308,384,128464,2,0,L|361:379,1,54,2|0,0:3|3:0,0:0:0:0:
427,330,128767,2,0,P|431:303|427:276,1,54,8|2,0:0|0:0,0:0:0:0:
398,201,129070,1,0,3:0:0:0:
244,250,129373,2,0,P|217:254|190:250,1,54,2|2,0:3|3:2,0:0:0:0:
115,220,129676,2,0,L|119:166,1,54,0|0,3:0|3:0,0:0:0:0:
126,85,129979,6,0,B|161:74|161:74|196:87|231:74,1,108,6|10,0:0|0:0,0:0:0:0:
314,59,130434,1,8,0:0:0:0:
314,59,130585,2,0,L|367:63,1,54,10|8,0:0|0:0,0:0:0:0:
445,91,130888,2,0,P|449:64|445:37,2,54,10|8|10,0:0|0:0|0:0,0:0:0:0:
424,173,131343,1,8,0:0:0:0:
424,173,131494,2,0,L|428:226,1,54,10|8,0:0|0:0,0:0:0:0:
385,295,131797,6,0,P|358:291|331:295,1,54,10|8,0:0|0:0,0:0:0:0:
254,320,132100,2,0,P|270:298|281:273,1,54,10|8,0:0|0:0,0:0:0:0:
297,194,132403,2,0,P|307:219|324:240,1,54,10|8,0:0|0:0,0:0:0:0:
385,295,132706,1,10,0:0:0:0:
385,295,133615,6,0,B|305:278|329:321|240:302,1,135,12|8,0:0|0:0,0:0:0:0:
168,282,134069,1,2,0:0:0:0:
168,282,134221,2,0,P|131:286|95:277,1,67.5,8|2,0:0|0:0,0:0:0:0:
100,191,134525,2,0,P|137:187|173:196,1,67.5,12|2,0:0|0:0,0:0:0:0:
243,152,134827,2,0,L|235:98,2,33.75,8|0|2,0:0|0:0|0:0,0:0:0:0:
318,197,135130,2,0,P|370:189|425:179,1,101.25,8|2,0:0|0:0,0:0:0:0:
450,169,135433,6,0,P|454:136|442:93,1,67.5,12|2,0:0|0:0,0:0:0:0:
370,57,135737,2,0,P|337:53|294:65,1,67.5,8|2,0:0|0:0,0:0:0:0:
238,118,136039,2,0,P|199:115|151:110,1,67.5,8|2,0:0|0:0,0:0:0:0:
82,109,136342,1,12,0:0:0:0:
82,109,136494,1,2,0:0:0:0:
26,176,136645,1,12,0:0:0:0:
26,176,136797,1,12,0:0:0:0:
61,255,136948,2,0,P|105:267|159:253,1,101.25,12|2,0:0|0:0,0:0:0:0:
182,230,137251,6,0,B|266:248|266:248|292:232|304:195,1,135,12|8,0:0|0:0,0:0:0:0:
340,134,137706,1,2,0:0:0:0:
340,134,137858,2,0,P|373:136|407:140,1,67.5,8|2,0:0|0:0,0:0:0:0:
465,206,138161,2,0,P|471:238|455:285,1,67.5,12|2,0:0|0:0,0:0:0:0:
406,337,138464,2,0,L|414:384,2,33.75,8|0|2,0:0|0:0|0:0,0:0:0:0:
318,342,138767,2,0,P|266:351|207:325,1,101.25,8|2,0:0|0:0,0:0:0:0:
196,312,139070,6,0,P|155:306|112:320,1,67.5,12|2,0:0|0:0,0:0:0:0:
65,250,139373,2,0,P|90:217|100:173,1,67.5,8|2,0:0|0:0,0:0:0:0:
183,168,139676,2,0,P|198:206|231:236,1,67.5,8|2,0:0|0:0,0:0:0:0:
297,257,139979,2,0,L|336:252,3,33.75,8|0|2|2,0:0|3:0|0:0|0:0,0:0:0:0:
360,237,140282,2,0,L|399:242,3,33.75,8|0|2|2,0:0|3:0|0:0|0:0,0:0:0:0:
424,254,140585,2,0,L|463:249,3,33.75,12|0|2|0,0:0|0:0|0:0|0:0,0:0:0:0:
490,246,140888,6,0,P|499:213|495:180,1,67.5,12|2,0:0|0:0,0:0:0:0:
430,121,141191,2,0,P|421:88|425:55,1,67.5,8|2,0:0|0:0,0:0:0:0:
344,19,141494,1,8,0:0:0:0:
344,19,141646,1,2,0:0:0:0:
272,69,141797,2,0,P|235:64|202:61,1,67.5,12|2,0:0|0:0,0:0:0:0:
251,158,142100,2,0,P|288:153|321:150,1,67.5,8|2,0:0|0:0,0:0:0:0:
378,213,142403,2,0,L|373:246,3,33.75,8|0|2|2,0:0|0:0|0:0|0:0,0:0:0:0:
361,278,142706,6,0,P|327:275|296:287,1,67.5,12|2,0:0|0:0,0:0:0:0:
214,320,143009,2,0,P|182:308|149:310,1,67.5,8|2,0:0|0:0,0:0:0:0:
69,347,143312,1,8,0:0:0:0:
69,347,143464,1,2,0:0:0:0:
17,276,143615,2,0,L|20:234,3,33.75,0|2|2|2,3:0|0:0|0:0|0:0,0:0:0:0:
41,216,143918,2,0,L|38:174,3,33.75,8|0|2|2,0:0|3:0|0:0|0:0,0:0:0:0:
32,149,144221,2,0,B|89:160|89:160|131:132,1,101.25,12|0,0:0|0:0,0:0:0:0:
148,111,144524,6,0,B|201:118|201:118|226:136|226:136|284:143,1,135,12|8,0:0|0:0,0:0:0:0:
368,153,144979,1,2,0:0:0:0:
368,153,145130,2,0,P|372:186|362:232,1,67.5,8|2,0:0|0:0,0:0:0:0:
308,286,145434,2,0,P|274:291|241:287,1,67.5,12|2,0:0|0:0,0:0:0:0:
164,244,145736,2,0,L|172:205,2,33.75,8|0|2,0:0|0:0|0:0,0:0:0:0:
126,323,146039,2,0,B|64:334|64:334|30:314,1,101.25,8|2,0:0|0:0,0:0:0:0:
11,286,146342,6,0,P|14:252|19:219,1,67.5,12|0,0:0|0:0,0:0:0:0:
68,145,146646,1,10,0:0:0:0:
68,145,146797,2,0,B|143:138|127:179|210:167,1,135,8|8,0:0|0:0,0:0:0:0:
279,134,147252,2,0,L|287:52,1,67.5,10|8,0:0|0:0,0:0:0:0:
360,18,147555,1,10,0:0:0:0:
360,18,147706,1,8,0:0:0:0:
444,56,147858,1,10,0:0:0:0:
444,56,148009,1,8,0:0:0:0:
452,143,148161,5,6,0:0:0:0:
153,145,155434,5,8,3:2:0:0:
322,228,156040,1,8,3:2:0:0:
322,228,156343,1,0,3:0:0:0:
55,323,157252,5,8,3:2:0:0:
215,223,157858,1,8,3:2:0:0:
215,223,158161,1,0,3:0:0:0:
4,33,159070,5,8,3:2:0:0:
73,208,159676,1,8,3:2:0:0:
73,208,159979,1,0,3:0:0:0:
341,26,160888,5,8,3:2:0:0:
221,100,161191,1,8,3:2:0:0:
341,171,161494,1,8,3:2:0:0:
202,246,161797,6,0,L|159:250,3,30.3749990730286,8|0|0|0,3:2|3:0|3:0|3:0,0:0:0:0:
144,263,162100,2,0,L|101:259,3,30.3749990730286,8|0|0|0,3:2|3:0|3:0|3:0,0:0:0:0:
87,244,162403,2,0,L|44:248,3,30.3749990730286,8|0|0|0,3:2|3:0|3:0|3:0,0:0:0:0:
12,256,162706,5,12,0:0:0:0:
12,256,162858,1,0,0:0:0:0:
48,167,163009,2,0,P|55:131|48:95,1,74.2500022659302,8|2,0:0|0:0,0:0:0:0:
12,11,163312,1,8,0:0:0:0:
12,11,163464,1,2,0:0:0:0:
108,19,163615,2,0,B|207:27|207:27|183:38|169:60,1,148.50000453186,12|8,0:0|0:0,0:0:0:0:
101,126,164070,1,2,0:0:0:0:
37,199,164221,2,0,P|29:235|36:271,1,74.2500022659302,8|2,0:0|0:0,0:0:0:0:
127,235,164525,6,0,L|200:228,1,74.2500022659302,12|2,0:0|0:0,0:0:0:0:
256,308,164828,2,0,L|224:375,1,74.2500022659302,8|2,0:0|0:0,0:0:0:0:
129,383,165131,2,0,L|86:322,1,74.2500022659302,8|2,0:0|0:0,0:0:0:0:
30,242,165434,1,12,0:0:0:0:
127,235,165585,1,2,0:0:0:0:
71,155,165737,1,12,0:0:0:0:
167,147,165888,1,2,0:0:0:0:
111,67,166040,2,0,P|104:31|111:-5,1,74.2500022659302,12|2,0:0|0:0,0:0:0:0:
201,31,166343,6,0,L|275:37,1,74.2500022659302,12|2,0:0|0:0,0:0:0:0:
315,124,166646,2,0,L|389:117,1,74.2500022659302,8|2,0:0|0:0,0:0:0:0:
489,113,166949,1,8,0:0:0:0:
489,113,167100,1,2,0:0:0:0:
448,200,167252,2,0,B|432:243|448:287|448:287|418:284|418:284|390:297,1,148.50000453186,12|8,0:0|0:0,0:0:0:0:
303,336,167706,1,2,0:0:0:0:
250,255,167858,2,0,P|243:219|250:183,1,74.2500022659302,8|2,0:0|0:0,0:0:0:0:
303,101,168161,6,0,B|293:-6|293:-6|267:24,1,148.50000453186,12|0,0:0|0:0,0:0:0:0:
188,78,168615,2,0,B|151:91|115:78|115:78|76:85|52:114,1,148.50000453186,12|2,0:0|0:0,0:0:0:0:
0,196,169070,2,0,B|10:232|10:232|0:268|0:268|-3:306|19:338,1,148.50000453186,12|8,0:0|0:0,0:0:0:0:
96,279,169525,1,2,0:0:0:0:
183,320,169676,2,0,P|219:327|255:320,1,74.2500022659302,8|2,0:0|0:0,0:0:0:0:
347,283,169979,5,12,0:0:0:0:
347,283,170131,1,2,0:0:0:0:
355,187,170282,2,0,L|361:113,1,74.2500022659302,8|2,0:0|0:0,0:0:0:0:
286,61,170585,1,8,0:0:0:0:
286,61,170737,1,2,0:0:0:0:
199,102,170888,2,0,P|192:138|199:174,1,74.2500022659302,12|2,0:0|0:0,0:0:0:0:
213,270,171191,2,0,P|247:257|275:233,1,74.2500022659302,8|2,0:0|0:0,0:0:0:0:
351,174,171494,2,0,P|323:149|289:138,1,74.2500022659302,8|2,0:0|0:0,0:0:0:0:
199,102,171797,6,0,L|162:105,3,37.1250011329651,8|8|2|2,0:0|0:0|0:0|0:0,0:0:0:0:
120,130,172100,2,0,L|83:126,3,37.1250011329651,0|0|2|2,3:0|3:0|0:0|0:0,0:0:0:0:
35,121,172403,1,0,3:0:0:0:
52,32,172555,1,2,0:0:0:0:
52,32,172631,1,2,0:0:0:0:
52,32,172706,2,0,L|88:35,3,37.1250011329651,8|0|2|2,0:0|3:0|0:0|0:0,0:0:0:0:
131,10,173009,2,0,L|167:6,3,37.1250011329651,8|0|2|2,0:0|3:0|0:0|0:0,0:0:0:0:
216,1,173312,1,12,0:0:0:0:
330,163,173615,5,12,0:0:0:0:
330,163,173767,1,0,0:0:0:0:
413,115,173918,2,0,P|449:108|485:115,1,74.2500022659302,10|8,0:0|0:0,0:0:0:0:
453,209,174221,1,10,0:0:0:0:
453,209,174373,1,8,0:0:0:0:
462,305,174525,2,0,L|468:378,1,74.2500022659302,10|8,0:0|0:0,0:0:0:0:
373,363,174828,2,0,L|366:289,1,74.2500022659302,10|8,0:0|0:0,0:0:0:0:
290,230,175131,2,0,P|254:223|218:230,2,74.2500022659302,10|8|2,0:0|0:0|0:0,0:0:0:0:
290,230,178161,6,0,P|229:206|168:230,1,135,12|8,0:0|0:0,0:0:0:0:
94,194,178615,1,2,0:0:0:0:
94,194,178767,2,0,L|99:126,1,67.5,8|2,0:0|0:0,0:0:0:0:
180,90,179070,2,0,L|174:22,1,67.5,12|2,0:0|0:0,0:0:0:0:
262,15,179373,2,0,L|264:48,2,33.75,8|0|2,0:0|0:0|0:0,0:0:0:0:
348,30,179676,2,0,P|381:36|414:30,1,67.5,8|2,0:0|0:0,0:0:0:0:
499,0,179979,5,12,0:0:0:0:
499,0,180131,1,2,0:0:0:0:
506,87,180282,2,0,L|511:154,1,67.5,8|2,0:0|0:0,0:0:0:0:
465,229,180585,2,0,P|432:223|399:229,1,67.5,8|2,0:0|0:0,0:0:0:0:
324,271,180888,1,12,0:0:0:0:
324,271,181040,1,2,0:0:0:0:
252,220,181191,1,12,0:0:0:0:
252,220,181343,1,2,0:0:0:0:
259,133,181494,2,0,L|264:65,1,67.5,12|2,0:0|0:0,0:0:0:0:
197,20,181797,5,12,0:0:0:0:
197,20,181949,1,2,0:0:0:0:
140,86,182100,2,0,P|134:119|140:152,1,67.5,8|2,0:0|0:0,0:0:0:0:
175,233,182403,2,0,P|181:266|175:299,1,67.5,8|2,0:0|0:0,0:0:0:0:
140,379,182706,2,0,L|207:384,1,67.5,12|2,0:0|0:0,0:0:0:0:
286,346,183009,2,0,L|319:343,2,33.75,8|0|2,0:0|0:0|0:0,0:0:0:0:
277,258,183312,2,0,L|344:253,1,67.5,8|2,0:0|0:0,0:0:0:0:
426,286,183615,6,0,P|432:253|426:220,1,67.5,12|2,0:0|0:0,0:0:0:0:
387,141,183918,2,0,L|392:73,1,67.5,8|2,0:0|0:0,0:0:0:0:
310,44,184221,2,0,L|304:111,1,67.5,8|2,0:0|0:0,0:0:0:0:
253,183,184525,2,0,L|219:185,3,33.75,8|0|2|2,0:0|3:0|0:0|0:0,0:0:0:0:
184,160,184828,2,0,L|150:157,3,33.75,8|0|2|2,0:0|3:0|0:0|0:0,0:0:0:0:
116,185,185131,2,0,P|55:209|-6:185,1,135,12|2,0:0|0:0,0:0:0:0:
