osu file format v14

[General]
AudioFilename: audio.mp3
AudioLeadIn: 0
PreviewTime: 54072
Countdown: 0
SampleSet: Soft
StackLeniency: 0.4
Mode: 0
LetterboxInBreaks: 0
WidescreenStoryboard: 0

[Editor]
Bookmarks: 285,20284,34830,54223,70586,85132,104525,119070,133615,162706
DistanceSpacing: 1.3
BeatDivisor: 4
GridSize: 32
TimelineZoom: 1.9

[Metadata]
Title:Kimi ga Sora Koso Kanashikere
TitleUnicode:君ガ空コソカナシケレ
Artist:CHiCO with HoneyWorks
ArtistUnicode:CHiCO with HoneyWorks
Creator:Serizawa Haruki
Version:Elgatsu's Sorrow
Source:
Tags:ハニーワークス ハニワ 世界はiに満ちている Sekai wa Ai ni Michiteiru 兎眠りおん Tone Rion 初音ミク Hatsune Miku ボーカロイド Vocaloid ゴム Gom フェルナンドP Fernando-P シト shito チョリスP Chorisu-P オジ Oji 海賊王 Kaizoku Ou Japanese Rock J-rock Jrock Jack J_a_c_k Cris- Kowari Akitoshi -Laura- Corinn Seolv [_L_u_k_a_s] Lukas William K William_K Taeyang Xen Xehn Xenon- Agatsu Elcheer
BeatmapID:1964722
BeatmapSetID:940746

[Difficulty]
HPDrainRate:6
CircleSize:4.2
OverallDifficulty:9.2
ApproachRate:9.4
SliderMultiplier:1.8
SliderTickRate:1

[Events]
//Background and Video events
0,0,"bg.jpg",0,0
//Break Periods
2,148361,154894
//Storyboard Layer 0 (Background)
//Storyboard Layer 1 (Fail)
//Storyboard Layer 2 (Pass)
//Storyboard Layer 3 (Foreground)
//Storyboard Layer 4 (Overlay)
//Storyboard Sound Samples

[TimingPoints]
285,303.030303030303,3,2,1,40,1,0
3315,-100,3,2,1,60,0,0
3921,-100,4,2,1,70,0,0
18466,-100,4,2,1,60,0,0
18769,-111.111111111111,4,2,1,60,0,0
20284,-125,4,2,1,50,0,0
26648,-125,4,2,1,60,0,0
34830,303.030303030303,4,2,1,60,1,0
34830,-125,4,2,1,60,0,0
43239,-125,4,2,1,5,0,0
43314,-125,4,2,1,60,0,0
44148,-125,4,2,1,5,0,0
44223,-125,4,2,1,60,0,0
44526,-111.111111111111,4,2,1,60,0,0
45966,-111.111111111111,4,2,1,5,0,0
46042,-111.111111111111,4,2,1,60,0,0
47178,-111.111111111111,4,2,1,5,0,0
47254,-111.111111111111,4,2,1,60,0,0
51723,-111.111111111111,4,2,1,5,0,0
51799,-111.111111111111,4,2,1,60,0,0
52936,-111.111111111111,4,2,1,5,0,0
53011,-111.111111111111,4,2,1,70,0,0
54147,-111.111111111111,4,2,1,5,0,0
54223,303.030303030303,3,2,1,80,1,1
68768,-111.111111111111,4,2,1,60,0,0
70586,-125,4,2,1,50,0,0
76874,-125,4,2,1,5,0,0
76950,-125,4,2,1,60,0,0
84147,-125,4,2,1,5,0,0
84223,-125,4,2,1,60,0,0
85056,-125,4,2,1,5,0,0
85132,303.030303030303,4,2,1,60,1,0
94753,-100,4,2,1,5,0,0
94828,-111.111111111111,4,2,1,60,0,0
103313,-111.111111111111,4,2,1,70,0,0
104525,303.030303030303,3,2,1,80,1,1
115358,-100,4,2,1,5,0,1
115434,-100,4,2,1,80,0,1
119070,-125,4,2,1,50,0,0
129979,-125,4,2,1,60,0,0
133615,-100,4,2,1,70,0,0
155434,-142.857142857143,4,2,2,50,0,0
160888,-142.857142857143,4,2,2,60,0,0
162706,-100,4,2,1,80,0,1
173540,-100,4,2,1,5,0,1
173615,-100,4,2,1,80,0,1
175434,-100,4,2,2,30,0,0
178161,-100,4,2,1,70,0,0
185358,-100,4,2,1,5,0,0
185434,-100,4,2,2,30,0,0

[Colours]
Combo1 : 185,132,251
Combo2 : 255,181,43
Combo3 : 64,159,255
Combo4 : 252,109,24

[HitObjects]
114,285,3921,5,12,0:0:0:0:
397,214,4072,1,0,0:0:0:0:
165,98,4224,5,8,0:0:0:0:
253,338,4375,2,0,L|260:280,1,45,2|2,0:0|0:0,0:0:0:0:
319,89,4527,6,0,P|318:39|309:-5,1,90,8|2,0:0|0:0,0:0:0:0:
116,160,4830,6,0,P|107:204|107:249,1,90,12|2,0:0|0:0,0:0:0:0:
350,375,5133,2,0,L|345:321,2,45,8|0|2,0:0|0:0|0:0,0:0:0:0:
153,384,5436,5,8,0:0:0:0:
342,208,5588,2,0,L|286:196,1,45,2|2,0:0|0:0,0:0:0:0:
92,114,5739,5,12,0:0:0:0:
250,308,5891,1,2,0:0:0:0:
271,69,6042,2,0,L|161:59,1,90,8|2,0:0|0:0,0:0:0:0:
372,232,6345,6,0,L|474:223,1,90,8|2,0:0|0:0,0:0:0:0:
509,218,6572,1,2,0:0:0:0:
509,218,6648,5,12,0:0:0:0:
249,182,6800,1,2,0:0:0:0:
390,6,6951,5,12,0:0:0:0:
415,272,7103,1,2,0:0:0:0:
234,63,7254,6,0,L|225:172,1,90,12|2,0:0|0:0,0:0:0:0:
219,203,7481,1,2,0:0:0:0:
219,203,7557,5,12,0:0:0:0:
427,358,7709,1,2,0:0:0:0:
221,331,7860,5,8,0:0:0:0:
484,241,8012,2,0,L|434:231,1,45,2|2,0:0|0:0,0:0:0:0:
227,152,8163,6,0,P|170:136|129:137,1,90,8|2,0:0|0:0,0:0:0:0:
15,340,8466,6,0,P|59:337|102:323,1,90,12|2,0:0|0:0,0:0:0:0:
256,129,8769,2,0,L|249:65,2,45,8|0|2,0:0|0:0|0:0,0:0:0:0:
308,294,9072,5,8,0:0:0:0:
161,114,9224,2,0,L|171:175,1,45,2|2,0:0|0:0,0:0:0:0:
102,323,9375,6,0,L|115:227,1,90,12|2,0:0|0:0,0:0:0:0:
244,40,9678,2,0,L|256:129,1,90,8|2,0:0|0:0,0:0:0:0:
33,144,9981,2,0,P|78:122|143:121,1,90,8|2,0:0|0:0,0:0:0:0:
168,132,10209,1,2,0:0:0:0:
168,132,10285,5,12,0:0:0:0:
93,346,10436,1,0,3:0:0:0:
264,179,10588,1,2,3:2:0:0:
339,366,10739,1,0,3:0:0:0:
149,236,10891,1,0,3:0:0:0:
397,212,11042,1,0,3:0:0:0:
230,352,11194,5,12,0:0:0:0:
463,310,11345,1,0,0:0:0:0:
233,164,11497,6,0,P|187:146|129:146,1,90,8|2,0:0|0:0,0:0:0:0:
99,162,11724,1,2,0:0:0:0:
99,162,11800,2,0,L|115:258,1,90,8|2,0:0|0:0,0:0:0:0:
369,49,12103,6,0,L|357:153,1,90,12|2,0:0|0:0,0:0:0:0:
208,348,12406,2,0,L|215:280,1,45,8|0,0:0|0:0,0:0:0:0:
247,111,12557,1,2,0:0:0:0:
379,351,12709,5,8,0:0:0:0:
343,92,12860,2,0,L|331:148,1,45,2|2,0:0|0:0,0:0:0:0:
234,280,13012,5,12,0:0:0:0:
484,312,13163,1,2,0:0:0:0:
390,109,13315,2,0,L|385:198,1,90,8|2,0:0|0:0,0:0:0:0:
168,60,13618,6,0,P|220:34|280:38,1,90,8|2,0:0|0:0,0:0:0:0:
406,233,13921,5,12,0:0:0:0:
170,173,14072,2,0,L|233:164,1,45,2|2,0:0|0:0,0:0:0:0:
403,71,14224,5,12,0:0:0:0:
243,289,14375,1,12,0:0:0:0:
488,145,14527,6,0,L|493:254,1,90,12|2,0:0|0:0,0:0:0:0:
493,284,14754,1,2,0:0:0:0:
493,284,14830,5,12,0:0:0:0:
256,216,14981,1,2,0:0:0:0:
395,384,15133,5,8,0:0:0:0:
392,115,15285,1,2,0:0:0:0:
475,309,15436,6,0,P|481:254|472:200,1,90,8|2,0:0|0:0,0:0:0:0:
278,46,15739,6,0,P|272:101|281:155,1,90,12|2,0:0|0:0,0:0:0:0:
444,316,16042,2,0,L|370:311,1,45,8|0,0:0|0:0,0:0:0:0:
204,214,16194,1,2,0:0:0:0:
452,197,16345,5,8,0:0:0:0:
208,350,16497,2,0,L|216:290,1,45,2|2,0:0|0:0,0:0:0:0:
385,87,16648,6,0,L|368:204,1,90,12|2,0:0|0:0,0:0:0:0:
146,16,16951,2,0,L|163:133,1,90,8|2,0:0|0:0,0:0:0:0:
197,329,17254,2,0,P|231:347|309:341,1,90,8|2,0:0|0:0,0:0:0:0:
437,114,17557,5,12,0:0:0:0:
454,362,17709,1,2,0:0:0:0:
318,83,17860,5,12,0:0:0:0:
282,350,18012,1,2,0:0:0:0:
439,47,18163,6,0,B|458:97|458:97|436:236,1,180,12|2,0:0|3:2,0:0:0:0:
438,222,18769,5,8,3:2:0:0:
271,307,18921,1,2,3:2:0:0:
497,306,19072,2,0,P|437:262|339:254,1,161.999995056153,8|2,3:2|3:2,0:0:0:0:
352,251,19678,5,8,3:2:0:0:
107,359,19830,1,2,3:2:0:0:
397,356,19981,5,8,3:2:0:0:
154,256,20133,1,2,3:2:0:0:
402,152,20284,6,0,P|450:142|491:144,1,72,6|0,3:2|0:0,0:0:0:0:
352,251,20588,2,0,P|315:249|280:240,1,72,2|2,0:0|0:3,0:0:0:0:
392,81,20891,2,0,P|402:129|400:170,1,72,2|0,0:0|0:0,0:0:0:0:
218,298,21194,6,0,P|193:232|227:171,1,144,2|2,3:2|0:0,0:0:0:0:
352,251,21648,1,2,0:3:0:0:
253,93,21800,2,0,P|207:91|178:104,1,72,2|2,0:0|0:3,0:0:0:0:
281,242,22103,6,0,L|363:252,1,72,2|2,3:2|0:3,0:0:0:0:
474,143,22406,2,0,L|392:153,1,72,2|2,0:0|0:3,0:0:0:0:
455,312,22709,2,0,P|467:266|463:229,1,72,2|2,0:0|0:3,0:0:0:0:
343,80,23012,6,0,P|321:115|320:173,1,72,2|2,3:2|0:3,0:0:0:0:
322,171,23239,1,2,0:3:0:0:
322,171,23315,1,2,0:0:0:0:
474,60,23466,2,0,P|486:86|489:115,1,36,2|2,0:3|0:3,0:0:0:0:
481,172,23618,1,2,0:0:0:0:
310,8,23769,1,2,0:3:0:0:
310,8,23845,1,2,0:3:0:0:
310,8,23921,6,0,P|259:-5|222:0,1,72,2|2,3:2|0:3,0:0:0:0:
322,171,24224,2,0,P|357:173|393:168,1,72,2|2,0:0|0:3,0:0:0:0:
257,73,24527,2,0,L|240:153,1,72,2|2,0:0|0:3,0:0:0:0:
305,306,24830,6,0,B|334:259|334:259|322:172,1,144,2|2,3:2|0:0,0:0:0:0:
300,12,25284,1,2,0:3:0:0:
226,188,25436,2,0,P|192:202|139:201,1,72,2|2,0:0|0:3,0:0:0:0:
85,164,25663,1,2,0:3:0:0:
85,164,25739,6,0,B|71:201|71:201|78:244,1,72,2|0,3:2|0:0,0:0:0:0:
309,81,26042,2,0,B|314:48|314:48|300:11,1,72,2|2,0:0|0:3,0:0:0:0:
149,94,26345,2,0,L|231:108,1,72,2|2,0:0|0:3,0:0:0:0:
385,141,26648,5,2,3:2:0:0:
306,306,26800,1,8,3:2:0:0:
306,306,26875,1,8,3:2:0:0:
306,306,26951,1,2,3:2:0:0:
220,106,27103,1,8,3:2:0:0:
489,184,27254,5,2,3:2:0:0:
214,280,27406,1,8,3:2:0:0:
473,312,27557,5,6,0:0:0:0:
291,157,27709,1,8,0:0:0:0:
291,157,27784,1,8,0:0:0:0:
291,157,27860,1,0,3:0:0:0:
236,358,28012,1,2,3:2:0:0:
400,172,28163,1,0,3:0:0:0:
416,367,28315,1,0,3:0:0:0:
218,203,28466,6,0,P|203:158|213:120,1,72,6|8,0:0|0:0,0:0:0:0:
219,106,28694,1,8,0:0:0:0:
219,106,28769,1,2,3:2:0:0:
362,232,28921,1,2,3:2:0:0:
273,17,29072,1,0,3:0:0:0:
232,239,29224,1,0,3:0:0:0:
377,91,29375,5,6,0:0:0:0:
175,27,29527,1,8,0:0:0:0:
175,27,29603,1,8,0:0:0:0:
175,27,29678,1,0,3:0:0:0:
298,198,29830,1,2,3:2:0:0:
383,9,29981,1,2,3:2:0:0:
226,111,30133,1,0,3:0:0:0:
399,212,30284,6,0,P|416:259|417:307,1,72,6|8,0:0|0:0,0:0:0:0:
413,313,30512,1,8,0:0:0:0:
413,313,30588,1,0,3:0:0:0:
298,198,30739,1,0,3:0:0:0:
287,366,30891,1,2,3:2:0:0:
399,212,31042,1,2,3:2:0:0:
179,313,31194,6,0,P|130:300|90:312,1,72,6|0,0:0|0:0,0:0:0:0:
72,320,31421,1,8,0:0:0:0:
72,320,31497,2,0,P|62:262|71:232,1,72,2|2,3:2|3:2,0:0:0:0:
91,156,31800,1,0,3:0:0:0:
179,313,31951,1,0,3:0:0:0:
228,119,32103,6,0,P|191:151|178:189,1,72,6|8,0:0|0:0,0:0:0:0:
181,208,32330,1,8,0:0:0:0:
181,208,32406,1,2,3:2:0:0:
144,34,32557,1,2,3:2:0:0:
316,152,32709,1,0,3:0:0:0:
91,156,32860,1,0,3:0:0:0:
233,21,33012,5,6,0:0:0:0:
273,228,33163,1,8,0:0:0:0:
273,228,33239,1,8,0:0:0:0:
273,228,33315,1,0,3:0:0:0:
91,156,33466,1,2,3:2:0:0:
221,323,33618,1,0,3:0:0:0:
316,152,33769,1,2,3:2:0:0:
120,264,33921,5,2,3:2:0:0:
176,139,34072,1,0,3:0:0:0:
319,265,34224,5,2,3:2:0:0:
190,219,34375,1,0,3:0:0:0:
275,190,34527,5,0,3:0:0:0:
236,294,34678,1,0,3:0:0:0:
121,153,34830,6,0,P|120:106|135:53,1,72,6|2,0:0|0:0,0:0:0:0:
322,3,35133,2,0,P|327:38|325:74,1,72,8|2,0:0|0:0,0:0:0:0:
319,98,35360,1,8,0:0:0:0:
319,98,35436,2,0,L|234:88,1,72,2|2,0:0|0:3,0:0:0:0:
402,194,35739,2,0,L|487:184,1,72,8|0,0:0|0:0,0:0:0:0:
315,288,36042,6,0,B|276:302|244:288|244:280|210:266|168:280,1,144,2|8,0:0|0:0,0:0:0:0:
262,384,36496,1,2,0:0:0:0:
287,198,36648,2,0,L|296:107,1,72,2|2,0:0|0:3,0:0:0:0:
139,13,36951,2,0,L|146:84,1,72,8|0,0:0|0:0,0:0:0:0:
347,40,37254,6,0,P|304:27|270:27,1,72,2|2,0:0|0:0,0:0:0:0:
88,182,37557,2,0,P|131:195|165:195,1,72,8|2,0:0|0:0,0:0:0:0:
181,187,37784,1,8,0:0:0:0:
181,187,37860,2,0,L|186:269,1,72,2|2,0:0|0:3,0:0:0:0:
362,146,38163,2,0,L|357:228,1,72,8|2,0:0|0:3,0:0:0:0:
194,73,38466,5,2,0:0:0:0:
305,47,38617,1,2,0:0:0:0:
181,187,38769,2,0,P|140:174|96:174,1,72,8|2,0:0|0:3,0:0:0:0:
86,175,38996,1,2,0:3:0:0:
86,175,39072,1,2,0:0:0:0:
228,273,39223,1,2,0:0:0:0:
50,355,39375,2,0,P|91:342|135:342,1,72,12|2,0:0|0:3,0:0:0:0:
298,369,39678,5,6,0:0:0:0:
228,273,39830,1,2,0:0:0:0:
387,194,39981,2,0,P|401:235|404:284,1,72,8|2,0:0|0:0,0:0:0:0:
396,287,40208,1,8,0:0:0:0:
396,287,40284,2,0,L|318:279,1,72,2|2,0:0|0:3,0:0:0:0:
163,164,40587,2,0,L|241:156,1,72,8|0,0:0|0:0,0:0:0:0:
432,86,40890,6,0,P|376:47|286:44,1,144,2|8,0:0|0:0,0:0:0:0:
127,80,41345,1,2,0:0:0:0:
230,227,41496,2,0,P|236:178|226:127,1,72,2|2,0:0|0:3,0:0:0:0:
52,234,41799,2,0,P|91:263|140:280,1,72,8|0,0:0|0:0,0:0:0:0:
302,234,42102,6,0,L|217:226,1,72,2|2,0:0|0:0,0:0:0:0:
87,378,42405,2,0,L|172:370,1,72,8|2,0:0|0:0,0:0:0:0:
359,347,42708,1,2,0:0:0:0:
256,311,42860,1,2,0:3:0:0:
412,133,43011,2,0,P|413:177|396:253,1,108,12|0,0:0|0:0,0:0:0:0:
388,261,43314,5,2,3:2:0:0:
258,71,43466,1,8,3:2:0:0:
512,213,43617,1,8,3:2:0:0:
231,183,43769,1,8,3:2:0:0:
419,41,43920,2,0,P|361:17|289:17,1,108,2|0,3:2|0:0,0:0:0:0:
258,71,44223,2,0,P|297:53|344:47,1,72,0|2,3:0|0:3,0:0:0:0:
305,260,44526,6,0,P|256:234|221:191,1,80.9999975280763,6|2,0:0|0:0,0:0:0:0:
430,130,44830,2,0,P|431:185|412:237,1,80.9999975280763,8|2,0:0|0:0,0:0:0:0:
412,235,45057,1,8,0:0:0:0:
412,235,45133,2,0,L|497:248,1,80.9999975280763,2|2,0:0|0:3,0:0:0:0:
406,35,45436,2,0,L|321:48,1,80.9999975280763,8|0,0:0|0:0,0:0:0:0:
137,171,45739,6,0,P|201:171|271:209,1,121.499996292114,2|0,0:0|0:0,0:0:0:0:
296,268,46042,2,0,P|248:227|194:212,1,80.9999975280763,8|2,0:0|0:0,0:0:0:0:
194,249,46269,1,8,0:0:0:0:
194,249,46345,2,0,L|184:344,1,80.9999975280763,2|2,0:0|0:3,0:0:0:0:
397,193,46648,2,0,L|407:288,1,80.9999975280763,8|0,0:0|0:0,0:0:0:0:
268,106,46951,6,0,P|217:93|132:92,1,121.499996292114,2|0,0:0|0:0,0:0:0:0:
92,145,47254,2,0,P|98:86|96:40,1,80.9999975280763,8|2,0:0|0:0,0:0:0:0:
7,240,47557,2,0,P|7:280|12:320,1,80.9999975280763,2|2,0:0|0:3,0:0:0:0:
205,238,47860,1,8,0:0:0:0:
138,339,48011,1,2,0:3:0:0:
286,246,48163,6,0,L|201:237,1,80.9999975280763,2|2,0:0|0:0,0:0:0:0:
343,360,48466,2,0,L|423:351,1,80.9999975280763,8|2,0:0|0:3,0:0:0:0:
450,343,48693,1,2,0:3:0:0:
450,343,48769,2,0,P|463:300|460:245,1,80.9999975280763,2|2,0:0|0:0,0:0:0:0:
334,87,49072,1,12,0:0:0:0:
348,206,49223,1,2,0:3:0:0:
483,25,49375,5,6,0:0:0:0:
463,146,49526,1,2,0:0:0:0:
267,25,49678,2,0,P|316:3|374:1,1,80.9999975280763,8|2,0:0|0:0,0:0:0:0:
369,7,49905,1,8,0:0:0:0:
369,7,49981,2,0,L|374:100,1,80.9999975280763,2|2,0:0|0:3,0:0:0:0:
191,193,50284,2,0,L|195:112,1,80.9999975280763,8|0,0:0|0:0,0:0:0:0:
352,243,50587,6,0,P|308:265|247:273,1,80.9999975280763,2|2,0:0|0:0,0:0:0:0:
120,141,50890,2,0,P|164:119|225:111,1,80.9999975280763,8|2,0:0|0:0,0:0:0:0:
390,131,51193,1,2,0:0:0:0:
303,63,51345,1,2,0:3:0:0:
352,243,51496,2,0,P|281:249|228:289,1,121.499996292114,12|0,0:0|0:0,0:0:0:0:
202,347,51799,6,0,P|243:310|286:292,1,80.9999975280763,2|2,0:0|0:0,0:0:0:0:
467,262,52102,2,0,L|456:357,1,80.9999975280763,8|2,0:0|0:0,0:0:0:0:
390,131,52405,1,2,0:0:0:0:
352,243,52557,1,2,0:3:0:0:
279,64,52708,2,0,P|211:51|142:51,1,121.499996292114,12|0,0:0|0:0,0:0:0:0:
77,82,53011,5,2,3:2:0:0:
119,356,53163,1,8,3:2:0:0:
279,64,53314,5,8,3:2:0:0:
238,354,53466,1,8,3:2:0:0:
92,114,53617,6,0,L|80:213,1,80.9999975280763,8|2,3:2|3:2,0:0:0:0:
269,341,53920,2,0,L|254:200,1,121.499996292114,0|0,3:0|0:0,0:0:0:0:
243,130,54223,5,12,0:0:0:0:
176,296,54374,1,0,0:0:0:0:
92,114,54526,1,8,0:0:0:0:
256,220,54677,1,2,0:0:0:0:
261,47,54829,2,0,P|206:57|174:88,1,90,8|2,0:0|0:0,0:0:0:0:
304,286,55132,6,0,B|355:310|403:296|381:277|444:262|486:289,1,180,12|8,0:0|0:0,0:0:0:0:
441,379,55586,1,2,0:0:0:0:
347,217,55738,2,0,P|345:161|350:121,1,90,8|2,0:0|0:0,0:0:0:0:
436,16,56041,5,12,0:0:0:0:
461,238,56192,1,0,0:0:0:0:
273,57,56344,1,8,0:0:0:0:
463,130,56495,1,2,0:0:0:0:
260,240,56647,2,0,P|220:265|196:319,1,90,8|2,0:0|0:0,0:0:0:0:
211,377,56874,1,2,0:0:0:0:
211,377,56950,6,0,P|143:380|117:374,1,90,12|2,0:0|0:0,0:0:0:0:
160,159,57253,1,12,0:0:0:0:
282,334,57404,1,2,0:0:0:0:
282,334,57480,1,2,0:0:0:0:
282,334,57556,2,0,P|350:337|376:331,1,90,12|2,0:0|0:0,0:0:0:0:
264,136,57859,6,0,L|242:236,1,90,12|2,0:0|0:0,0:0:0:0:
412,98,58162,2,0,L|431:185,1,90,8|2,0:0|0:0,0:0:0:0:
273,29,58465,1,8,0:0:0:0:
489,72,58616,1,2,0:0:0:0:
264,136,58768,2,0,B|215:157|165:142|177:126|129:108|77:132,1,180,12|8,0:0|0:0,0:0:0:0:
121,213,59223,1,2,0:0:0:0:
213,59,59374,1,8,0:0:0:0:
252,245,59526,1,2,0:0:0:0:
90,127,59677,6,0,P|43:162|29:211,1,90,12|2,0:0|0:0,0:0:0:0:
144,300,59980,2,0,L|116:192,1,90,8|2,0:0|0:0,0:0:0:0:
196,125,60283,1,8,0:0:0:0:
267,329,60435,1,2,0:0:0:0:
381,186,60586,6,0,P|316:176|279:184,1,90,12|2,0:0|0:0,0:0:0:0:
262,201,60813,1,2,0:0:0:0:
262,201,60889,1,12,0:0:0:0:
408,277,61041,1,12,0:0:0:0:
311,90,61192,1,12,0:0:0:0:
267,329,61344,1,2,0:0:0:0:
267,329,61419,1,2,0:0:0:0:
267,329,61495,5,12,0:0:0:0:
196,128,61647,1,2,0:0:0:0:
408,277,61798,2,0,P|421:223|419:173,1,90,8|2,0:0|0:0,0:0:0:0:
378,42,62101,1,8,0:0:0:0:
276,229,62253,1,2,0:0:0:0:
181,40,62404,6,0,P|130:40|83:49,1,90,12|2,0:0|0:0,0:0:0:0:
186,223,62707,2,0,P|230:229|275:229,1,90,8|2,0:0|0:0,0:0:0:0:
377,114,63010,1,8,0:0:0:0:
454,291,63162,1,2,0:0:0:0:
454,291,63238,1,2,0:0:0:0:
454,291,63313,6,0,P|389:282|346:288,1,90,12|2,0:0|0:0,0:0:0:0:
276,358,63616,1,8,0:0:0:0:
295,148,63768,1,2,0:0:0:0:
365,284,63919,1,8,0:0:0:0:
189,184,64071,1,2,0:0:0:0:
189,184,64147,1,2,0:0:0:0:
189,184,64223,5,12,0:0:0:0:
200,380,64374,1,2,0:0:0:0:
308,116,64526,1,12,0:0:0:0:
110,248,64677,1,2,0:0:0:0:
151,18,64829,2,0,P|184:65|195:113,1,90,12|2,0:0|0:0,0:0:0:0:
35,218,65132,5,12,0:0:0:0:
0,39,65283,1,2,0:0:0:0:
189,184,65435,2,0,P|234:196|283:195,1,90,8|2,0:0|0:0,0:0:0:0:
389,116,65738,1,8,0:0:0:0:
350,299,65889,1,2,0:0:0:0:
244,103,66041,5,12,0:0:0:0:
174,363,66192,2,0,L|163:315,1,45,8|8,0:0|0:0,0:0:0:0:
136,165,66344,1,10,0:0:0:0:
60,362,66495,1,8,0:0:0:0:
132,123,66647,1,10,0:0:0:0:
268,329,66798,1,8,0:0:0:0:
58,229,66950,5,10,0:0:0:0:
275,165,67101,1,8,0:0:0:0:
74,339,67253,1,10,0:0:0:0:
127,73,67404,1,8,0:0:0:0:
291,257,67556,2,0,P|219:269|181:266,1,90,6|0,0:0|0:0,0:0:0:0:
326,42,67859,6,0,P|338:114|335:152,1,90,12|0,0:0|0:0,0:0:0:0:
155,206,68162,2,0,P|156:161|166:117,1,90,2|0,0:0|0:0,0:0:0:0:
369,202,68465,2,0,P|382:261|288:243,1,180,2|2,0:0|3:2,0:0:0:0:
292,258,69071,5,2,3:2:0:0:
247,169,69223,1,0,0:0:0:0:
133,204,69374,2,0,L|45:195,1,80.9999975280763,2|0,3:2|3:0,0:0:0:0:
174,120,69677,5,2,3:2:0:0:
209,256,69829,1,2,0:3:0:0:
209,256,69904,1,2,0:3:0:0:
209,256,69980,1,2,3:2:0:0:
53,196,70132,1,8,3:2:0:0:
156,383,70283,1,8,3:2:0:0:
247,169,70435,1,8,3:2:0:0:
329,364,70586,6,0,P|364:372|410:371,1,72,6|0,0:0|0:0,0:0:0:0:
493,209,70889,2,0,P|457:209|422:217,1,72,2|0,0:0|0:0,0:0:0:0:
329,364,71192,2,0,P|340:317|339:274,1,72,2|2,0:0|0:3,0:0:0:0:
334,272,71419,1,2,0:3:0:0:
334,272,71495,6,0,B|293:255|261:270|262:277|231:299|176:283,1,144,2|2,0:0|0:0,0:0:0:0:
110,138,71950,1,2,0:3:0:0:
77,250,72101,1,2,0:0:0:0:
32,59,72253,1,2,0:3:0:0:
207,156,72404,6,0,P|204:111|182:64,1,72,2|2,0:0|0:3,0:0:0:0:
77,250,72707,2,0,P|66:284|65:320,1,72,2|2,0:0|0:3,0:0:0:0:
284,207,73010,2,0,P|259:180|229:161,1,72,2|2,0:0|0:3,0:0:0:0:
207,156,73238,1,2,0:3:0:0:
207,156,73313,6,0,B|194:198|194:198|212:284,1,108,2|2,0:0|0:3,0:0:0:0:
235,340,73616,2,0,L|289:329,2,48,2|0|0,0:0|0:0|0:0,0:0:0:0:
342,262,73919,2,0,L|465:279,1,108,2|2,0:0|0:3,0:0:0:0:
454,369,74223,6,0,L|367:357,1,72,2|2,0:0|0:3,0:0:0:0:
278,183,74526,2,0,L|365:171,1,72,2|2,0:0|0:3,0:0:0:0:
241,352,74829,2,0,P|219:317|212:275,1,72,2|2,0:0|0:3,0:0:0:0:
216,266,75056,1,2,0:3:0:0:
216,266,75132,6,0,L|234:108,1,144,2|2,0:0|0:0,0:0:0:0:
401,18,75586,1,2,0:3:0:0:
370,133,75738,2,0,L|379:204,1,72,2|2,0:0|0:3,0:0:0:0:
370,223,75965,1,2,0:3:0:0:
370,223,76041,6,0,P|408:227|455:256,1,72,2|0,0:0|0:0,0:0:0:0:
294,384,76344,2,0,P|278:349|280:293,1,72,2|2,0:0|0:3,0:0:0:0:
370,133,76647,2,0,P|423:135|476:157,1,108,6|0,0:0|0:0,0:0:0:0:
506,237,76950,5,2,0:0:0:0:
379,101,77101,1,8,0:0:0:0:
379,101,77177,1,8,0:0:0:0:
379,101,77253,1,2,0:0:0:0:
348,257,77404,1,0,3:0:0:0:
470,120,77556,1,2,3:2:0:0:
438,303,77707,1,2,3:2:0:0:
314,163,77859,6,0,L|221:150,1,72,6|8,0:0|0:0,0:0:0:0:
222,161,78086,1,8,0:0:0:0:
222,161,78162,1,0,3:0:0:0:
380,246,78313,1,2,3:2:0:0:
300,69,78465,1,0,3:0:0:0:
269,276,78616,1,2,3:2:0:0:
402,39,78768,6,0,P|416:85|417:137,1,72,6|2,0:0|0:0,0:0:0:0:
407,127,78995,1,2,0:0:0:0:
407,127,79071,2,0,P|393:173|392:225,1,72,2|2,3:2|3:2,0:0:0:0:
493,373,79374,1,0,3:0:0:0:
501,243,79526,1,0,3:0:0:0:
363,363,79677,5,6,0:0:0:0:
306,195,79829,1,2,0:0:0:0:
306,195,79904,1,2,0:0:0:0:
306,195,79980,1,0,3:0:0:0:
412,281,80132,1,2,3:2:0:0:
228,242,80283,1,0,3:0:0:0:
392,166,80435,1,2,3:2:0:0:
282,312,80586,5,6,0:0:0:0:
227,146,80738,1,8,0:0:0:0:
227,146,80813,1,8,0:0:0:0:
227,146,80889,1,0,3:0:0:0:
193,322,81041,1,2,3:2:0:0:
311,182,81192,1,0,3:0:0:0:
364,334,81344,1,2,3:2:0:0:
414,113,81495,6,0,P|423:151|419:211,1,72,6|0,0:0|0:0,0:0:0:0:
412,202,81723,1,8,0:0:0:0:
412,202,81798,2,0,P|403:240|407:300,1,72,0|2,3:0|3:2,0:0:0:0:
235,349,82101,1,0,3:0:0:0:
341,364,82253,1,2,3:2:0:0:
150,250,82404,5,6,0:0:0:0:
307,206,82556,1,8,0:0:0:0:
307,206,82632,1,8,0:0:0:0:
307,206,82707,1,0,3:0:0:0:
144,148,82859,1,2,3:2:0:0:
231,267,83010,1,0,3:0:0:0:
215,78,83162,1,2,3:2:0:0:
75,206,83313,5,6,0:0:0:0:
132,43,83465,1,8,0:0:0:0:
132,43,83541,1,8,0:0:0:0:
132,43,83616,1,8,0:0:0:0:
249,174,83768,1,8,0:0:0:0:
400,44,83919,2,0,P|341:6|292:4,1,108,0|0,3:0|0:0,0:0:0:0:
229,47,84223,6,0,P|278:33|325:39,1,72,12|2,0:0|0:3,0:0:0:0:
317,43,84450,1,2,0:3:0:0:
317,43,84526,1,2,0:0:0:0:
281,169,84677,1,2,0:3:0:0:
458,136,84829,2,0,P|454:200|454:266,1,108,6|0,0:0|0:0,0:0:0:0:
415,324,85132,5,6,0:0:0:0:
367,171,85283,1,2,0:0:0:0:
271,285,85435,2,0,P|223:269|173:267,1,90,8|2,0:0|0:0,0:0:0:0:
151,286,85662,1,8,0:0:0:0:
151,286,85738,2,0,L|141:180,1,90,2|2,0:0|0:3,0:0:0:0:
281,103,86041,2,0,L|272:192,1,90,8|0,0:0|0:0,0:0:0:0:
100,66,86344,6,0,P|149:31|193:122,1,180,2|8,0:0|0:0,0:0:0:0:
142,196,86798,1,2,0:0:0:0:
14,98,86950,2,0,P|2:149|0:197,1,90,2|2,0:0|0:3,0:0:0:0:
157,284,87253,2,0,P|153:239|142:195,1,90,8|0,0:0|0:0,0:0:0:0:
108,111,87556,5,2,0:0:0:0:
268,217,87707,1,2,0:0:0:0:
62,257,87859,1,8,0:0:0:0:
199,112,88010,1,2,0:0:0:0:
313,301,88162,2,0,P|382:317|428:311,1,90,2|2,0:0|0:3,0:0:0:0:
489,131,88465,2,0,P|444:132|401:146,1,90,8|2,0:0|0:3,0:0:0:0:
313,301,88768,5,2,0:0:0:0:
146,192,88919,2,0,P|190:193|233:207,1,90,2|8,0:0|0:0,0:0:0:0:
247,365,89222,1,2,0:3:0:0:
247,365,89298,1,2,0:3:0:0:
247,365,89374,1,2,0:0:0:0:
319,152,89525,1,2,0:0:0:0:
124,269,89677,2,0,P|79:267|36:254,1,90,12|2,0:0|0:3,0:0:0:0:
210,60,89980,5,6,0:0:0:0:
250,263,90132,1,2,0:0:0:0:
319,70,90283,1,8,0:0:0:0:
146,192,90435,1,2,0:0:0:0:
146,192,90510,1,0,0:0:0:0:
146,192,90586,1,2,0:0:0:0:
209,25,90738,1,2,0:3:0:0:
324,203,90889,2,0,P|336:246|342:290,1,90,8|0,0:0|0:0,0:0:0:0:
195,356,91192,6,0,B|142:376|94:355|109:346|59:326|3:352,1,180,2|8,0:0|0:0,0:0:0:0:
142,243,91647,2,0,P|150:271|152:299,1,45,2|8,0:0|0:0,0:0:0:0:
24,174,91798,2,0,P|6:227|4:276,1,90,2|2,0:0|0:3,0:0:0:0:
155,161,92101,2,0,P|149:116|134:74,1,90,12|0,0:0|0:0,0:0:0:0:
44,19,92404,5,2,0:0:0:0:
24,174,92556,1,2,0:0:0:0:
134,74,92707,1,8,0:0:0:0:
142,243,92859,1,2,0:0:0:0:
252,143,93010,2,0,B|306:124|354:142|328:159|390:177|440:147,1,180,2|8,0:0|0:0,0:0:0:0:
266,58,93465,1,8,0:0:0:0:
266,58,93541,1,8,0:0:0:0:
266,58,93616,5,2,3:2:0:0:
300,241,93768,1,8,3:2:0:0:
383,45,93919,1,8,3:2:0:0:
165,172,94071,1,8,3:2:0:0:
387,241,94222,2,0,P|400:293|397:335,1,90,8|2,3:2|3:2,0:0:0:0:
370,356,94450,1,0,0:0:0:0:
370,356,94525,2,0,B|332:367|291:354|306:346|270:330|227:351,1,135,0|0,3:0|0:0,0:0:0:0:
202,376,94828,5,6,0:0:0:0:
259,200,94980,1,2,0:0:0:0:
117,292,95132,1,8,0:0:0:0:
302,280,95283,1,2,0:0:0:0:
302,280,95359,1,8,0:0:0:0:
302,280,95435,1,2,0:0:0:0:
138,171,95586,1,2,0:3:0:0:
304,61,95738,2,0,P|317:116|315:160,1,80.9999975280763,8|0,0:0|0:0,0:0:0:0:
185,246,96041,5,2,0:0:0:0:
398,328,96192,1,2,0:0:0:0:
233,168,96344,1,8,0:0:0:0:
317,370,96495,1,2,0:0:0:0:
317,370,96571,1,8,0:0:0:0:
317,370,96647,1,2,0:0:0:0:
387,175,96798,1,2,0:3:0:0:
227,314,96950,2,0,P|180:325|132:311,1,80.9999975280763,8|0,0:0|0:0,0:0:0:0:
65,218,97253,5,2,0:0:0:0:
97,384,97404,1,2,0:0:0:0:
185,246,97556,1,8,0:0:0:0:
0,342,97707,1,2,0:0:0:0:
49,140,97859,2,0,P|64:182|63:234,1,80.9999975280763,2|2,0:0|0:3,0:0:0:0:
170,324,98162,2,0,P|172:283|186:245,1,80.9999975280763,8|2,0:0|0:3,0:0:0:0:
273,171,98465,5,2,0:0:0:0:
247,357,98616,1,2,0:0:0:0:
165,111,98768,1,8,0:0:0:0:
357,196,98919,1,2,0:3:0:0:
357,196,98995,1,2,0:3:0:0:
357,196,99071,2,0,P|349:136|324:94,1,80.9999975280763,2|2,0:0|0:0,0:0:0:0:
182,33,99374,2,0,P|167:70|165:111,1,80.9999975280763,12|2,0:0|0:3,0:0:0:0:
311,84,99677,5,6,0:0:0:0:
265,258,99828,1,2,0:0:0:0:
165,111,99980,1,8,0:0:0:0:
387,224,100132,1,2,0:0:0:0:
387,224,100207,1,8,0:0:0:0:
387,224,100283,2,0,P|401:274|397:310,1,80.9999975280763,2|2,0:0|0:3,0:0:0:0:
183,293,100586,2,0,P|181:252|194:214,1,80.9999975280763,8|0,0:0|0:0,0:0:0:0:
303,141,100889,5,2,0:0:0:0:
252,348,101041,1,2,0:0:0:0:
210,135,101192,1,8,0:0:0:0:
405,269,101344,1,2,0:0:0:0:
405,269,101419,1,8,0:0:0:0:
405,269,101495,2,0,P|361:279|321:277,1,80.9999975280763,2|2,0:0|0:3,0:0:0:0:
397,124,101798,2,0,P|428:157|446:192,1,80.9999975280763,12|0,0:0|0:0,0:0:0:0:
288,278,102101,5,2,0:0:0:0:
241,58,102253,1,2,0:0:0:0:
168,250,102404,1,8,0:0:0:0:
108,48,102556,1,2,0:0:0:0:
313,180,102707,2,0,P|264:169|225:170,1,80.9999975280763,2|2,0:0|0:3,0:0:0:0:
88,240,103010,2,0,P|127:249|167:250,1,80.9999975280763,12|0,0:0|0:0,0:0:0:0:
370,121,103313,5,8,0:0:0:0:
391,155,103388,1,0,3:0:0:0:
392,195,103464,1,2,0:0:0:0:
375,232,103540,1,2,0:0:0:0:
343,256,103616,2,0,L|295:270,1,40.4999987640381,8|0,0:0|3:0,0:0:0:0:
234,118,103768,2,0,L|282:131,1,40.4999987640381,2|2,0:0|0:0,0:0:0:0:
492,188,103919,6,0,B|478:308|478:308|425:269,1,161.999995056153,12|2,0:0|0:3,0:0:0:0:
492,188,104525,5,12,0:0:0:0:
268,286,104676,1,0,0:0:0:0:
404,105,104828,1,8,0:0:0:0:
366,350,104979,1,2,0:0:0:0:
308,155,105131,2,0,P|304:99|317:42,1,90,8|2,0:0|0:0,0:0:0:0:
512,285,105434,6,0,B|474:298|418:284|440:258|375:244|336:262,1,180,8|8,0:0|0:0,0:0:0:0:
175,311,105888,1,2,0:0:0:0:
308,155,106040,1,8,0:0:0:0:
141,127,106191,1,2,0:0:0:0:
141,127,106267,1,2,0:0:0:0:
141,127,106343,6,0,L|152:234,1,90,12|2,0:0|0:0,0:0:0:0:
330,350,106646,2,0,L|339:260,1,90,8|2,0:0|0:0,0:0:0:0:
205,54,106949,2,0,P|153:30|99:37,1,90,8|2,0:0|0:0,0:0:0:0:
46,262,107252,5,12,0:0:0:0:
239,168,107403,1,2,0:0:0:0:
20,116,107555,1,12,0:0:0:0:
159,306,107706,1,2,0:0:0:0:
159,306,107782,1,2,0:0:0:0:
159,306,107858,2,0,L|148:202,1,90,12|2,0:0|0:0,0:0:0:0:
361,129,108161,6,0,L|351:218,1,90,12|2,0:0|0:0,0:0:0:0:
158,30,108464,2,0,L|167:119,1,90,8|2,0:0|0:0,0:0:0:0:
357,41,108767,1,8,0:0:0:0:
252,246,108918,1,2,0:0:0:0:
252,246,108994,1,2,0:0:0:0:
252,246,109070,6,0,P|336:231|407:318,1,180,12|8,0:0|0:0,0:0:0:0:
210,347,109525,1,2,0:0:0:0:
303,133,109676,1,8,0:0:0:0:
129,216,109828,1,2,0:0:0:0:
129,216,109903,1,2,0:0:0:0:
129,216,109979,6,0,P|118:262|122:309,1,90,12|2,0:0|0:0,0:0:0:0:
270,121,110282,2,0,P|272:76|261:32,1,90,8|2,0:0|0:0,0:0:0:0:
40,86,110585,2,0,L|142:97,1,90,8|2,0:0|0:0,0:0:0:0:
272,235,110888,6,0,B|206:247|206:247|181:291|181:291|95:309,1,180,12|12,0:0|0:0,0:0:0:0:
325,329,111343,1,2,0:0:0:0:
270,121,111494,1,12,0:0:0:0:
237,371,111646,1,2,0:0:0:0:
237,371,111721,1,2,0:0:0:0:
237,371,111797,5,12,0:0:0:0:
369,169,111949,1,2,0:0:0:0:
432,373,112100,1,8,0:0:0:0:
234,224,112252,1,2,0:0:0:0:
458,153,112403,1,8,0:0:0:0:
325,329,112555,1,2,0:0:0:0:
325,329,112631,1,2,0:0:0:0:
325,329,112706,6,0,L|229:340,1,90,12|2,0:0|0:0,0:0:0:0:
131,128,113009,2,0,L|227:139,1,90,8|2,0:0|0:0,0:0:0:0:
124,384,113312,2,0,P|107:335|118:272,1,90,8|2,0:0|0:0,0:0:0:0:
117,261,113540,1,2,0:0:0:0:
117,261,113615,6,0,P|66:276|4:258,1,90,12|2,0:0|0:0,0:0:0:0:
97,38,113918,2,0,P|141:33|183:47,1,90,8|2,0:0|0:0,0:0:0:0:
309,248,114221,1,8,0:0:0:0:
315,5,114373,2,0,L|298:74,1,45,2|2,0:0|0:0,0:0:0:0:
369,166,114525,5,8,0:0:0:0:
337,151,114600,1,0,3:0:0:0:
301,148,114676,1,2,0:0:0:0:
266,156,114752,1,2,0:0:0:0:
233,171,114828,1,8,0:0:0:0:
200,185,114903,1,0,3:0:0:0:
165,191,114979,1,2,0:0:0:0:
129,184,115055,1,2,0:0:0:0:
101,160,115131,2,0,P|100:93|95:24,1,135,12|0,0:0|0:0,0:0:0:0:
57,90,115434,6,0,P|57:133|54:192,1,90,12|2,0:0|0:0,0:0:0:0:
204,329,115737,2,0,P|201:284|201:239,1,90,8|2,0:0|0:0,0:0:0:0:
356,67,116040,1,8,0:0:0:0:
334,220,116191,1,2,0:0:0:0:
185,72,116343,6,0,B|254:59|254:59|287:81|287:81|386:61,1,180,12|8,0:0|0:0,0:0:0:0:
456,266,116797,1,2,0:0:0:0:
465,118,116949,1,8,0:0:0:0:
346,312,117100,1,2,0:0:0:0:
355,67,117252,6,0,L|369:182,1,90,12|0,0:0|0:0,0:0:0:0:
162,275,117555,1,8,0:0:0:0:
233,62,117706,1,8,0:0:0:0:
233,62,117782,1,8,0:0:0:0:
233,62,117858,1,2,0:0:0:0:
282,231,118009,1,0,3:0:0:0:
282,231,118085,1,0,3:0:0:0:
282,231,118161,5,2,0:0:0:0:
129,151,118312,1,0,3:0:0:0:
236,321,118464,1,2,3:2:0:0:
111,253,118615,1,0,3:0:0:0:
186,384,118767,1,2,3:2:0:0:
108,350,118918,1,0,3:0:0:0:
208,186,119070,6,0,P|264:149|346:194,2,144,6|8|8,0:0|3:2|3:2,0:0:0:0:
208,186,119979,6,0,B|183:233|183:233|202:336,1,144,2|8,0:0|3:2,0:0:0:0:
274,239,120434,1,2,0:3:0:0:
326,366,120585,1,8,3:2:0:0:
326,366,120888,6,0,P|362:340|401:334,1,72,2|0,0:0|0:0,0:0:0:0:
462,194,121191,2,0,P|434:216|399:225,1,72,8|2,3:2|0:3,0:0:0:0:
291,127,121494,1,8,3:2:0:0:
291,127,121797,6,0,P|241:113|217:116,1,72,2|8,0:0|0:0,0:0:0:0:
122,170,122100,1,2,0:3:0:0:
225,27,122252,1,0,3:0:0:0:
241,213,122403,1,8,3:2:0:0:
241,213,122706,6,0,B|259:365,1,144,2|8,0:0|3:2,0:0:0:0:
122,170,123161,1,2,0:3:0:0:
81,358,123312,1,8,3:2:0:0:
81,358,123615,5,2,0:0:0:0:
81,358,123918,2,0,P|116:304|120:274,1,72,8|0,3:2|0:0,0:0:0:0:
46,148,124221,2,0,P|11:202|7:232,1,72,8|0,3:2|0:0,0:0:0:0:
226,281,124525,5,2,0:0:0:0:
226,281,124828,2,0,P|235:224|225:185,1,72,8|2,3:2|0:3,0:0:0:0:
134,91,125131,2,0,P|125:148|135:187,1,72,8|0,3:2|0:0,0:0:0:0:
226,281,125434,1,2,0:0:0:0:
243,120,125585,5,0,3:0:0:0:
263,113,125660,1,0,3:0:0:0:
284,111,125736,1,2,3:2:0:0:
306,111,125812,1,0,3:0:0:0:
327,115,125888,1,0,3:0:0:0:
346,124,125963,1,0,3:0:0:0:
366,133,126039,1,2,3:2:0:0:
386,139,126115,1,0,3:0:0:0:
408,139,126191,1,0,3:0:0:0:
429,133,126267,1,0,3:0:0:0:
449,125,126342,5,6,0:0:0:0:
449,125,126646,2,0,P|458:172|455:216,1,72,8|0,3:2|0:0,0:0:0:0:
355,264,126949,2,0,P|346:311|349:355,1,72,8|0,3:2|0:0,0:0:0:0:
501,325,127252,5,2,0:0:0:0:
501,325,127555,2,0,P|462:311|427:312,1,72,8|2,3:2|0:3,0:0:0:0:
269,363,127858,2,0,P|233:362|199:349,1,72,8|0,3:2|0:0,0:0:0:0:
116,233,128161,6,0,L|128:155,1,72,2|2,0:0|0:3,0:0:0:0:
145,77,128464,1,2,0:3:0:0:
214,202,128615,1,0,3:0:0:0:
278,70,128767,2,0,L|290:148,1,72,8|2,0:0|0:0,0:0:0:0:
311,248,129070,5,0,3:0:0:0:
211,123,129221,1,0,0:0:0:0:
243,288,129373,1,2,0:3:0:0:
288,141,129525,1,2,3:2:0:0:
378,274,129676,1,0,3:0:0:0:
214,202,129828,1,0,3:0:0:0:
200,361,129979,5,6,0:0:0:0:
200,361,130282,1,10,0:0:0:0:
243,288,130434,1,8,0:0:0:0:
294,368,130585,1,10,0:0:0:0:
160,283,130737,1,8,0:0:0:0:
312,205,130888,5,10,0:0:0:0:
200,361,131040,1,8,0:0:0:0:
351,287,131191,1,10,0:0:0:0:
198,202,131343,1,8,0:0:0:0:
359,137,131494,1,10,0:0:0:0:
223,330,131646,1,8,0:0:0:0:
257,106,131797,5,10,0:0:0:0:
429,261,131949,1,8,0:0:0:0:
409,42,132100,1,10,0:0:0:0:
274,243,132252,1,8,0:0:0:0:
243,22,132403,1,10,0:0:0:0:
143,236,132555,1,8,0:0:0:0:
384,146,132706,5,10,0:0:0:0:
384,146,133615,5,12,0:0:0:0:
205,348,133767,1,0,0:0:0:0:
286,82,133918,5,8,0:0:0:0:
359,352,134070,2,0,L|365:286,1,45,2|2,0:0|0:0,0:0:0:0:
196,135,134221,6,0,P|138:117|91:121,1,90,8|2,0:0|0:0,0:0:0:0:
19,326,134525,2,0,P|63:324|105:308,1,90,12|2,0:0|0:0,0:0:0:0:
234,109,134828,6,0,L|241:172,1,45,8|0,0:0|0:0,0:0:0:0:
260,367,134979,1,2,0:0:0:0:
79,208,135131,5,8,0:0:0:0:
361,144,135282,2,0,L|356:196,1,45,2|2,0:0|0:0,0:0:0:0:
128,355,135434,5,12,0:0:0:0:
125,89,135585,1,2,0:0:0:0:
286,256,135737,6,0,P|331:277|395:280,1,90,8|2,0:0|0:0,0:0:0:0:
413,51,136040,2,0,P|368:57|328:77,1,90,8|2,0:0|0:0,0:0:0:0:
179,299,136343,5,12,0:0:0:0:
396,177,136494,1,2,0:0:0:0:
139,166,136646,5,12,0:0:0:0:
370,282,136797,1,12,0:0:0:0:
113,359,136949,6,0,L|14:348,1,90,12|2,0:0|0:0,0:0:0:0:
152,122,137252,5,12,0:0:0:0:
240,342,137403,1,2,0:0:0:0:
257,57,137555,5,8,0:0:0:0:
87,251,137706,2,0,L|83:184,1,45,2|2,0:0|0:0,0:0:0:0:
329,155,137858,6,0,P|380:146|433:153,1,90,8|2,0:0|0:0,0:0:0:0:
329,348,138161,2,0,P|284:350|240:342,1,90,12|2,0:0|0:0,0:0:0:0:
48,256,138464,6,0,L|43:307,2,45,8|0|2,0:0|0:0|0:0,0:0:0:0:
244,135,138767,5,8,0:0:0:0:
244,380,138918,1,2,0:0:0:0:
82,140,139070,6,0,L|85:249,1,90,12|2,0:0|0:0,0:0:0:0:
333,146,139373,2,0,L|330:255,1,90,8|2,0:0|0:0,0:0:0:0:
48,107,139676,2,0,L|51:216,1,90,8|2,0:0|0:0,0:0:0:0:
255,52,139979,5,8,0:0:0:0:
289,41,140055,1,0,3:0:0:0:
325,38,140131,1,2,0:0:0:0:
360,39,140206,1,2,0:0:0:0:
394,48,140282,2,0,L|401:104,3,45,8|0|2|2,0:0|3:0|0:0|0:0,0:0:0:0:
279,183,140585,2,0,L|286:127,3,45,12|0|2|0,0:0|0:0|0:0|0:0,0:0:0:0:
233,34,140888,5,12,0:0:0:0:
414,173,141040,1,2,0:0:0:0:
179,230,141191,5,8,0:0:0:0:
334,73,141343,1,2,0:0:0:0:
296,323,141494,5,8,0:0:0:0:
204,133,141646,1,2,0:0:0:0:
96,355,141797,6,0,P|146:341|212:343,1,90,12|2,0:0|0:0,0:0:0:0:
368,227,142100,2,0,P|323:224|280:211,1,90,8|2,0:0|0:0,0:0:0:0:
92,58,142403,6,0,L|96:111,3,45,8|0|2|2,0:0|0:0|0:0|0:0,0:0:0:0:
174,12,142706,5,12,0:0:0:0:
158,275,142858,1,2,0:0:0:0:
288,94,143009,5,8,0:0:0:0:
297,334,143161,1,2,0:0:0:0:
91,203,143312,5,8,0:0:0:0:
365,179,143464,1,2,0:0:0:0:
181,381,143615,5,0,3:0:0:0:
169,347,143691,1,2,0:0:0:0:
165,311,143767,1,2,0:0:0:0:
167,274,143843,1,2,0:0:0:0:
181,241,143918,2,0,P|196:267|199:308,3,45,8|0|2|2,0:0|3:0|0:0|0:0,0:0:0:0:
237,168,144221,6,0,P|247:120|241:50,1,90,12|2,0:0|0:0,0:0:0:0:
332,278,144525,5,12,0:0:0:0:
143,111,144676,1,2,0:0:0:0:
134,347,144828,5,8,0:0:0:0:
326,151,144979,1,2,0:0:0:0:
93,244,145131,6,0,P|47:237|-12:210,1,90,8|2,0:0|0:0,0:0:0:0:
171,36,145434,6,0,L|185:149,1,90,12|2,0:0|0:0,0:0:0:0:
228,370,145737,6,0,L|237:314,1,45,8|0,0:0|0:0,0:0:0:0:
302,129,145888,1,2,0:0:0:0:
393,361,146040,5,8,0:0:0:0:
185,235,146191,1,2,0:0:0:0:
455,115,146343,6,0,L|450:226,1,90,12|0,0:0|0:0,0:0:0:0:
286,176,146646,1,10,0:0:0:0:
384,50,146797,1,8,0:0:0:0:
353,252,146949,1,10,0:0:0:0:
248,53,147100,1,8,0:0:0:0:
195,296,147252,5,10,0:0:0:0:
398,146,147403,1,8,0:0:0:0:
134,151,147555,1,10,0:0:0:0:
371,330,147706,1,8,0:0:0:0:
315,36,147858,1,10,0:0:0:0:
188,330,148009,1,8,0:0:0:0:
202,19,148161,5,6,0:0:0:0:
310,265,155434,6,0,L|381:257,1,62.9999980773926,10|2,3:2|0:0,0:0:0:0:
435,154,155737,2,0,L|364:146,1,62.9999980773926,2|0,0:0|0:0,0:0:0:0:
226,129,156040,2,0,P|220:171|222:219,1,62.9999980773926,10|0,3:2|0:0,0:0:0:0:
107,315,156343,6,0,P|114:251|109:180,1,125.999996154785,2|2,3:2|0:0,0:0:0:0:
111,190,156949,2,0,L|36:182,1,62.9999980773926,2|0,0:0|0:0,0:0:0:0:
157,58,157252,6,0,P|174:88|180:121,1,62.9999980773926,10|0,3:2|0:0,0:0:0:0:
9,87,157555,2,0,P|26:57|52:35,1,62.9999980773926,2|0,0:0|0:0,0:0:0:0:
111,190,157858,2,0,L|104:261,1,62.9999980773926,10|0,3:2|0:0,0:0:0:0:
4,358,158161,6,0,P|73:352|127:381,1,125.999996154785,2|2,3:2|0:0,0:0:0:0:
208,333,158615,1,0,0:0:0:0:
329,381,158767,2,0,P|326:346|314:306,1,62.9999980773926,2|0,0:0|0:0,0:0:0:0:
189,209,159070,6,0,P|230:223|308:202,1,125.999996154785,10|0,3:2|0:0,0:0:0:0:
308,202,159676,2,0,L|315:128,1,62.9999980773926,10|0,3:2|0:0,0:0:0:0:
425,56,159979,6,0,B|441:93|441:93|431:205,1,125.999996154785,2|0,3:2|0:0,0:0:0:0:
433,178,160585,2,0,L|437:247,1,62.9999980773926,2|0,0:0|0:0,0:0:0:0:
289,263,160888,6,0,P|315:232|352:217,1,62.9999980773926,10|0,3:2|0:0,0:0:0:0:
363,382,161191,2,0,P|323:374|291:350,1,62.9999980773926,10|0,3:2|0:0,0:0:0:0:
211,224,161494,2,0,L|221:154,1,62.9999980773926,10|0,3:2|0:0,0:0:0:0:
55,44,161797,5,10,3:2:0:0:
60,68,161873,1,0,3:0:0:0:
64,92,161949,1,0,3:0:0:0:
64,117,162025,1,0,3:0:0:0:
61,141,162100,2,0,L|57:193,3,31.4999990386963,8|0|0|0,3:2|3:0|3:0|3:0,0:0:0:0:
137,267,162403,2,0,L|134:235,3,31.4999990386963,8|0|0|0,3:2|3:0|3:0|3:0,0:0:0:0:
220,161,162706,5,12,0:0:0:0:
266,351,162858,1,0,0:0:0:0:
386,196,163009,2,0,P|394:141|392:93,1,90,8|2,0:0|0:0,0:0:0:0:
341,54,163237,1,2,0:0:0:0:
341,54,163312,2,0,P|297:49|249:66,1,90,8|2,0:0|0:0,0:0:0:0:
334,258,163615,6,0,P|391:280|470:194,1,180,12|8,0:0|0:0,0:0:0:0:
288,175,164070,1,2,0:0:0:0:
288,175,164146,1,2,0:0:0:0:
288,175,164221,1,8,0:0:0:0:
365,363,164373,1,2,0:0:0:0:
193,271,164525,6,0,P|141:264|90:270,1,90,12|2,0:0|0:0,0:0:0:0:
288,175,164828,2,0,P|332:177|377:171,1,90,8|2,0:0|0:0,0:0:0:0:
201,95,165131,1,8,0:0:0:0:
257,343,165282,1,2,0:0:0:0:
257,343,165358,1,2,0:0:0:0:
257,343,165434,6,0,P|273:282|274:236,1,90,12|2,0:0|0:0,0:0:0:0:
280,80,165737,1,12,0:0:0:0:
449,226,165888,2,0,P|454:253|453:275,1,45,2|2,0:0|0:0,0:0:0:0:
370,371,166040,1,12,0:0:0:0:
212,166,166191,1,2,0:0:0:0:
212,166,166267,1,2,0:0:0:0:
212,166,166343,6,0,P|152:162|118:164,1,90,12|2,0:0|0:0,0:0:0:0:
251,260,166646,1,8,0:0:0:0:
204,39,166797,1,2,0:0:0:0:
93,163,166949,1,8,0:0:0:0:
306,119,167100,1,2,0:0:0:0:
306,119,167176,1,2,0:0:0:0:
306,119,167252,2,0,B|357:98|399:117|387:145|439:155|495:127,1,180,12|8,0:0|0:0,0:0:0:0:
294,32,167706,1,2,0:0:0:0:
359,232,167858,1,8,0:0:0:0:
447,31,168009,1,2,0:0:0:0:
248,198,168161,6,0,B|218:246|163:222|163:222|156:175|198:147,1,180,12|0,0:0|0:0,0:0:0:0:
294,32,168615,2,0,B|323:-16|378:7|378:7|385:54|343:82,1,180,12|2,0:0|0:0,0:0:0:0:
193,151,169070,2,0,B|154:174|99:157|116:145|66:128|13:157,1,180,12|8,0:0|0:0,0:0:0:0:
167,247,169525,1,2,0:0:0:0:
145,65,169676,1,8,0:0:0:0:
73,244,169828,1,2,0:0:0:0:
73,244,169903,1,2,0:0:0:0:
73,244,169979,6,0,P|60:298|60:350,1,90,12|2,0:0|0:0,0:0:0:0:
167,247,170282,1,8,0:0:0:0:
17,159,170434,1,2,0:0:0:0:
132,326,170585,2,0,P|184:330|226:306,1,90,8|2,0:0|0:0,0:0:0:0:
261,254,170812,1,2,0:0:0:0:
261,254,170888,6,0,P|313:250|355:274,1,90,12|2,0:0|0:0,0:0:0:0:
419,364,171191,2,0,P|424:301|455:242,1,90,8|2,0:0|0:0,0:0:0:0:
491,187,171494,1,8,0:0:0:0:
316,117,171646,1,2,0:0:0:0:
316,117,171721,1,2,0:0:0:0:
316,117,171797,6,0,L|248:105,3,45,8|8|2|2,0:0|0:0|0:0|0:0,0:0:0:0:
235,82,172100,1,0,3:0:0:0:
204,114,172175,1,0,3:0:0:0:
197,158,172251,1,2,0:0:0:0:
213,199,172327,1,2,0:0:0:0:
250,225,172403,2,0,L|202:237,3,45,0|0|2|2,3:0|3:0|0:0|0:0,0:0:0:0:
164,214,172706,5,8,0:0:0:0:
124,194,172781,1,0,3:0:0:0:
81,203,172857,1,2,0:0:0:0:
52,237,172933,1,2,0:0:0:0:
51,281,173009,1,8,0:0:0:0:
83,311,173084,1,0,3:0:0:0:
83,355,173160,1,2,0:0:0:0:
51,384,173236,1,2,0:0:0:0:
7,381,173312,2,0,B|49:349|87:368|76:377|115:389|152:374,1,135,12|0,0:0|0:0,0:0:0:0:
209,350,173615,6,0,P|238:295|234:244,1,90,12|0,0:0|0:0,0:0:0:0:
198,172,173918,5,10,0:0:0:0:
130,286,174070,1,8,0:0:0:0:
136,95,174221,5,10,0:0:0:0:
235,242,174373,1,8,0:0:0:0:
231,81,174525,5,10,0:0:0:0:
39,181,174676,1,8,0:0:0:0:
302,201,174828,5,10,0:0:0:0:
33,80,174979,1,8,0:0:0:0:
319,97,175131,5,10,0:0:0:0:
34,266,175282,1,8,0:0:0:0:
207,323,175434,5,2,0:0:0:0:
145,44,178161,5,12,0:0:0:0:
197,260,178312,1,0,0:0:0:0:
345,42,178464,2,0,L|327:153,1,90,8|2,0:0|0:0,0:0:0:0:
212,349,178767,2,0,L|197:260,1,90,8|2,0:0|0:0,0:0:0:0:
406,134,179070,6,0,L|377:327,1,180,12|8,0:0|0:0,0:0:0:0:
372,340,179449,1,0,0:0:0:0:
372,340,179525,1,2,0:0:0:0:
197,260,179676,2,0,P|139:244|93:245,1,90,8|2,0:0|0:0,0:0:0:0:
55,299,179903,1,2,0:0:0:0:
55,299,179979,6,0,P|32:239|42:208,1,90,12|2,0:0|0:0,0:0:0:0:
178,75,180282,2,0,P|201:135|191:166,1,90,8|2,0:0|0:0,0:0:0:0:
108,241,180585,1,8,0:0:0:0:
101,44,180737,1,2,0:0:0:0:
101,44,180812,1,2,0:0:0:0:
101,44,180888,5,12,0:0:0:0:
254,214,181040,1,2,0:0:0:0:
51,110,181191,1,12,0:0:0:0:
288,138,181343,1,2,0:0:0:0:
37,223,181494,1,12,0:0:0:0:
281,297,181646,1,2,0:0:0:0:
124,148,181797,5,12,0:0:0:0:
164,357,181949,1,2,0:0:0:0:
351,176,182100,2,0,P|367:118|366:62,1,90,8|2,0:0|0:0,0:0:0:0:
216,191,182403,2,0,P|200:249|201:305,1,90,8|2,0:0|0:0,0:0:0:0:
220,310,182631,1,2,0:0:0:0:
220,310,182706,6,0,B|267:330|319:314|300:296|363:280|400:306,1,180,12|8,0:0|0:0,0:0:0:0:
423,321,183085,1,0,0:0:0:0:
423,321,183161,1,2,0:0:0:0:
304,124,183312,2,0,P|282:182|285:232,1,90,8|2,0:0|0:0,0:0:0:0:
284,245,183540,1,2,0:0:0:0:
284,245,183615,6,0,P|334:220|387:223,1,90,12|2,0:0|0:0,0:0:0:0:
511,130,183918,2,0,P|466:123|424:108,1,90,8|2,0:0|0:0,0:0:0:0:
423,321,184221,2,0,P|432:257|457:219,1,90,8|2,0:0|0:0,0:0:0:0:
325,37,184525,6,0,P|332:81|331:96,3,45,8|0|2|2,0:0|3:0|0:0|0:0,0:0:0:0:
262,148,184828,2,0,P|255:192|256:207,3,45,8|0|2|2,0:0|3:0|0:0|0:0,0:0:0:0:
328,261,185131,2,0,B|354:315|322:362|322:362|305:337|266:320,1,135,12|0,0:0|0:0,0:0:0:0:
247,293,185434,5,2,0:0:0:0:
