osu file format v14

[General]
AudioFilename: audio.mp3
AudioLeadIn: 0
PreviewTime: 54072
Countdown: 0
SampleSet: Soft
StackLeniency: 0.3
Mode: 0
LetterboxInBreaks: 0
WidescreenStoryboard: 1

[Editor]
Bookmarks: 285,20284,34830,54223,70586,85132,104525,119070,133615,162706
DistanceSpacing: 1
BeatDivisor: 2
GridSize: 4
TimelineZoom: 1.8

[Metadata]
Title:Kimi ga Sora Koso Kanashikere
TitleUnicode:君ガ空コソカナシケレ
Artist:CHiCO with HoneyWorks
ArtistUnicode:CHiCO with HoneyWorks
Creator:Serizawa Haruki
Version:Crisruki's Easy
Source:
Tags:ハニーワークス ハニワ 世界はiに満ちている Sekai wa Ai ni Michiteiru 兎眠りおん Tone Rion 初音ミク Hatsune Miku ボーカロイド Vocaloid ゴム Gom フェルナンドP Fernando-P シト shito チョリスP Chorisu-P オジ Oji 海賊王 Kaizoku Ou Japanese Rock J-rock Jrock Jack J_a_c_k Cris- Kowari Akitoshi -Laura- Corinn Seolv [_L_u_k_a_s] Lukas William K William_K Taeyang Xen Xehn Xenon- Agatsu Elcheer
BeatmapID:2219039
BeatmapSetID:940746

[Difficulty]
HPDrainRate:2
CircleSize:3
OverallDifficulty:2
ApproachRate:3
SliderMultiplier:0.8
SliderTickRate:1

[Events]
//Background and Video events
0,0,"bg.jpg",0,0
//Break Periods
2,148360,153994
//Storyboard Layer 0 (Background)
//Storyboard Layer 1 (Fail)
//Storyboard Layer 2 (Pass)
//Storyboard Layer 3 (Foreground)
//Storyboard Layer 4 (Overlay)
//Storyboard Sound Samples

[TimingPoints]
285,303.030303030303,3,2,1,40,1,0
3315,-100,3,2,1,60,0,0
3921,-100,3,2,1,70,0,0
18466,-100,3,2,1,60,0,0
20284,-100,3,2,1,50,0,0
26648,-100,3,2,1,60,0,0
34830,303.030303030303,4,2,1,60,1,0
53011,-100,4,2,1,70,0,0
54223,303.030303030303,3,2,1,80,1,1
68768,-100,3,2,1,60,0,0
70586,-100,3,2,1,50,0,0
76950,-100,3,2,1,60,0,0
85132,303.030303030303,4,2,1,60,1,0
103313,-100,4,2,1,70,0,0
104525,303.030303030303,3,2,1,80,1,1
119070,-100,3,2,1,50,0,0
129979,-100,3,2,1,60,0,0
133615,-100,3,2,1,70,0,0
155434,-100,3,2,2,50,0,0
160888,-100,3,2,2,60,0,0
162706,-100,3,2,1,80,0,1
175434,-100,3,2,2,30,0,0
178161,-100,3,2,1,70,0,0
185434,-100,3,2,2,30,0,0

[Colours]
Combo1 : 185,132,251
Combo2 : 255,181,43
Combo3 : 64,159,255
Combo4 : 252,109,24

[HitObjects]
216,336,285,6,0,P|177:346|140:336,2,80,2|8|8,0:0|3:2|3:2,0:0:0:0:
296,336,1194,2,0,P|335:346|372:336,2,80,2|8|8,0:0|3:2|3:2,0:0:0:0:
256,268,2103,6,0,P|246:229|256:192,1,80,2|8,0:0|3:2,0:0:0:0:
312,132,2709,1,8,3:2:0:0:
256,72,3012,1,8,0:0:0:0:
200,132,3315,2,0,P|161:142|123:132,1,80,8|8,3:2|3:2,0:0:0:0:
68,72,3921,6,0,P|57:34|67:-4,2,80,12|8|8,0:0|0:0|0:0,0:0:0:0:
124,132,4830,1,12,0:0:0:0:
68,192,5133,2,0,P|57:230|68:268,1,80,8|8,0:0|0:0,0:0:0:0:
124,328,5739,5,12,0:0:0:0:
180,268,6042,2,0,P|190:229|179:191,1,80,8|8,0:0|0:0,0:0:0:0:
124,132,6648,2,0,P|88:64|124:-4,1,160,12|12,0:0|0:0,0:0:0:0:
168,64,7557,6,0,L|247:56,2,80,12|8|8,0:0|0:0|0:0,0:0:0:0:
124,132,8466,1,12,0:0:0:0:
180,192,8769,2,0,L|259:184,1,80,8|8,0:0|0:0,0:0:0:0:
340,176,9375,5,12,0:0:0:0:
348,256,9678,1,8,0:0:0:0:
268,264,9981,1,8,0:0:0:0:
260,184,10285,2,0,B|230:148|248:108|248:108|279:79|321:97,1,160,12|0,0:0|3:0,0:0:0:0:
340,176,11194,6,0,L|419:168,2,80,12|8|8,0:0|0:0|0:0,0:0:0:0:
260,184,12103,1,12,0:0:0:0:
268,264,12406,2,0,L|276:343,1,80,8|8,0:0|0:0,0:0:0:0:
356,336,13012,5,12,0:0:0:0:
436,328,13315,2,0,L|428:249,1,80,8|8,0:0|0:0,0:0:0:0:
420,168,13921,2,0,B|368:180|368:180|320:156|320:156|269:168,1,160,12|12,0:0|0:0,0:0:0:0:
200,207,14830,6,0,P|189:168|200:130,2,80,12|8|8,0:0|0:0|0:0,0:0:0:0:
256,264,15739,1,12,0:0:0:0:
200,324,16042,2,0,P|161:334|123:323,1,80,8|8,0:0|0:0,0:0:0:0:
68,264,16648,5,12,0:0:0:0:
12,324,16951,1,8,0:0:0:0:
68,384,17254,1,8,0:0:0:0:
124,323,17557,2,0,B|236:259|236:383|350:323,1,240,12|2,0:0|3:2,0:0:0:0:
406,264,18769,6,0,P|416:225|406:187,1,80,8|8,3:2|3:2,0:0:0:0:
350,127,19375,1,2,3:2:0:0:
296,188,19678,2,0,P|259:199|221:188,1,80,8|8,3:2|3:2,0:0:0:0:
167,127,20284,6,0,L|87:133,2,80,6|2|2,3:2|0:0|0:0,0:0:0:0:
221,67,21194,2,0,P|259:57|297:67,1,80,2|2,3:2|0:0,0:0:0:0:
350,127,21800,1,2,0:0:0:0:
403,67,22103,6,0,P|441:57|479:67,2,80,2|2|2,3:2|0:0|0:0,0:0:0:0:
441,137,23012,2,0,P|451:175|441:213,2,80,2|2|2,3:2|0:0|0:0,0:0:0:0:
371,175,23921,6,0,L|290:167,2,80,2|2|2,3:2|0:0|0:0,0:0:0:0:
364,255,24830,2,0,L|283:247,1,80,2|2,3:2|0:0,0:0:0:0:
205,241,25436,1,2,0:0:0:0:
135,203,25739,6,0,P|125:241|135:279,2,80,2|2|2,3:2|0:0|0:0,0:0:0:0:
181,137,26648,1,2,3:2:0:0:
147,64,26951,1,2,3:2:0:0:
67,57,27254,1,2,3:2:0:0:
22,124,27557,6,0,P|12:162|22:200,1,80,6|0,0:0|3:0,0:0:0:0:
67,267,28163,1,0,3:0:0:0:
146,260,28466,2,0,L|225:253,1,80,6|2,0:0|3:2,0:0:0:0:
260,326,29072,1,0,3:0:0:0:
340,333,29375,6,0,L|419:339,1,80,6|0,0:0|3:0,0:0:0:0:
465,274,29981,1,2,3:2:0:0:
420,208,30284,2,0,P|410:170|420:132,1,80,6|0,0:0|3:0,0:0:0:0:
465,65,30891,1,2,3:2:0:0:
419,0,31194,6,0,L|339:6,1,80,6|2,0:0|3:2,0:0:0:0:
259,13,31800,1,0,3:0:0:0:
305,78,32103,2,0,P|315:116|305:154,1,80,6|2,0:0|3:2,0:0:0:0:
259,220,32709,1,0,3:0:0:0:
213,154,33012,6,0,P|203:116|213:78,1,80,6|0,0:0|3:0,0:0:0:0:
259,13,33618,1,0,3:0:0:0:
179,6,33921,2,0,B|99:-1|99:-1|64:22|61:65,1,160,2|0,3:2|3:0,0:0:0:0:
116,125,34830,5,6,0:0:0:0:
60,184,35133,2,0,P|49:223|60:261,2,80,8|2|8,0:0|0:0|0:0,0:0:0:0:
116,125,36042,2,0,P|155:114|193:125,1,80,2|8,0:0|0:0,0:0:0:0:
248,184,36648,1,2,0:0:0:0:
304,124,36951,1,8,0:0:0:0:
360,184,37254,6,0,L|368:263,1,80,2|8,0:0|0:0,0:0:0:0:
448,264,37860,2,0,L|456:185,1,80,2|8,0:0|0:0,0:0:0:0:
408,72,38617,2,0,B|348:52|348:92|291:72,1,120,2|2,0:0|0:0,0:0:0:0:
234,11,39375,1,12,0:0:0:0:
180,72,39678,5,6,0:0:0:0:
124,12,39981,2,0,P|85:1|47:12,2,80,8|2|8,0:0|0:0|0:0,0:0:0:0:
180,72,40890,2,0,L|172:151,1,80,2|8,0:0|0:0,0:0:0:0:
164,232,41496,1,2,0:0:0:0:
244,240,41799,1,8,0:0:0:0:
252,160,42102,6,0,L|260:81,1,80,2|8,0:0|0:0,0:0:0:0:
340,88,42708,2,0,L|332:167,1,80,2|12,0:0|0:0,0:0:0:0:
324,248,43314,1,2,3:2:0:0:
244,240,43617,1,8,3:2:0:0:
164,232,43920,2,0,L|85:224,1,80,2|0,3:2|3:0,0:0:0:0:
40,292,44526,6,0,P|4:224|40:156,1,160,6|2,0:0|0:0,0:0:0:0:
85,224,45436,1,8,0:0:0:0:
132,156,45739,2,0,P|142:117|131:79,2,80,2|8|2,0:0|0:0|0:0,0:0:0:0:
85,224,46648,1,8,0:0:0:0:
40,156,46951,6,0,P|29:117|40:79,2,80,2|8|2,0:0|0:0|0:0,0:0:0:0:
85,224,47860,1,8,0:0:0:0:
132,156,48163,2,0,B|208:120|208:192|285:156,1,160,2|2,0:0|0:0,0:0:0:0:
341,95,49072,1,12,0:0:0:0:
396,156,49375,5,6,0:0:0:0:
340,216,49678,2,0,P|329:254|340:292,1,80,8|2,0:0|0:0,0:0:0:0:
396,352,50284,1,8,0:0:0:0:
452,292,50587,2,0,P|462:253|451:215,2,80,2|8|2,0:0|0:0|0:0,0:0:0:0:
396,352,51496,1,12,0:0:0:0:
340,292,51799,6,0,B|263:328|263:256|187:292,1,160,2|2,0:0|0:0,0:0:0:0:
132,352,52708,1,12,0:0:0:0:
76,292,53011,1,2,3:2:0:0:
132,232,53314,1,8,3:2:0:0:
187,292,53617,2,0,P|225:302|263:291,1,80,8|0,3:2|3:0,0:0:0:0:
317,232,54223,5,12,0:0:0:0:
397,239,54526,2,0,L|476:245,1,80,8|8,0:0|0:0,0:0:0:0:
484,164,55132,2,0,L|404:157,1,80,12|8,0:0|0:0,0:0:0:0:
324,152,55738,1,8,0:0:0:0:
284,83,56041,6,0,P|274:45|284:7,2,80,12|8|8,0:0|0:0|0:0,0:0:0:0:
364,83,56950,2,0,P|374:45|364:7,2,80,12|12|12,0:0|0:0|0:0,0:0:0:0:
324,152,57859,5,12,0:0:0:0:
244,159,58162,2,0,L|164:165,1,80,8|8,0:0|0:0,0:0:0:0:
171,246,58768,2,0,L|250:239,1,80,12|8,0:0|0:0,0:0:0:0:
330,232,59374,1,8,0:0:0:0:
370,302,59677,6,0,P|380:340|370:378,2,80,12|8|8,0:0|0:0|0:0,0:0:0:0:
290,302,60586,2,0,P|280:340|290:378,2,80,12|12|12,0:0|0:0|0:0,0:0:0:0:
330,232,61495,5,12,0:0:0:0:
370,162,61798,2,0,P|380:124|370:86,1,80,8|8,0:0|0:0,0:0:0:0:
330,16,62404,1,12,0:0:0:0:
258,50,62707,1,8,0:0:0:0:
192,4,63010,1,8,0:0:0:0:
120,38,63313,6,0,L|113:117,2,80,12|8|8,0:0|0:0|0:0,0:0:0:0:
40,31,64223,2,0,L|33:110,2,80,12|12|12,0:0|0:0|0:0,0:0:0:0:
120,38,65132,5,12,0:0:0:0:
200,45,65435,2,0,L|279:51,1,80,8|8,0:0|0:0,0:0:0:0:
350,90,66041,2,0,P|360:52|350:14,2,80,12|10|10,0:0|0:0|0:0,0:0:0:0:
304,155,66950,6,0,P|294:193|304:231,1,80,10|10,0:0|0:0,0:0:0:0:
350,297,67556,1,6,0:0:0:0:
271,304,67859,2,0,B|191:311|191:311|159:282|118:291,1,160,12|2,0:0|0:0,0:0:0:0:
38,305,68768,6,0,L|31:384,2,80,2|2|2,3:2|3:2|3:2,0:0:0:0:
45,225,69677,2,0,L|52:146,1,80,2|2,3:2|3:2,0:0:0:0:
60,64,70283,1,8,3:2:0:0:
140,72,70586,6,0,L|219:79,2,80,6|2|2,0:0|0:0|0:0,0:0:0:0:
132,152,71495,2,0,L|211:159,1,80,2|2,0:0|0:0,0:0:0:0:
264,220,72102,1,2,0:0:0:0:
316,160,72404,6,0,P|326:122|316:84,2,80,2|2|2,0:0|0:0|0:0,0:0:0:0:
264,220,73314,2,0,L|264:299,2,80,2|2|2,0:0|0:0|0:0,0:0:0:0:
212,159,74223,6,0,P|202:121|212:83,2,80,2|2|2,0:0|0:0|0:0,0:0:0:0:
160,220,75132,2,0,L|160:299,1,80,2|2,0:0|0:0,0:0:0:0:
212,360,75738,1,2,0:0:0:0:
264,300,76041,6,0,L|264:220,2,80,2|2|6,0:0|0:0|0:0,0:0:0:0:
320,360,76950,1,2,0:0:0:0:
376,300,77253,1,2,0:0:0:0:
432,360,77556,1,2,3:2:0:0:
488,300,77859,6,0,P|498:262|488:224,1,80,6|0,0:0|3:0,0:0:0:0:
432,164,78465,1,0,3:0:0:0:
376,224,78768,2,0,P|338:235|300:225,1,80,6|2,0:0|3:2,0:0:0:0:
244,164,79374,1,0,3:0:0:0:
188,224,79677,6,0,L|188:303,1,80,6|0,0:0|3:0,0:0:0:0:
132,364,80283,1,0,3:0:0:0:
76,305,80586,2,0,L|76:226,1,80,6|0,0:0|3:0,0:0:0:0:
132,164,81193,1,0,3:0:0:0:
188,224,81495,6,0,P|226:235|264:225,1,80,6|0,0:0|3:0,0:0:0:0:
320,164,82102,1,0,3:0:0:0:
376,224,82405,2,0,P|414:234|452:224,1,80,6|0,0:0|3:0,0:0:0:0:
509,163,83011,1,0,3:0:0:0:
452,104,83314,6,0,P|414:94|376:104,1,80,6|8,0:0|0:0,0:0:0:0:
320,164,83920,1,0,3:0:0:0:
264,104,84223,2,0,B|187:140|187:68|111:104,1,160,12|6,0:0|0:0,0:0:0:0:
40,144,85132,5,6,0:0:0:0:
78,214,85435,2,0,P|40:224|2:214,2,80,8|2|8,0:0|0:0|0:0,0:0:0:0:
148,175,86344,2,0,L|141:95,1,80,2|8,0:0|0:0,0:0:0:0:
134,16,86950,1,2,0:0:0:0:
214,9,87253,1,8,0:0:0:0:
221,89,87556,6,0,L|228:169,1,80,2|8,0:0|0:0,0:0:0:0:
280,228,88162,2,0,P|318:238|356:228,1,80,2|8,0:0|0:0,0:0:0:0:
460,164,88919,2,0,B|476:200|476:200|469:280,1,120,2|2,0:0|0:0,0:0:0:0:
462,361,89677,1,12,0:0:0:0:
396,315,89980,5,6,0:0:0:0:
324,349,90283,2,0,P|286:359|248:349,2,80,8|2|8,0:0|0:0|0:0,0:0:0:0:
286,279,91192,2,0,P|248:269|210:279,1,80,2|8,0:0|0:0,0:0:0:0:
137,313,91798,1,2,0:0:0:0:
71,267,92101,1,12,0:0:0:0:
78,187,92404,6,0,L|84:107,1,80,2|8,0:0|0:0,0:0:0:0:
165,114,93010,2,0,L|158:193,1,80,2|8,0:0|0:0,0:0:0:0:
224,240,93616,1,2,3:2:0:0:
296,206,93919,1,8,3:2:0:0:
362,252,94222,2,0,P|400:262|438:252,1,80,8|0,3:2|3:0,0:0:0:0:
509,214,94828,6,0,P|519:252|509:290,2,80,6|8|2,0:0|0:0|0:0,0:0:0:0:
463,148,95738,1,8,0:0:0:0:
417,82,96041,2,0,P|407:44|417:6,2,80,2|8|2,0:0|0:0|0:0,0:0:0:0:
463,148,96951,1,8,0:0:0:0:
384,155,97253,6,0,L|304:161,2,80,2|8|2,0:0|0:0|0:0,0:0:0:0:
391,235,98162,1,8,0:0:0:0:
312,242,98465,2,0,L|232:248,2,80,2|8|2,0:0|0:0|0:0,0:0:0:0:
319,322,99374,1,12,0:0:0:0:
240,329,99677,5,6,0:0:0:0:
171,370,99980,2,0,P|133:380|95:370,2,80,8|2|8,0:0|0:0|0:0,0:0:0:0:
133,300,100889,2,0,P|123:262|133:224,2,80,2|8|2,0:0|0:0|0:0,0:0:0:0:
203,262,101798,1,12,0:0:0:0:
273,300,102101,6,0,B|294:262|273:224|273:224|294:186|273:148,1,160,2|2,0:0|0:0,0:0:0:0:
227,82,103010,1,12,0:0:0:0:
154,115,103313,2,0,B|114:125|75:115|75:115|32:122|6:154,1,160,8|12,0:0|0:0,0:0:0:0:
52,308,104525,5,12,0:0:0:0:
108,248,104828,2,0,P|146:238|184:249,1,80,8|8,0:0|0:0,0:0:0:0:
240,308,105434,2,0,P|278:318|316:307,1,80,8|8,0:0|0:0,0:0:0:0:
372,248,106040,1,8,0:0:0:0:
428,308,106343,6,0,P|466:318|504:308,2,80,12|8|8,0:0|0:0|0:0,0:0:0:0:
372,248,107252,2,0,L|365:168,2,80,12|12|12,0:0|0:0|0:0,0:0:0:0:
316,307,108161,5,12,0:0:0:0:
260,248,108464,2,0,L|267:168,1,80,8|8,0:0|0:0,0:0:0:0:
188,160,109070,2,0,L|181:239,1,80,12|8,0:0|0:0,0:0:0:0:
172,320,109676,1,8,0:0:0:0:
252,328,109979,6,0,L|331:335,2,80,12|8|8,0:0|0:0|0:0,0:0:0:0:
260,248,110888,2,0,L|339:255,2,80,12|12|12,0:0|0:0|0:0,0:0:0:0:
181,239,111797,5,12,0:0:0:0:
188,160,112100,2,0,L|195:81,1,80,8|8,0:0|0:0,0:0:0:0:
204,0,112706,1,12,0:0:0:0:
284,8,113009,1,8,0:0:0:0:
276,88,113312,1,8,0:0:0:0:
195,80,113615,6,0,L|116:73,2,80,12|8|8,0:0|0:0|0:0,0:0:0:0:
188,160,114525,2,0,L|109:153,2,80,8|8|12,0:0|0:0|0:0,0:0:0:0:
244,218,115434,5,12,0:0:0:0:
300,160,115737,2,0,L|379:154,1,80,8|8,0:0|0:0,0:0:0:0:
432,218,116343,2,0,P|441:256|431:294,2,80,12|8|8,0:0|0:0|0:0,0:0:0:0:
380,154,117252,6,0,P|370:115|380:77,1,80,12|8,0:0|0:0,0:0:0:0:
328,13,117858,1,2,0:0:0:0:
276,78,118161,2,0,B|312:154|240:154|276:231,1,160,2|2,0:0|3:2,0:0:0:0:
314,302,119070,6,0,P|276:312|238:302,1,80,6|8,0:0|3:2,0:0:0:0:
173,255,119676,1,8,3:2:0:0:
103,293,119979,2,0,P|93:255|103:217,1,80,2|8,0:0|3:2,0:0:0:0:
150,152,120585,1,8,3:2:0:0:
112,82,120888,6,0,P|150:72|188:82,1,80,2|8,0:0|3:2,0:0:0:0:
253,129,121494,1,8,3:2:0:0:
323,91,121797,2,0,P|333:129|323:167,2,80,2|2|8,0:0|0:3|3:2,0:0:0:0:
271,30,122706,6,0,L|191:23,1,80,2|8,0:0|3:2,0:0:0:0:
112,17,123312,1,8,3:2:0:0:
33,11,123615,2,0,L|26:91,1,80,2|8,0:0|3:2,0:0:0:0:
20,170,124221,1,8,3:2:0:0:
14,250,124525,6,0,L|94:257,1,80,2|8,0:0|3:2,0:0:0:0:
173,263,125131,1,8,3:2:0:0:
252,269,125434,2,0,B|258:189|258:189|225:117|225:117|232:37,1,240,2|6,0:0|0:0,0:0:0:0:
304,2,126646,5,8,3:2:0:0:
370,48,126949,1,8,3:2:0:0:
363,128,127252,2,0,L|356:207,1,80,2|8,0:0|3:2,0:0:0:0:
349,287,127858,1,8,3:2:0:0:
277,322,128161,6,0,P|239:332|201:322,2,80,2|2|8,0:0|0:3|0:0,0:0:0:0:
239,252,129070,2,0,P|201:242|163:252,2,80,0|2|0,3:0|0:3|3:0,0:0:0:0:
277,322,129979,6,0,B|357:315|357:315|397:303|415:266,1,160,6|10,0:0|0:0,0:0:0:0:
410,185,130888,2,0,B|386:151|344:147|344:147|263:154,1,160,10|10,0:0|0:0,0:0:0:0:
206,210,131797,6,0,P|216:248|206:286,2,80,10|10|10,0:0|0:0|0:0,0:0:0:0:
136,248,132706,1,10,0:0:0:0:
119,15,133615,6,0,P|157:5|195:14,2,80,12|8|8,0:0|0:0|0:0,0:0:0:0:
158,85,134524,1,12,0:0:0:0:
120,155,134827,2,0,P|157:165|195:155,1,80,8|8,0:0|0:0,0:0:0:0:
240,85,135434,5,12,0:0:0:0:
284,155,135737,2,0,P|322:165|360:154,1,80,8|8,0:0|0:0,0:0:0:0:
404,87,136342,2,0,P|440:155|404:223,1,160,12|12,0:0|0:0,0:0:0:0:
348,283,137252,6,0,L|348:363,2,80,12|8|8,0:0|0:0|0:0,0:0:0:0:
292,223,138161,1,12,0:0:0:0:
236,283,138464,2,0,P|197:294|159:283,1,80,8|8,0:0|0:0,0:0:0:0:
104,223,139070,5,12,0:0:0:0:
48,283,139372,1,8,0:0:0:0:
104,343,139675,1,8,0:0:0:0:
160,283,139979,2,0,B|236:247|236:319|313:283,1,160,8|12,0:0|0:0,0:0:0:0:
373,338,140888,6,0,P|411:349|449:338,1,80,12|8,0:0|0:0,0:0:0:0:
509,282,141494,1,8,0:0:0:0:
449,226,141797,2,0,P|410:216|372:227,1,80,12|8,0:0|0:0,0:0:0:0:
313,283,142403,1,8,0:0:0:0:
256,227,142706,6,0,B|246:188|246:188|257:150,1,80,12|8,0:0|0:0,0:0:0:0:
312,91,143312,1,8,0:0:0:0:
256,31,143615,2,0,B|204:43|204:43|156:19|156:19|105:31,1,160,0|12,3:0|0:0,0:0:0:0:
48,91,144525,5,12,0:0:0:0:
104,151,144828,2,0,B|114:190|114:190|103:228,1,80,8|8,0:0|0:0,0:0:0:0:
48,287,145434,1,12,0:0:0:0:
104,347,145737,2,0,P|143:357|181:346,1,80,8|8,0:0|0:0,0:0:0:0:
236,287,146343,6,0,B|293:267|293:307|353:287,1,120,12|8,0:0|0:0,0:0:0:0:
456,347,147251,2,0,B|520:235|396:235|456:121,1,240,10|6,0:0|0:0,0:0:0:0:
188,332,155434,6,0,P|256:368|324:332,1,160,8|8,3:2|3:2,0:0:0:0:
256,285,156343,1,0,3:0:0:0:
324,52,157252,6,0,P|256:16|188:52,1,160,8|8,3:2|3:2,0:0:0:0:
256,99,158161,1,0,3:0:0:0:
188,332,159070,6,0,P|256:368|324:332,1,160,8|8,3:2|3:2,0:0:0:0:
256,285,159979,1,0,3:0:0:0:
296,52,160888,6,0,P|257:42|220:52,1,80,8|8,3:2|3:2,0:0:0:0:
160,108,161494,1,8,3:2:0:0:
100,52,161797,1,8,3:2:0:0:
40,108,162100,2,0,B|30:147|30:147|41:185,1,80,8|8,3:2|3:2,0:0:0:0:
79,256,162706,5,12,0:0:0:0:
147,214,163009,2,0,P|185:204|223:214,1,80,8|8,0:0|0:0,0:0:0:0:
292,256,163615,2,0,P|330:266|368:256,1,80,12|8,0:0|0:0,0:0:0:0:
437,214,164221,1,8,0:0:0:0:
430,134,164525,6,0,L|423:54,2,80,12|8|8,0:0|0:0|0:0,0:0:0:0:
351,141,165434,2,0,L|344:61,2,80,12|12|12,0:0|0:0|0:0,0:0:0:0:
358,221,166343,5,12,0:0:0:0:
290,263,166646,2,0,P|252:273|214:263,1,80,8|8,0:0|0:0,0:0:0:0:
145,221,167252,2,0,P|107:211|69:221,1,80,12|8,0:0|0:0,0:0:0:0:
0,263,167858,1,8,0:0:0:0:
6,342,168161,6,0,B|46:338|46:338|75:367|114:377,1,120,12|12,0:0|0:0,0:0:0:0:
235,377,169070,2,0,B|297:374|333:320|333:320|298:299,1,160,12|8,0:0|0:0,0:0:0:0:
235,246,169979,5,12,0:0:0:0:
241,166,170282,2,0,L|247:86,1,80,8|8,0:0|0:0,0:0:0:0:
320,52,170888,1,12,0:0:0:0:
386,98,171191,1,8,0:0:0:0:
458,64,171494,1,8,0:0:0:0:
510,125,171797,6,0,P|520:163|510:201,2,80,8|0|0,0:0|3:0|3:0,0:0:0:0:
440,163,172706,2,0,B|420:201|440:239|440:239|460:277|440:316,1,160,8|12,0:0|0:0,0:0:0:0:
370,277,173615,5,12,0:0:0:0:
300,316,173918,1,10,0:0:0:0:
230,277,174221,1,10,0:0:0:0:
159,315,174525,2,0,P|149:277|159:239,1,80,10|10,0:0|0:0,0:0:0:0:
205,173,175131,2,0,L|198:93,1,80,10|2,0:0|0:0,0:0:0:0:
198,93,178161,6,0,L|118:86,1,80,12|8,0:0|0:0,0:0:0:0:
38,79,178767,1,8,0:0:0:0:
73,152,179070,2,0,P|83:190|73:228,2,80,12|8|8,0:0|0:0|0:0,0:0:0:0:
3,190,179979,6,0,P|-7:228|3:266,1,80,12|8,0:0|0:0,0:0:0:0:
52,330,180585,1,8,0:0:0:0:
131,323,180888,2,0,L|210:316,2,80,12|12|12,0:0|0:0|0:0,0:0:0:0:
125,244,181797,6,0,L|204:237,1,80,12|8,0:0|0:0,0:0:0:0:
284,230,182403,1,8,0:0:0:0:
354,192,182706,2,0,P|364:230|354:268,2,80,12|8|8,0:0|0:0|0:0,0:0:0:0:
310,125,183615,5,12,0:0:0:0:
356,59,183918,1,8,0:0:0:0:
436,66,184221,1,8,0:0:0:0:
469,139,184525,2,0,B|486:176|486:176|486:237|455:289,1,160,8|12,0:0|0:0,0:0:0:0:
403,350,185434,5,2,0:0:0:0:
