osu file format v14

[General]
AudioFilename: audio.mp3
AudioLeadIn: 0
PreviewTime: 217294
Countdown: 0
SampleSet: Soft
StackLeniency: 0.2
Mode: 0
LetterboxInBreaks: 0
WidescreenStoryboard: 0

[Editor]
Bookmarks: 9289,14396,24130,24615,34827,44555,45034,87002,88438,88917,97375,108864,119077,161204,183545,194396,204609,219928,226151,268545
DistanceSpacing: 1.3
BeatDivisor: 3
GridSize: 16
TimelineZoom: 2.224

[Metadata]
Title:Kessen Spirit
TitleUnicode:決戦スピリット
Artist:CHiCO with HoneyWorks
ArtistUnicode:CHiCO with HoneyWorks
Creator:arronchu1207
Version:Ky's Insane
Source:ハイキュー!! TO THE TOP
Tags:japanese anime rock jrock haikyu haikyuu haikyu!! haikyuu!! fourth season 4 ending Not DT Farmer Kyle Y
BeatmapID:2369469
BeatmapSetID:1118112

[Difficulty]
HPDrainRate:6
CircleSize:5
OverallDifficulty:8
ApproachRate:9
SliderMultiplier:1.7
SliderTickRate:1

[Events]
//Background and Video events
0,0,"bg.png",0,0
//Break Periods
2,161404,162838
2,166510,167944
2,171616,173051
2,176723,178157
2,219928,225034
//Storyboard Layer 0 (Background)
//Storyboard Layer 1 (Fail)
//Storyboard Layer 2 (Pass)
//Storyboard Layer 3 (Foreground)
//Storyboard Layer 4 (Overlay)
//Storyboard Sound Samples

[TimingPoints]
2907,319.148936170213,4,2,1,60,1,0
3545,262.008733624454,4,2,1,60,1,0
3545,-133.333333333333,4,2,1,60,0,0
3676,357.142857142857,4,2,1,60,1,0
4183,319.148936170213,4,2,1,70,1,0
4183,-100,4,2,1,70,0,0
9768,-116.279069767442,4,2,1,70,0,0
11044,-106.666666666667,4,2,1,70,0,0
11842,-76.9230769230769,4,2,1,70,0,0
12002,-100,4,2,1,70,0,0
14395,-117.647058823529,4,2,1,60,0,0
18784,-250,4,2,1,60,0,0
18943,-117.647058823529,4,2,1,60,0,0
24608,-117.647058823529,4,2,1,60,0,0
34502,-133.333333333333,4,2,1,60,0,0
34821,-76.9230769230769,4,2,1,60,0,0
35140,-105.263157894737,4,2,1,60,0,0
37055,-133.333333333333,4,2,1,60,0,0
37374,-76.9230769230769,4,2,1,60,0,0
37693,-105.263157894737,4,2,1,60,0,0
38651,-105.263157894737,4,2,1,60,0,0
39608,-133.333333333333,4,2,1,60,0,0
39927,-76.9230769230769,4,2,1,60,0,0
40246,-105.263157894737,4,2,1,60,0,0
43757,-142.857142857143,4,2,1,60,0,0
44714,-100,4,2,1,60,0,0
45034,-83.3333333333333,4,2,1,70,0,0
45193,-117.647058823529,4,2,1,70,0,0
47268,-133.333333333333,4,2,1,70,0,0
47587,-76.9230769230769,4,2,1,70,0,0
47906,-117.647058823529,4,2,1,70,0,0
49821,-133.333333333333,4,2,1,70,0,0
50140,-76.9230769230769,4,2,1,70,0,0
50778,-117.647058823529,4,2,1,70,0,0
51257,-117.647058823529,4,2,1,70,0,0
52374,-166.666666666667,4,2,1,70,0,0
53651,-125,4,2,1,70,0,0
55246,-100,4,2,1,70,0,0
56523,-200,4,2,1,70,0,0
57480,-400,4,2,1,70,0,0
57800,-95.2380952380952,4,2,1,80,0,1
60353,-114.942528735632,4,2,1,80,0,1
60991,-95.2380952380952,4,2,1,80,0,1
78225,-103.092783505155,4,2,1,70,0,0
88438,-117.647058823529,4,2,1,60,0,0
108544,-200,4,2,1,60,0,0
108863,-76.9230769230769,4,2,1,60,0,0
109023,-105.263157894737,4,2,1,60,0,0
111097,-200,4,2,1,60,0,0
111417,-76.9230769230769,4,2,1,60,0,0
111576,-105.263157894737,4,2,1,60,0,0
112693,-100,4,2,1,60,0,0
113651,-133.333333333333,4,2,1,60,0,0
113970,-76.9230769230769,4,2,1,60,0,0
114289,-105.263157894737,4,2,1,60,0,0
117800,-133.333333333333,4,2,1,60,0,0
118757,-100,4,2,1,60,0,0
119076,-83.3333333333333,4,2,1,70,0,0
119395,-117.647058823529,4,2,1,70,0,0
120193,-117.647058823529,4,2,1,70,0,0
120433,-125,4,2,1,70,0,0
121310,-200,4,2,1,70,0,0
121629,-76.9230769230769,4,2,1,70,0,0
121789,-117.647058823529,4,2,1,70,0,0
122746,-117.647058823529,4,2,1,70,0,0
122986,-117.647058823529,4,2,1,70,0,0
123863,-200,4,2,1,70,0,0
124183,-76.9230769230769,4,2,1,70,0,0
124342,-117.647058823529,4,2,1,70,0,0
125300,-117.647058823529,4,2,1,70,0,0
125539,-117.647058823529,4,2,1,70,0,0
126417,-166.666666666667,4,2,1,70,0,0
127693,-125,4,2,1,70,0,0
129289,-100,4,2,1,70,0,0
130486,-125,4,2,1,5,0,0
130565,-200,4,2,1,70,0,0
131523,-500,4,2,1,70,0,0
131842,-95.2380952380952,4,2,1,80,0,1
134395,-111.111111111111,4,2,1,80,0,1
135034,-95.2380952380952,4,2,1,80,0,1
150991,-200,4,2,1,60,0,0
155459,-125,4,2,1,60,0,0
157374,-142.857142857143,4,2,1,60,0,0
161204,-200,4,2,2,50,0,0
163757,-166.666666666667,4,2,2,50,0,0
171417,-166.666666666667,4,2,2,60,0,0
182268,-111.111111111111,4,2,2,70,0,0
182906,-100,4,2,2,80,0,0
183544,-100,4,2,1,80,0,0
184183,-125,4,2,1,70,0,0
184502,-106.382978723404,4,2,1,80,0,0
185539,-100,4,2,1,5,0,0
185619,-100,4,2,1,80,0,0
185698,-100,4,2,1,5,0,0
185778,-100,4,2,1,80,0,0
191842,-133.333333333333,4,2,1,80,0,0
192161,-100,4,2,1,80,0,0
194076,-200,4,2,1,80,0,0
194395,-76.9230769230769,4,2,1,60,0,0
194555,-111.111111111111,4,2,1,60,0,0
196629,-200,4,2,1,60,0,0
196948,-76.9230769230769,4,2,1,60,0,0
197108,-111.111111111111,4,2,1,60,0,0
199183,-200,4,2,1,60,0,0
199502,-76.9230769230769,4,2,1,60,0,0
199821,-111.111111111111,4,2,1,60,0,0
203331,-133.333333333333,4,2,1,60,0,0
203970,-116.279069767442,4,2,1,60,0,0
204608,-83.3333333333333,4,2,1,70,0,0
204927,-111.111111111111,4,2,1,70,0,0
206842,-200,4,2,1,70,0,0
207161,-76.9230769230769,4,2,1,70,0,0
208278,-108.695652173913,4,2,1,70,0,0
208518,-125,4,2,1,70,0,0
209395,-200,4,2,1,70,0,0
209714,-76.9230769230769,4,2,1,70,0,0
210353,-107.52688172043,4,2,1,70,0,0
211948,-166.666666666667,4,2,1,70,0,0
213225,-125,4,2,1,70,0,0
214821,-97.0873786407767,4,2,1,70,0,0
216097,-200,4,2,1,70,0,0
217055,-500,4,2,1,70,0,0
217294,-500,4,2,1,5,0,0
217374,-250,4,2,1,70,0,1
217454,-250,4,2,1,70,0,0
219927,-250,4,2,1,40,0,0
227587,-133.333333333333,4,2,1,70,0,0
237800,-88.4955752212389,4,2,1,80,0,1
255672,-88.4955752212389,4,2,1,90,0,1
257268,-126.582278481013,4,2,1,90,0,1
258225,-200,4,2,1,50,0,0
267241,-200,4,2,1,20,0,0
268438,-200,4,2,1,5,0,0

[Colours]
Combo1 : 128,191,255
Combo2 : 255,128,0
Combo3 : 127,127,127
Combo4 : 128,128,255

[HitObjects]
153,125,2907,5,8,0:3:0:0:
153,125,3066,5,8,0:0:0:0:
150,147,3146,1,8,0:0:0:0:
147,169,3226,1,8,0:0:0:0:
144,191,3305,1,8,0:0:0:0:
141,214,3385,1,8,0:3:0:0:
63,230,3545,6,0,L|30:224,2,31.8750012159348,8|8|8,0:0|0:3|0:3,0:0:0:0:
217,248,3854,1,12,0:0:0:0:
217,248,4183,5,10,0:3:0:0:
275,195,4342,1,8,0:3:0:0:
291,271,4502,1,8,0:0:0:0:
171,309,4661,2,0,P|140:234|194:173,1,170,2|8,0:0|0:3,0:0:0:0:
291,271,5140,1,8,0:0:0:0:
217,248,5300,1,0,0:0:0:0:
259,119,5459,5,10,0:3:0:0:
275,195,5619,1,8,0:3:0:0:
315,66,5778,1,8,0:0:0:0:
275,195,5938,2,0,P|217:183|192:81,1,170,2|8,0:0|0:3,0:0:0:0:
316,67,6417,1,8,0:0:0:0:
259,119,6576,1,0,0:0:0:0:
349,218,6736,5,10,0:3:0:0:
407,165,6895,1,8,0:3:0:0:
333,142,7055,1,8,0:0:0:0:
423,241,7214,2,0,P|479:191|442:96,1,170,2|8,0:0|0:3,0:0:0:0:
333,142,7693,1,8,0:0:0:0:
407,165,7853,1,0,0:0:0:0:
275,195,8012,5,10,0:3:0:0:
316,67,8172,1,8,0:3:0:0:
349,218,8331,1,12,0:0:0:0:
259,119,8491,1,0,0:0:0:0:
407,165,8651,5,10,0:3:0:0:
349,218,8810,1,8,0:3:0:0:
275,195,8970,1,12,0:0:0:0:
217,248,9129,1,0,0:0:0:0:
382,369,9289,5,10,0:3:0:0:
366,293,9448,1,8,0:3:0:0:
308,346,9608,1,8,0:0:0:0:
441,301,9768,2,0,P|417:235|349:218,1,146.200002230835,2|0,0:0|0:0,0:0:0:0:
308,346,10246,1,8,0:0:0:0:
366,293,10406,1,0,0:0:0:0:
275,195,10565,5,10,0:3:0:0:
292,270,10725,1,8,0:3:0:0:
333,142,10885,1,8,0:0:0:0:
292,270,11044,2,0,P|226:254|200:169,1,159.375,2|8,0:0|0:3,0:0:0:0:
333,142,11523,1,8,0:0:0:0:
275,195,11683,1,0,0:0:0:0:
126,150,11842,5,10,0:3:0:0:
182,97,12002,1,8,0:3:0:0:
197,172,12161,1,10,0:0:0:0:
110,75,12321,1,8,0:3:0:0:
110,75,12480,2,0,P|136:39|191:23,1,85,10|8,0:0|0:3,0:0:0:0:
243,45,12800,2,0,P|217:81|162:97,1,85,10|8,0:0|0:3,0:0:0:0:
26,63,13119,5,8,0:0:0:0:
29,85,13198,1,8,0:0:0:0:
32,107,13278,1,8,0:0:0:0:
35,129,13358,1,8,0:0:0:0:
38,152,13438,1,8,0:0:0:0:
121,190,13597,2,0,L|163:183,2,42.5,8|8|8,0:0|0:0|0:0,0:0:0:0:
0,238,13917,5,8,0:0:0:0:
0,238,14076,5,8,0:0:0:0:
3,264,14156,1,8,0:0:0:0:
7,290,14236,1,8,0:0:0:0:
10,317,14315,1,8,0:0:0:0:
13,344,14395,6,0,B|18:308|18:308|125:326,1,144.500002756119,14|8,0:3|0:0,0:0:0:0:
196,360,14874,2,0,P|204:322|191:283,1,72.2500013780594,2|8,0:0|0:3,0:0:0:0:
189,212,15193,2,0,P|152:223|125:254,1,72.2500013780594,10|8,0:3|0:0,0:0:0:0:
129,247,15512,1,2,0:0:0:0:
75,175,15672,6,0,P|49:149|15:139,2,72.2500013780594,8|8|8,0:3|0:3|0:0,0:0:0:0:
201,127,16310,6,0,L|212:55,1,72.2500013780594,10|8,0:3|0:3,0:0:0:0:
144,15,16629,2,0,L|132:86,1,72.2500013780594,10|0,0:0|0:0,0:0:0:0:
170,195,16948,6,0,P|211:203|242:190,1,72.2500013780594,10|8,0:3|0:3,0:0:0:0:
202,127,17268,1,10,0:0:0:0:
102,159,17427,2,0,P|93:200|106:231,1,72.2500013780594,2|8,0:0|0:3,0:0:0:0:
179,283,17746,2,0,P|189:248|180:214,1,72.2500013780594,10|8,0:3|0:0,0:0:0:0:
26,254,18065,1,2,0:0:0:0:
26,254,18225,6,0,P|15:288|24:322,2,72.2500013780594,8|8|8,0:3|0:3|0:0,0:0:0:0:
123,359,18784,6,0,L|139:356,1,17,8|8,0:0|0:3,0:0:0:0:
133,368,18943,2,0,L|239:350,1,108.375002067089,8|8,0:0|0:0,0:0:0:0:
320,184,19502,6,0,B|283:177|283:177|302:284,1,144.500002756119,10|8,0:3|0:0,0:0:0:0:
359,338,19980,2,0,P|397:346|436:333,1,72.2500013780594,2|8,0:0|0:3,0:0:0:0:
463,265,20300,2,0,P|425:257|386:270,1,72.2500013780594,10|8,0:3|0:0,0:0:0:0:
393,265,20619,1,2,0:0:0:0:
328,210,20778,6,0,L|340:138,2,72.2500013780594,8|8|8,0:3|0:3|0:0,0:0:0:0:
190,285,21417,6,0,L|179:213,1,72.2500013780594,10|8,0:3|0:3,0:0:0:0:
255,208,21736,2,0,L|267:279,1,72.2500013780594,10|0,0:0|0:0,0:0:0:0:
220,350,22055,6,0,P|179:358|148:345,1,72.2500013780594,10|8,0:3|0:3,0:0:0:0:
190,285,22374,1,10,0:0:0:0:
294,384,22534,2,0,P|303:343|290:312,1,72.2500013780594,2|8,0:0|0:3,0:0:0:0:
351,265,22853,2,0,P|319:236|286:232,1,72.2500013780594,10|8,0:3|0:0,0:0:0:0:
191,286,23172,1,2,0:0:0:0:
191,286,23331,6,0,P|180:252|189:218,2,72.2500013780594,8|8|8,0:3|0:3|0:0,0:0:0:0:
393,335,23970,5,8,0:3:0:0:
377,259,24129,1,8,0:0:0:0:
319,312,24289,1,8,0:0:0:0:
458,288,24448,1,8,0:0:0:0:
458,288,24528,1,8,0:0:0:0:
458,288,24608,6,0,L|469:216,1,72.2500013780594,10|0,0:3|0:0,0:0:0:0:
403,188,24927,1,10,0:0:0:0:
509,113,25087,2,0,L|429:126,1,72.2500013780594,2|8,0:0|0:3,0:0:0:0:
397,55,25406,2,0,L|476:42,1,72.2500013780594,10|8,0:3|0:0,0:0:0:0:
338,97,25725,1,2,0:0:0:0:
338,97,25885,6,0,P|321:60|336:18,2,72.2500013780594,8|0|8,0:3|0:0|0:0,0:0:0:0:
417,202,26523,6,0,L|496:188,1,72.2500013780594,10|8,0:3|0:3,0:0:0:0:
511,262,26842,2,0,L|432:276,1,72.2500013780594,10|0,0:0|0:0,0:0:0:0:
375,384,27161,6,0,P|378:342|357:303,1,72.2500013780594,10|0,0:3|0:0,0:0:0:0:
301,354,27480,1,10,0:0:0:0:
321,259,27640,2,0,L|242:273,1,72.2500013780594,2|8,0:0|0:3,0:0:0:0:
213,342,27959,2,0,L|134:356,1,72.2500013780594,10|8,0:3|0:0,0:0:0:0:
69,300,28278,1,2,0:0:0:0:
69,300,28438,6,0,L|56:380,2,72.2500013780594,8|8|8,0:3|0:3|0:0,0:0:0:0:
138,134,29076,5,10,0:3:0:0:
72,174,29236,2,0,L|-8:161,2,72.2500013780594,8|8|0,0:3|0:0|0:0,0:0:0:0:
156,242,29714,6,0,L|243:228,1,72.2500013780594,10|0,0:3|0:0,0:0:0:0:
241,160,30034,1,10,0:0:0:0:
297,271,30193,2,0,L|377:258,1,72.2500013780594,2|8,0:0|0:3,0:0:0:0:
405,178,30512,2,0,L|326:191,1,72.2500013780594,10|8,0:3|0:0,0:0:0:0:
241,146,30831,1,2,0:0:0:0:
241,146,30991,6,0,L|254:66,2,72.2500013780594,8|0|8,0:3|0:0|0:0,0:0:0:0:
125,267,31629,6,0,L|45:254,1,72.2500013780594,10|8,0:3|0:3,0:0:0:0:
86,189,31948,2,0,L|157:200,1,72.2500013780594,10|0,0:0|0:0,0:0:0:0:
187,307,32268,6,0,L|258:295,1,72.2500013780594,10|8,0:3|0:3,0:0:0:0:
285,229,32587,1,10,0:0:0:0:
334,341,32746,2,0,L|345:269,1,72.2500013780594,2|8,0:0|0:3,0:0:0:0:
406,196,33065,2,0,L|417:267,1,72.2500013780594,10|8,0:3|0:0,0:0:0:0:
481,331,33385,2,0,L|409:342,1,72.2500013780594,2|8,0:0|0:0,0:0:0:0:
267,367,33704,5,8,0:0:0:0:
267,367,33784,1,8,0:0:0:0:
267,367,33863,1,8,0:0:0:0:
329,270,34023,2,0,L|336:310,2,36.1250006890297,8|8|8,0:0|0:0|0:3,0:0:0:0:
187,305,34342,1,8,0:3:0:0:
35,275,34502,6,0,B|72:269|72:269|76:264|76:264|77:272|77:272|80:268|80:268|117:261,1,95.6250036478044,14|0,0:3|0:0,0:0:0:0:
127,251,34821,2,0,B|79:260|79:260|74:257|74:257|71:261|71:261|23:270,1,110.499994941712,14|8,0:3|0:3,0:0:0:0:
198,278,35140,6,0,P|205:238|188:203,1,80.7499978437424,10|0,0:3|0:0,0:0:0:0:
108,172,35459,2,0,L|28:184,2,80.7499978437424,10|8|0,0:0|0:3|0:0,0:0:0:0:
164,125,35938,1,10,0:3:0:0:
203,64,36097,6,0,P|163:52|108:74,1,80.7499978437424,10|8,0:3|0:0,0:0:0:0:
164,125,36417,2,0,P|204:137|259:115,1,80.7499978437424,10|8,0:3|0:3,0:0:0:0:
243,1,36736,1,10,0:0:0:0:
341,156,37055,6,0,B|335:119|335:119|330:115|330:115|338:114|338:114|334:111|334:111|327:74,1,95.6250036478044,6|0,0:0|0:0,0:0:0:0:
317,64,37374,2,0,B|326:112|326:112|323:117|323:117|327:120|327:120|336:168,1,110.499994941712,6|0,0:0|0:0,0:0:0:0:
432,253,37693,6,0,P|488:251|515:227,1,80.7499978437424,10|0,0:3|0:0,0:0:0:0:
457,184,38012,1,10,0:0:0:0:
362,358,38331,6,0,P|346:322|351:283,1,80.7499978437424,2|8,0:0|0:3,0:0:0:0:
416,239,38651,1,14,0:0:0:0:
498,324,38810,2,0,L|410:310,1,80.7499978437424,2|8,0:0|0:3,0:0:0:0:
277,289,39129,1,14,0:0:0:0:
211,377,39289,2,0,L|298:363,1,80.7499978437424,2|8,0:0|0:3,0:0:0:0:
357,222,39608,6,0,B|320:216|320:216|316:211|316:211|315:219|315:219|312:215|312:215|275:208,1,95.6250036478044,10|0,0:0|0:0,0:0:0:0:
265,198,39927,2,0,B|313:207|313:207|318:204|318:204|321:208|321:208|369:217,1,110.499994941712,6|0,0:0|0:0,0:0:0:0:
472,140,40246,6,0,P|489:101|465:43,1,80.7499978437424,10|0,0:3|0:0,0:0:0:0:
364,43,40565,2,0,P|345:78|348:120,2,80.7499978437424,10|8|0,0:0|0:3|0:0,0:0:0:0:
417,94,41044,1,2,0:0:0:0:
299,171,41204,5,10,0:3:0:0:
375,195,41363,1,10,0:0:0:0:
299,171,41523,2,0,L|219:183,1,80.7499978437424,10|8,0:3|0:3,0:0:0:0:
87,202,41842,1,10,0:0:0:0:
87,202,42002,1,0,0:0:0:0:
167,74,42161,2,0,L|154:153,1,80.7499978437424,10|0,0:3|0:0,0:0:0:0:
126,341,42480,5,14,0:3:0:0:
47,304,42800,5,10,0:3:0:0:
84,228,43119,5,10,0:0:0:0:
160,263,43438,5,2,0:0:0:0:
126,341,43757,6,0,B|162:365|162:365|224:348|224:348|309:369,1,178.499994552612,14|8,0:3|0:3,0:0:0:0:
292,365,44395,1,14,0:0:0:0:
419,339,44555,1,8,0:0:0:0:
419,339,44635,1,8,0:0:0:0:
419,339,44714,6,0,L|410:288,1,42.5,8|8,0:0|0:0,0:0:0:0:
451,193,44874,2,0,L|499:199,1,42.5,8|8,0:0|0:0,0:0:0:0:
375,229,45034,2,0,L|260:211,1,101.999996887207,14|8,0:3|0:3,0:0:0:0:
274,213,45353,1,8,0:0:0:0:
104,312,45672,6,0,P|97:275|113:233,1,72.2500013780594,10|8,0:3|0:3,0:0:0:0:
176,281,45991,1,8,0:0:0:0:
85,384,46151,6,0,L|164:371,1,72.2500013780594,14|0,0:3|0:0,0:0:0:0:
181,298,46470,1,10,0:3:0:0:
257,370,46629,2,0,P|289:307|257:245,1,144.500002756119,10|10,0:0|0:3,0:0:0:0:
175,70,47268,6,0,B|181:103|181:103|186:111|186:111|178:112|178:112|182:119|182:119|189:153,1,95.6250036478044,14|0,0:0|0:0,0:0:0:0:
194,171,47587,2,0,B|202:130|202:130|207:121|207:121|199:119|199:119|204:113|204:113|211:73,1,110.499994941712,14|0,0:3|0:0,0:0:0:0:
79,53,47906,6,0,L|0:65,1,72.2500013780594,10|0,0:0|0:0,0:0:0:0:
0,144,48225,2,0,L|71:133,1,72.2500013780594,10|8,0:3|0:3,0:0:0:0:
148,109,48544,1,8,0:0:0:0:
170,219,48704,2,0,L|98:208,1,72.2500013780594,14|0,0:3|0:0,0:0:0:0:
151,131,49023,1,10,0:3:0:0:
245,174,49183,2,0,P|260:123|201:46,1,144.500002756119,10|10,0:0|0:3,0:0:0:0:
49,236,49821,6,0,B|82:229|82:229|90:224|90:224|91:232|91:232|98:228|98:228|132:221,1,95.6250036478044,14|0,0:0|0:0,0:0:0:0:
150,216,50140,2,0,B|109:207|109:207|100:202|100:202|98:210|98:210|92:205|92:205|52:198,1,110.499994941712,14|0,0:3|0:0,0:0:0:0:
139,342,50459,1,10,0:0:0:0:
139,342,50778,6,0,B|184:322|184:322|197:351|197:351|288:337,1,144.500002756119,10|8,0:3|0:0,0:0:0:0:
329,375,51257,6,0,P|335:332|304:282,1,72.2500013780594,14|0,0:3|0:0,0:0:0:0:
263,264,51576,1,10,0:3:0:0:
184,364,51736,2,0,L|278:349,2,72.2500013780594,10|0|8,0:0|0:0|0:0,0:0:0:0:
43,275,52214,1,8,0:0:0:0:
43,275,52294,1,8,0:0:0:0:
43,275,52374,6,0,L|102:284,1,50.9999984436036,10|8,0:3|0:3,0:0:0:0:
162,231,52693,2,0,L|150:159,1,50.9999984436036,10|8,0:3|0:3,0:0:0:0:
72,144,53012,2,0,B|20:151|20:151|37:51,1,152.999995330811,10|8,0:0|0:3,0:0:0:0:
232,96,53651,6,0,L|242:163,1,68,10|8,0:0|0:3,0:0:0:0:
308,240,53970,2,0,L|318:172,1,68,10|8,0:3|0:3,0:0:0:0:
312,48,54289,2,0,B|305:92|305:92|393:78,1,136,10|10,0:0|0:3,0:0:0:0:
394,78,54768,1,8,0:3:0:0:
484,208,54927,6,0,L|400:222,1,68,8|8,0:0|0:3,0:0:0:0:
378,326,55246,2,0,P|330:338|286:318,1,85,14|8,0:0|0:3,0:0:0:0:
238,367,55565,2,0,P|226:319|246:275,1,85,10|8,0:0|0:3,0:0:0:0:
197,227,55885,2,0,P|245:215|289:235,1,85,14|8,0:0|0:3,0:0:0:0:
337,186,56204,2,0,P|349:233|329:278,1,85,10|8,0:0|0:3,0:0:0:0:
156,296,56523,5,6,0:0:0:0:
135,246,57800,6,0,P|151:205|135:164,1,89.2499972763062,14|0,0:3|0:0,0:0:0:0:
26,210,58119,1,10,0:0:0:0:
26,210,58438,6,0,P|9:250|25:291,2,89.2499972763062,10|8|8,0:3|0:3|0:0,0:0:0:0:
118,252,58917,1,0,0:0:0:0:
47,367,59076,6,0,B|88:342|88:342|167:363|167:363|179:313,1,178.499994552612,10|8,0:3|0:0,0:0:0:0:
178,315,59555,1,0,0:0:0:0:
306,358,59714,2,0,P|321:322|307:273,1,89.2499972763062,10|8,0:3|0:3,0:0:0:0:
237,181,60034,2,0,P|222:217|236:266,1,89.2499972763062,10|0,0:0|0:0,0:0:0:0:
332,281,60353,6,0,L|431:264,1,73.9500006206131,10|8,0:3|0:3,0:0:0:0:
495,185,60672,2,0,L|406:199,1,73.9500006206131,10|0,0:0|0:0,0:0:0:0:
332,281,60991,2,0,L|431:297,1,89.2499972763062,10|8,0:3|0:3,0:0:0:0:
511,212,61310,2,0,L|422:197,1,89.2499972763062,10|0,0:0|0:0,0:0:0:0:
266,147,61629,6,0,P|265:70|357:40,1,178.499994552612,10|8,0:3|0:0,0:0:0:0:
418,123,62108,1,0,0:0:0:0:
418,123,62268,2,0,L|329:108,1,89.2499972763062,8|8,0:3|0:3,0:0:0:0:
161,81,62587,1,10,0:0:0:0:
161,81,62906,6,0,P|177:125|162:175,1,89.2499972763062,10|0,0:3|0:0,0:0:0:0:
99,219,63225,1,10,0:0:0:0:
99,219,63544,6,0,P|83:177|91:134,2,89.2499972763062,10|8|8,0:3|0:3|0:0,0:0:0:0:
168,169,64023,1,0,0:0:0:0:
91,296,64183,2,0,P|134:289|167:260,1,89.2499972763062,10|0,0:3|0:0,0:0:0:0:
186,155,64502,1,8,0:0:0:0:
186,155,64821,6,0,L|274:169,1,89.2499972763062,10|8,0:3|0:3,0:0:0:0:
328,254,65140,2,0,L|239:239,1,89.2499972763062,10|0,0:0|0:0,0:0:0:0:
156,281,65459,6,0,P|170:326|143:380,1,89.2499972763062,10|8,0:3|0:3,0:0:0:0:
89,321,65778,2,0,P|76:278|90:237,1,89.2499972763062,10|0,0:0|0:0,0:0:0:0:
255,343,66097,2,0,L|166:357,1,89.2499972763062,10|8,0:3|0:3,0:0:0:0:
88,333,66417,2,0,L|0:347,1,89.2499972763062,10|0,0:0|0:0,0:0:0:0:
0,219,66736,6,0,B|87:234,1,89.2499972763062,10|8,0:0|0:0,0:0:0:0:
114,240,66975,1,8,0:0:0:0:
114,240,67055,1,8,0:0:0:0:
80,100,67214,1,8,0:0:0:0:
80,100,67374,6,0,L|72:144,1,44.6249986381531,10|0,0:0|0:0,0:0:0:0:
164,93,67534,2,0,L|156:49,1,44.6249986381531,8|8,0:0|0:0,0:0:0:0:
152,178,67693,1,8,0:0:0:0:
180,174,67773,1,8,0:0:0:0:
208,170,67853,1,8,0:0:0:0:
236,166,67933,1,8,0:0:0:0:
264,162,68012,6,0,P|248:203|264:244,1,89.2499972763062,14|0,0:3|0:0,0:0:0:0:
357,360,68331,1,10,0:0:0:0:
357,360,68651,6,0,P|372:319|356:278,1,89.2499972763062,10|8,0:3|0:3,0:0:0:0:
279,154,68970,2,0,P|263:194|279:235,1,89.2499972763062,10|0,0:0|0:0,0:0:0:0:
407,220,69289,5,10,0:3:0:0:
333,197,69448,1,8,0:3:0:0:
283,312,69608,1,8,0:0:0:0:
472,355,69927,6,0,L|384:369,1,89.2499972763062,10|8,0:3|0:3,0:0:0:0:
283,312,70246,2,0,L|371:298,1,89.2499972763062,10|0,0:0|0:0,0:0:0:0:
472,355,70565,6,0,P|495:308|470:253,1,89.2499972763062,10|8,0:3|0:3,0:0:0:0:
401,212,70885,2,0,P|379:249|385:293,1,89.2499972763062,10|0,0:0|0:0,0:0:0:0:
472,355,71204,2,0,P|478:311|456:273,1,89.2499972763062,10|8,0:3|0:3,0:0:0:0:
362,214,71523,2,0,P|355:257|377:295,1,89.2499972763062,10|0,0:0|0:0,0:0:0:0:
497,190,71842,6,0,P|470:110|386:108,1,178.499994552612,10|8,0:3|0:0,0:0:0:0:
387,108,72321,1,0,0:0:0:0:
344,169,72480,2,0,P|313:126|328:68,1,89.2499972763062,8|8,0:3|0:3,0:0:0:0:
420,176,72800,1,10,0:0:0:0:
507,275,73119,6,0,L|419:261,1,89.2499972763062,10|0,0:3|0:0,0:0:0:0:
327,326,73438,2,0,L|415:340,1,89.2499972763062,10|0,0:0|0:0,0:0:0:0:
507,275,73757,2,0,L|493:186,1,89.2499972763062,10|8,0:3|0:3,0:0:0:0:
423,99,74076,2,0,L|409:187,1,89.2499972763062,10|0,0:0|0:0,0:0:0:0:
395,285,74395,6,0,B|428:274|428:274|351:258|351:258|284:270,1,178.499994552612,10|8,0:3|0:0,0:0:0:0:
286,269,74874,1,0,0:0:0:0:
215,299,75034,2,0,P|208:255|229:217,1,89.2499972763062,10|8,0:3|0:3,0:0:0:0:
292,283,75353,2,0,P|299:327|279:366,1,89.2499972763062,10|0,0:0|0:0,0:0:0:0:
124,375,75672,6,0,L|36:361,1,89.2499972763062,10|8,0:3|0:3,0:0:0:0:
16,239,75991,2,0,L|104:253,1,89.2499972763062,10|0,0:0|0:0,0:0:0:0:
178,339,76310,2,0,L|90:353,1,89.2499972763062,10|8,0:3|0:3,0:0:0:0:
16,267,76629,2,0,L|104:253,1,89.2499972763062,10|8,0:0|0:3,0:0:0:0:
271,223,76948,5,8,0:0:0:0:
93,166,77268,5,12,0:0:0:0:
200,55,77587,5,8,0:0:0:0:
196,81,77667,1,8,0:0:0:0:
193,106,77746,1,8,0:0:0:0:
189,131,77826,1,8,0:0:0:0:
186,156,77906,2,0,L|274:142,1,89.2499972763062,8|8,0:3|0:3,0:0:0:0:
416,96,78225,5,14,0:3:0:0:
353,47,78385,1,8,0:3:0:0:
281,76,78544,1,8,0:0:0:0:
416,96,78704,2,0,P|431:61|420:5,2,82.4500019500351,2|0|8,0:0|0:0|0:3,0:0:0:0:
281,76,79183,1,8,0:0:0:0:
353,47,79342,1,0,0:0:0:0:
405,172,79502,5,10,0:3:0:0:
344,125,79661,1,8,0:3:0:0:
477,143,79821,1,8,0:0:0:0:
334,202,79980,2,0,L|246:188,2,82.4500019500351,2|8|8,0:0|0:3|0:3,0:0:0:0:
466,219,80459,1,8,0:0:0:0:
405,172,80619,1,0,0:0:0:0:
455,295,80778,5,10,0:3:0:0:
384,325,80938,1,8,0:3:0:0:
323,278,81097,1,8,0:0:0:0:
455,295,81257,2,0,P|460:335|444:373,2,82.4500019500351,2|0|8,0:0|0:0|0:3,0:0:0:0:
323,278,81736,1,8,0:0:0:0:
384,325,81895,1,0,0:0:0:0:
334,202,82055,5,10,0:3:0:0:
313,355,82214,1,8,0:3:0:0:
405,172,82374,1,12,0:0:0:0:
262,231,82534,1,0,0:0:0:0:
384,325,82693,5,10,0:3:0:0:
323,278,82853,1,8,0:3:0:0:
252,308,83012,1,12,0:0:0:0:
191,261,83172,1,0,0:0:0:0:
272,154,83331,5,10,0:3:0:0:
140,137,83491,1,8,0:3:0:0:
272,154,83651,1,8,0:0:0:0:
140,137,83810,2,0,P|135:97|151:59,2,82.4500019500351,2|0|8,0:0|0:0|0:3,0:0:0:0:
272,154,84289,1,8,0:0:0:0:
211,107,84448,1,0,0:0:0:0:
190,259,84608,5,10,0:3:0:0:
333,201,84768,1,8,0:3:0:0:
190,259,84927,1,8,0:0:0:0:
333,201,85087,2,0,P|348:163|344:122,2,82.4500019500351,2|8|8,0:0|0:3|0:3,0:0:0:0:
201,184,85565,1,8,0:0:0:0:
272,154,85725,1,0,0:0:0:0:
191,261,85885,5,8,0:0:0:0:
140,139,86044,1,8,0:3:0:0:
191,261,86204,2,0,P|147:273|97:254,1,82.4500019500351,8|8,0:0|0:3,0:0:0:0:
21,149,86523,2,0,P|53:181|61:233,1,82.4500019500351,8|8,0:0|0:3,0:0:0:0:
10,353,86842,2,0,P|21:308|63:275,1,82.4500019500351,8|8,0:0|0:3,0:0:0:0:
177,176,87161,5,8,0:0:0:0:
203,180,87241,1,8,0:0:0:0:
229,184,87321,1,8,0:0:0:0:
256,187,87401,1,8,0:0:0:0:
283,191,87480,1,8,0:0:0:0:
336,275,87640,2,0,L|329:319,2,41.2250009750176,8|8|8,0:0|0:0|0:3,0:0:0:0:
373,170,87959,5,8,0:0:0:0:
411,277,88119,1,8,0:0:0:0:
484,151,88278,1,8,0:0:0:0:
484,151,88358,1,8,0:0:0:0:
484,151,88438,6,0,B|479:187|479:187|372:169,1,144.500002756119,14|10,0:3|0:0,0:0:0:0:
248,148,88917,2,0,P|235:114|241:79,1,72.2500013780594,2|8,0:0|0:3,0:0:0:0:
333,12,89236,2,0,P|347:44|345:80,1,72.2500013780594,10|8,0:3|0:0,0:0:0:0:
346,81,89555,1,2,0:0:0:0:
440,88,89714,6,0,L|528:74,2,72.2500013780594,8|8|8,0:3|0:3|0:0,0:0:0:0:
329,248,90353,6,0,L|318:176,1,72.2500013780594,10|8,0:3|0:3,0:0:0:0:
235,181,90672,2,0,L|246:109,1,72.2500013780594,10|0,0:0|0:0,0:0:0:0:
148,224,90991,6,0,P|107:232|76:219,1,72.2500013780594,10|0,0:3|0:0,0:0:0:0:
116,157,91310,1,10,0:0:0:0:
211,255,91470,2,0,P|220:214|207:183,1,72.2500013780594,2|8,0:0|0:3,0:0:0:0:
144,372,91789,2,0,P|135:337|145:303,1,72.2500013780594,10|8,0:3|0:0,0:0:0:0:
240,340,92108,1,2,0:0:0:0:
240,340,92268,6,0,L|312:329,2,72.2500013780594,8|8|8,0:3|0:3|0:0,0:0:0:0:
392,368,92906,6,0,L|464:357,2,72.2500013780594,10|2|10,0:3|0:0|0:0,0:0:0:0:
366,184,93544,6,0,B|403:177|403:177|384:284,1,144.500002756119,10|8,0:3|0:0,0:0:0:0:
310,329,94023,2,0,P|272:337|233:324,1,72.2500013780594,2|8,0:0|0:3,0:0:0:0:
194,256,94342,2,0,P|228:247|263:255,1,72.2500013780594,10|8,0:3|0:0,0:0:0:0:
263,255,94661,1,2,0:0:0:0:
304,172,94821,6,0,L|292:100,2,72.2500013780594,8|8|8,0:3|0:3|0:0,0:0:0:0:
411,256,95459,6,0,L|483:245,1,72.2500013780594,10|8,0:3|0:3,0:0:0:0:
512,155,95778,2,0,L|440:166,1,72.2500013780594,10|0,0:0|0:0,0:0:0:0:
323,133,96097,6,0,P|315:92|328:61,1,72.2500013780594,10|8,0:3|0:3,0:0:0:0:
390,101,96417,1,10,0:0:0:0:
292,196,96576,2,0,P|333:205|364:192,1,72.2500013780594,2|8,0:0|0:3,0:0:0:0:
240,120,96895,2,0,P|274:111|308:121,1,72.2500013780594,10|8,0:3|0:0,0:0:0:0:
211,206,97214,1,10,0:3:0:0:
211,206,97374,5,8,0:0:0:0:
175,86,97534,1,8,0:3:0:0:
36,317,97853,5,8,0:0:0:0:
36,317,98012,1,8,0:3:0:0:
109,340,98172,1,8,0:3:0:0:
172,284,98331,1,8,0:0:0:0:
85,189,98491,1,8,0:3:0:0:
85,189,98571,1,8,0:3:0:0:
85,189,98651,6,0,P|80:231|93:263,1,72.2500013780594,10|0,0:3|0:0,0:0:0:0:
157,219,98970,1,10,0:0:0:0:
80,116,99129,2,0,L|8:104,1,72.2500013780594,2|8,0:0|0:3,0:0:0:0:
152,148,99448,2,0,L|223:136,1,72.2500013780594,10|8,0:3|0:0,0:0:0:0:
154,9,99768,1,2,0:0:0:0:
154,9,99927,6,0,P|137:46|152:88,2,72.2500013780594,8|0|8,0:3|0:0|0:0,0:0:0:0:
320,153,100565,6,0,L|241:167,1,72.2500013780594,10|8,0:3|0:3,0:0:0:0:
227,95,100885,2,0,L|306:81,1,72.2500013780594,10|0,0:0|0:0,0:0:0:0:
450,129,101204,6,0,P|453:87|432:48,1,72.2500013780594,10|0,0:3|0:0,0:0:0:0:
376,99,101523,1,10,0:0:0:0:
435,207,101683,2,0,L|514:193,1,72.2500013780594,2|8,0:0|0:3,0:0:0:0:
368,174,102002,2,0,L|289:188,1,72.2500013780594,10|8,0:3|0:0,0:0:0:0:
376,328,102321,1,2,0:0:0:0:
376,328,102480,6,0,P|386:294|375:260,2,72.2500013780594,8|8|8,0:3|0:3|0:0,0:0:0:0:
166,301,103119,5,10,0:3:0:0:
166,301,103278,2,0,P|155:334|166:368,2,72.2500013780594,2|10|2,0:0|0:0|0:0,0:0:0:0:
282,218,103757,6,0,L|353:229,1,72.2500013780594,10|0,0:3|0:0,0:0:0:0:
302,296,104076,1,10,0:0:0:0:
212,216,104236,2,0,P|235:164|270:157,1,72.2500013780594,2|8,0:0|0:3,0:0:0:0:
225,291,104555,2,0,L|153:279,1,72.2500013780594,10|8,0:3|0:0,0:0:0:0:
41,232,104874,1,2,0:0:0:0:
41,232,105034,6,0,P|24:269|39:311,2,72.2500013780594,8|0|8,0:3|0:0|0:0,0:0:0:0:
210,107,105672,6,0,L|290:120,1,72.2500013780594,10|8,0:3|0:3,0:0:0:0:
336,183,105991,2,0,L|265:194,1,72.2500013780594,10|0,0:0|0:0,0:0:0:0:
123,129,106310,6,0,P|124:95|148:56,1,72.2500013780594,10|0,0:3|0:0,0:0:0:0:
199,113,106629,1,10,0:0:0:0:
105,200,106789,2,0,L|33:211,1,72.2500013780594,2|8,0:0|0:3,0:0:0:0:
176,223,107108,2,0,L|248:212,1,72.2500013780594,10|8,0:3|0:0,0:0:0:0:
105,287,107427,1,2,0:0:0:0:
105,287,107587,5,8,0:3:0:0:
242,384,107746,1,8,0:3:0:0:
242,384,107906,2,0,P|250:339|235:302,1,72.2500013780594,8|0,0:0|0:0,0:0:0:0:
148,352,108225,1,8,0:3:0:0:
148,352,108385,1,8,0:3:0:0:
188,241,108544,6,0,B|211:236|211:236|220:238|220:238|218:230|218:230|227:232|227:232|240:229,1,63.75,14|0,0:0|0:0,0:0:0:0:
270,238,108863,2,0,P|290:188|259:145,1,110.499994941712,6|0,0:0|0:0,0:0:0:0:
173,95,109183,6,0,P|156:58|167:20,1,80.7499978437424,10|0,0:3|0:0,0:0:0:0:
235,56,109502,1,10,0:0:0:0:
235,56,109661,1,10,0:3:0:0:
177,166,109821,2,0,L|94:153,1,80.7499978437424,2|0,0:0|0:0,0:0:0:0:
88,80,110140,5,10,0:3:0:0:
88,80,110300,1,10,0:0:0:0:
34,200,110459,2,0,P|17:163|28:125,1,80.7499978437424,10|8,0:3|0:3,0:0:0:0:
189,182,110778,1,10,0:0:0:0:
398,42,111097,6,0,B|375:47|375:47|366:45|366:45|368:53|368:53|359:51|359:51|346:54,1,63.75,6|0,0:0|0:0,0:0:0:0:
323,69,111417,2,0,P|303:119|334:162,1,110.499994941712,14|0,0:3|0:0,0:0:0:0:
426,272,111736,6,0,P|442:236|432:197,1,80.7499978437424,10|0,0:3|0:0,0:0:0:0:
363,233,112055,1,10,0:0:0:0:
383,337,112214,2,0,P|418:353|457:343,1,80.7499978437424,10|0,0:3|0:0,0:0:0:0:
505,283,112534,1,10,0:3:0:0:
317,301,112693,5,14,0:0:0:0:
317,301,112853,1,2,0:0:0:0:
254,344,113012,2,0,P|237:307|249:266,1,85,10|14,0:3|0:0,0:0:0:0:
427,283,113331,1,2,0:0:0:0:
313,171,113651,5,14,0:0:0:0:
377,128,113810,1,8,0:0:0:0:
313,171,113970,2,0,B|273:162|273:162|257:165|257:165|261:152|261:152|245:155|245:155|223:150,1,110.499994941712,14|0,0:3|0:0,0:0:0:0:
69,75,114289,6,0,P|51:110|57:149,1,80.7499978437424,10|0,0:3|0:0,0:0:0:0:
121,245,114608,2,0,P|139:209|133:170,2,80.7499978437424,10|8|0,0:0|0:3|0:0,0:0:0:0:
14,211,115087,1,0,0:0:0:0:
0,302,115246,5,10,0:3:0:0:
72,329,115406,1,10,0:0:0:0:
0,302,115565,2,0,L|80:314,1,80.7499978437424,10|8,0:3|0:3,0:0:0:0:
203,332,115885,1,10,0:0:0:0:
203,332,116044,1,8,0:3:0:0:
322,249,116204,2,0,L|242:261,1,80.7499978437424,10|0,0:3|0:0,0:0:0:0:
68,239,116523,5,10,0:0:0:0:
147,276,116842,5,2,0:0:0:0:
110,352,117161,5,10,0:0:0:0:
34,317,117480,5,2,0:0:0:0:
203,353,117800,6,0,B|218:326|218:326|257:342|257:342|281:285|281:285|258:203,1,191.250007295609,14|8,0:3|0:3,0:0:0:0:
265,230,118438,1,14,0:0:0:0:
122,202,118597,1,8,0:0:0:0:
122,202,118677,1,8,0:0:0:0:
122,202,118757,6,0,L|76:209,1,42.5,8|8,0:0|0:0,0:0:0:0:
16,232,118917,2,0,L|57:225,1,42.5,8|8,0:0|0:0,0:0:0:0:
208,170,119076,2,0,P|226:114|176:66,1,101.999996887207,14|8,0:3|0:3,0:0:0:0:
62,112,119395,1,8,0:0:0:0:
62,112,119714,6,0,P|57:79|79:32,1,72.2500013780594,10|8,0:3|0:3,0:0:0:0:
127,84,120034,1,8,0:0:0:0:
64,187,120193,6,0,P|98:178|125:154,1,72.2500013780594,6|0,0:0|0:0,0:0:0:0:
0,151,120512,1,10,0:3:0:0:
189,181,120672,2,0,P|183:116|127:84,1,136,10|10,0:0|0:3,0:0:0:0:
40,268,121310,6,0,B|63:263|63:263|72:265|72:265|70:257|70:257|79:259|79:259|92:256,1,63.75,14|0,0:0|0:0,0:0:0:0:
122,232,121629,2,0,P|91:275|111:324,1,110.499994941712,14|0,0:3|0:0,0:0:0:0:
244,365,121948,6,0,L|317:354,1,72.2500013780594,10|0,0:0|0:0,0:0:0:0:
429,334,122268,1,10,0:3:0:0:
429,334,122587,5,10,0:0:0:0:
496,370,122746,2,0,P|505:336|499:301,1,72.2500013780594,14|0,0:3|0:0,0:0:0:0:
428,205,123065,1,10,0:3:0:0:
376,256,123225,2,0,P|356:194|419:131,1,144.500002756119,10|8,0:0|0:3,0:0:0:0:
260,272,123863,6,0,B|237:267|237:267|228:269|228:269|230:261|230:261|221:263|221:263|208:260,1,63.75,14|0,0:0|0:0,0:0:0:0:
178,236,124183,2,0,P|208:279|188:328,1,110.499994941712,14|0,0:3|0:0,0:0:0:0:
97,184,124502,1,10,0:0:0:0:
97,184,124821,6,0,P|91:150|113:103,1,72.2500013780594,10|8,0:3|0:3,0:0:0:0:
161,155,125140,1,10,0:0:0:0:
88,267,125300,6,0,P|61:287|10:292,1,72.2500013780594,14|0,0:3|0:0,0:0:0:0:
31,224,125619,1,10,0:3:0:0:
144,306,125778,2,0,P|151:237|96:195,1,144.500002756119,10|8,0:0|0:0,0:0:0:0:
62,382,126257,1,8,0:3:0:0:
62,382,126337,1,8,0:3:0:0:
62,382,126417,6,0,L|121:373,1,50.9999984436036,10|8,0:0|0:3,0:0:0:0:
195,383,126736,2,0,L|254:374,1,50.9999984436036,10|0,0:3|0:0,0:0:0:0:
312,228,127055,2,0,B|235:218|235:218|247:292,1,152.999995330811,10|0,0:0|0:0,0:0:0:0:
404,360,127693,6,0,L|393:290,1,68,10|8,0:0|0:3,0:0:0:0:
436,224,128012,2,0,L|425:154,1,68,10|0,0:3|0:0,0:0:0:0:
280,148,128331,2,0,B|271:215|271:215|337:205,1,136,10|8,0:0|0:3,0:0:0:0:
338,205,128810,1,0,0:0:0:0:
396,56,128970,6,0,L|312:70,1,68,10|8,0:0|0:3,0:0:0:0:
220,96,129289,2,0,P|231:55|219:15,1,85,14|8,0:0|0:3,0:0:0:0:
159,55,129608,2,0,P|118:43|78:55,1,85,10|8,0:0|0:0,0:0:0:0:
119,116,129927,2,0,P|107:156|119:196,1,85,8|8,0:0|0:0,0:0:0:0:
179,156,130246,2,0,P|219:167|259:155,1,85,2|0,0:0|0:0,0:0:0:0:
384,24,130565,5,6,0:0:0:0:
405,41,131842,6,0,P|420:81|404:122,1,89.2499972763062,14|0,0:3|0:0,0:0:0:0:
283,212,132161,1,10,0:0:0:0:
283,212,132480,6,0,P|266:172|282:131,2,89.2499972763062,10|8|8,0:3|0:3|0:0,0:0:0:0:
349,172,132959,1,0,0:0:0:0:
329,283,133119,6,0,B|352:256|352:256|425:244|425:244|438:171,1,178.499994552612,10|8,0:3|0:0,0:0:0:0:
357,159,133597,1,0,0:0:0:0:
406,339,133757,2,0,P|448:337|490:298,1,89.2499972763062,10|8,0:3|0:3,0:0:0:0:
422,258,134076,1,10,0:0:0:0:
422,258,134236,1,0,0:0:0:0:
262,337,134395,6,0,P|244:303|252:267,1,76.4999976654053,10|8,0:3|0:3,0:0:0:0:
318,146,134714,2,0,P|335:179|327:215,1,76.4999976654053,10|0,0:0|0:0,0:0:0:0:
178,236,135034,2,0,L|79:220,1,89.2499972763062,10|8,0:3|0:3,0:0:0:0:
22,322,135353,2,0,L|110:307,1,89.2499972763062,10|0,0:0|0:0,0:0:0:0:
275,273,135672,6,0,B|241:258|241:258|260:348|260:348|314:371,1,178.499994552612,10|8,0:3|0:0,0:0:0:0:
377,281,136151,1,0,0:0:0:0:
377,281,136310,2,0,L|362:192,1,89.2499972763062,10|8,0:3|0:3,0:0:0:0:
342,85,136629,1,10,0:0:0:0:
409,130,136789,1,0,0:0:0:0:
277,121,136948,6,0,P|268:77|284:36,1,89.2499972763062,10|0,0:3|0:0,0:0:0:0:
414,57,137268,1,10,0:0:0:0:
414,57,137587,6,0,P|430:99|422:142,2,89.2499972763062,10|8|8,0:3|0:3|0:0,0:0:0:0:
292,136,138065,1,0,0:0:0:0:
385,200,138225,2,0,P|429:211|472:190,1,89.2499972763062,10|0,0:3|0:0,0:0:0:0:
356,105,138544,1,8,0:0:0:0:
177,271,138863,6,0,L|89:257,1,89.2499972763062,10|8,0:3|0:3,0:0:0:0:
148,189,139183,1,10,0:0:0:0:
148,189,139342,1,0,0:0:0:0:
291,187,139502,6,0,P|303:144|289:103,1,89.2499972763062,10|8,0:3|0:3,0:0:0:0:
193,8,139821,2,0,P|180:51|194:92,1,89.2499972763062,10|0,0:0|0:0,0:0:0:0:
276,203,140140,2,0,L|365:189,1,89.2499972763062,10|8,0:3|0:3,0:0:0:0:
482,87,140459,2,0,L|394:101,1,89.2499972763062,10|0,0:0|0:0,0:0:0:0:
380,261,140778,6,0,B|467:276|467:276|451:189,1,178.499994552612,10|8,0:0|0:0,0:0:0:0:
340,60,141257,1,8,0:0:0:0:
340,60,141337,1,8,0:0:0:0:
340,60,141417,2,0,L|252:74,1,89.2499972763062,10|8,0:0|0:0,0:0:0:0:
96,99,141736,5,8,0:0:0:0:
93,81,141815,1,8,0:0:0:0:
90,63,141895,1,8,0:0:0:0:
88,46,141975,1,8,0:0:0:0:
85,28,142055,6,0,P|126:12|167:28,1,89.2499972763062,14|0,0:3|0:0,0:0:0:0:
164,157,142374,1,10,0:0:0:0:
164,157,142693,6,0,P|123:173|82:157,1,89.2499972763062,10|8,0:3|0:3,0:0:0:0:
0,249,143012,2,0,P|-16:208|0:167,1,89.2499972763062,10|0,0:0|0:0,0:0:0:0:
122,95,143331,5,10,0:3:0:0:
122,95,143491,1,8,0:3:0:0:
83,255,143651,1,8,0:0:0:0:
83,255,143970,6,0,L|171:241,1,89.2499972763062,10|8,0:3|0:3,0:0:0:0:
252,290,144289,1,10,0:0:0:0:
252,290,144448,1,0,0:0:0:0:
400,166,144608,6,0,P|393:209|415:247,1,89.2499972763062,10|8,0:3|0:3,0:0:0:0:
512,312,144927,2,0,P|518:268|496:230,1,89.2499972763062,10|0,0:0|0:0,0:0:0:0:
352,336,145246,2,0,P|395:342|433:320,1,89.2499972763062,10|8,0:3|0:3,0:0:0:0:
314,261,145565,2,0,P|270:254|232:276,1,89.2499972763062,10|0,0:0|0:0,0:0:0:0:
112,367,145885,6,0,P|34:349|56:272,1,178.499994552612,10|8,0:3|0:0,0:0:0:0:
135,297,146363,1,0,0:0:0:0:
185,189,146523,2,0,P|191:145|169:107,1,89.2499972763062,8|8,0:3|0:3,0:0:0:0:
89,44,146842,1,10,0:0:0:0:
38,111,147002,1,0,0:0:0:0:
89,44,147161,6,0,L|177:30,1,89.2499972763062,10|0,0:3|0:0,0:0:0:0:
245,77,147480,2,0,L|333:63,1,89.2499972763062,10|0,0:0|0:0,0:0:0:0:
476,27,147800,2,0,P|449:64|462:116,1,89.2499972763062,10|8,0:3|0:3,0:0:0:0:
366,137,148119,2,0,P|393:174|380:226,1,89.2499972763062,10|0,0:0|0:0,0:0:0:0:
456,308,148438,6,0,B|489:297|489:297|412:281|412:281|345:293,1,178.499994552612,10|8,0:3|0:0,0:0:0:0:
347,292,148917,1,0,0:0:0:0:
230,361,149076,2,0,P|209:322|216:279,1,89.2499972763062,10|8,0:3|0:3,0:0:0:0:
273,194,149395,1,10,0:0:0:0:
273,194,149555,1,0,0:0:0:0:
127,272,149714,6,0,L|39:258,1,89.2499972763062,10|8,0:3|0:3,0:0:0:0:
5,152,150034,2,0,L|93:166,1,89.2499972763062,10|0,0:0|0:0,0:0:0:0:
261,124,150353,2,0,P|282:85|273:42,1,89.2499972763062,10|8,0:3|0:3,0:0:0:0:
190,88,150672,2,0,P|168:126|177:169,1,89.2499972763062,10|0,0:0|0:0,0:0:0:0:
298,267,150991,5,14,0:3:0:0:
256,192,151071,12,0,152108,0:0:0:0:
256,192,152268,5,14,0:3:0:0:
256,192,153544,5,14,0:3:0:0:
184,220,154183,1,14,0:3:0:0:
112,248,154821,1,14,0:3:0:0:
112,248,155300,5,0,0:0:0:0:
112,248,155459,1,10,0:3:0:0:
184,220,155619,1,0,0:0:0:0:
256,192,155778,1,8,0:3:0:0:
256,192,156097,5,8,0:3:0:0:
177,113,156417,1,8,0:3:0:0:
256,36,156736,1,10,0:0:0:0:
332,113,157055,1,8,0:3:0:0:
332,113,157214,1,8,0:0:0:0:
178,135,157374,6,0,B|138:141|138:141|100:135|100:135|61:142,1,118.999996368408,10|8,0:3|0:3,0:0:0:0:
4,243,158012,2,0,B|43:236|43:236|82:243|82:243|121:236,1,118.999996368408,10|0,0:0|0:0,0:0:0:0:
293,198,158651,5,8,0:3:0:0:
204,318,158970,1,8,0:3:0:0:
346,273,159289,1,10,0:0:0:0:
204,226,159608,1,0,0:0:0:0:
293,348,159927,5,14,0:3:0:0:
256,192,160007,12,2,161204,0:0:0:0:
187,121,163438,5,2,0:0:0:0:
242,59,163597,1,2,0:0:0:0:
187,121,163757,2,0,B|153:126|153:126|120:121|120:121|87:126,1,101.999996887207,2|2,0:0|0:0,0:0:0:0:
44,44,164395,2,0,B|77:38|77:38|110:44|110:44|143:38,1,101.999996887207,10|2,0:0|0:0,0:0:0:0:
292,136,165034,2,0,B|258:141|258:141|225:136|225:136|192:141,1,101.999996887207,2|2,0:0|0:0,0:0:0:0:
31,247,165672,1,10,0:0:0:0:
31,247,165831,1,2,0:0:0:0:
115,268,165991,2,0,B|148:274|148:274|181:269|181:269|214:274,1,101.999996887207,2|2,0:0|0:0,0:0:0:0:
245,206,168544,5,2,0:0:0:0:
280,279,168704,1,2,0:0:0:0:
245,206,168863,2,0,B|278:200|278:200|311:206|311:206|344:200,1,101.999996887207,2|2,0:0|0:0,0:0:0:0:
483,267,169502,2,0,B|449:272|449:272|416:267|416:267|383:272,1,101.999996887207,10|2,0:0|0:0,0:0:0:0:
365,123,170140,2,0,B|398:128|398:128|431:123|431:123|464:128,2,101.999996887207,2|2|10,0:0|0:0|0:0,0:0:0:0:
302,61,170938,1,2,0:0:0:0:
302,61,171097,2,0,B|268:66|268:66|235:61|235:61|202:66,1,101.999996887207,2|6,0:0|0:0,0:0:0:0:
271,135,173651,5,2,0:0:0:0:
195,98,173810,1,10,0:0:0:0:
271,135,173970,2,0,B|304:140|304:140|337:135|337:135|370:140,1,101.999996887207,6|2,0:0|0:0,0:0:0:0:
498,60,174608,2,0,B|464:65|464:65|431:60|431:60|398:65,1,101.999996887207,14|2,0:0|0:0,0:0:0:0:
299,148,175246,2,0,B|265:142|265:142|232:147|232:147|199:142,1,101.999996887207,6|2,0:0|0:0,0:0:0:0:
51,101,175885,1,14,0:0:0:0:
51,101,176044,1,2,0:0:0:0:
128,60,176204,2,0,B|161:65|161:65|194:60|194:60|227:65,1,101.999996887207,2|6,0:0|0:0,0:0:0:0:
144,114,178757,5,2,0:0:0:0:
144,114,179076,2,0,B|177:119|177:119|210:114|210:114|243:119,1,101.999996887207,6|2,0:0|0:0,0:0:0:0:
366,87,179714,1,14,0:0:0:0:
366,87,179874,1,2,0:0:0:0:
338,177,180034,1,2,0:0:0:0:
338,177,180353,2,0,B|372:171|372:171|405:176|405:176|438:171,1,101.999996887207,6|2,0:0|0:0,0:0:0:0:
358,271,180991,2,0,B|323:265|323:265|290:270|290:270|257:265,1,101.999996887207,14|2,0:0|0:0,0:0:0:0:
126,341,181629,5,6,0:0:0:0:
47,304,181948,1,2,0:0:0:0:
84,228,182268,1,14,0:0:0:0:
160,263,182587,1,2,0:0:0:0:
52,384,182906,5,6,0:0:0:0:
2,203,183225,1,2,0:0:0:0:
178,252,183544,1,10,0:0:0:0:
84,278,183704,5,8,0:0:0:0:
87,254,183784,1,8,0:0:0:0:
91,232,183863,1,8,0:0:0:0:
94,209,183943,1,8,0:0:0:0:
99,187,184023,1,8,0:0:0:0:
102,164,184103,1,8,0:0:0:0:
106,142,184183,6,0,L|173:152,1,68,10|8,0:0|0:3,0:0:0:0:
330,171,184502,1,12,0:0:0:0:
307,79,184661,1,0,0:0:0:0:
372,113,184821,1,10,0:3:0:0:
349,21,184980,1,8,0:3:0:0:
248,127,185140,2,0,P|227:89|238:39,1,79.8999987808228,8|0,0:0|0:0,0:0:0:0:
404,158,185459,5,10,0:3:0:0:
404,158,185619,2,0,L|316:171,1,85,10|8,0:3|0:0,0:0:0:0:
176,199,185938,2,0,L|263:212,1,85,2|8,0:0|0:3,0:0:0:0:
383,289,186257,1,10,0:3:0:0:
321,328,186417,2,0,P|313:263|340:231,1,85,8|0,0:0|0:0,0:0:0:0:
478,283,186736,5,10,0:3:0:0:
478,283,186895,1,8,0:3:0:0:
512,200,187055,2,0,L|424:213,1,85,8|0,0:0|0:0,0:0:0:0:
285,238,187374,1,10,0:3:0:0:
309,169,187534,1,8,0:3:0:0:
403,281,187693,1,8,0:0:0:0:
214,251,187853,1,0,0:0:0:0:
428,213,188012,5,10,0:3:0:0:
331,292,188172,1,8,0:3:0:0:
382,156,188331,1,8,0:0:0:0:
403,281,188491,1,0,0:0:0:0:
317,172,188651,6,0,P|321:127|352:97,1,85,10|8,0:3|0:3,0:0:0:0:
454,143,188970,1,8,0:0:0:0:
365,236,189129,1,8,0:0:0:0:
365,236,189209,1,8,0:0:0:0:
365,236,189289,6,0,P|327:254|286:246,1,85,10|8,0:3|0:3,0:0:0:0:
228,166,189608,1,8,0:0:0:0:
130,250,189768,2,0,P|110:219|121:169,1,85,2|0,0:0|0:0,0:0:0:0:
232,310,190087,2,0,L|144:323,1,85,8|8,0:3|0:0,0:0:0:0:
31,344,190406,1,0,0:0:0:0:
142,252,190565,5,10,0:3:0:0:
92,380,190725,1,8,0:3:0:0:
26,339,190885,2,0,P|10:296|27:258,1,85,8|0,0:0|0:0,0:0:0:0:
131,167,191204,1,10,0:3:0:0:
131,167,191363,2,0,P|145:206|130:244,1,85,8|8,0:3|0:0,0:0:0:0:
18,120,191683,1,0,0:0:0:0:
18,120,191842,6,0,L|73:111,2,42.5000016212464,2|0|0,0:0|0:0|0:0,0:0:0:0:
151,89,192161,5,8,0:0:0:0:
64,192,192321,1,0,0:0:0:0:
95,37,192480,1,10,0:3:0:0:
210,138,192640,2,0,P|175:161|134:159,1,85,8|8,0:3|0:0,0:0:0:0:
165,16,192959,1,0,0:0:0:0:
310,133,193119,6,0,B|345:146|345:146|397:133|403:85|373:39,1,170,14|8,0:0|0:3,0:0:0:0:
237,80,193597,2,0,P|217:123|248:172,1,85,10|8,0:0|0:3,0:0:0:0:
302,122,193917,1,8,0:3:0:0:
146,61,194076,6,0,B|123:65|123:65|114:63|114:63|116:71|116:71|107:69|107:69|94:72,1,63.75,6|0,0:0|0:0,0:0:0:0:
80,62,194395,2,0,B|111:17|111:17|156:48,1,110.499994941712,14|0,0:3|0:0,0:0:0:0:
263,182,194714,6,0,P|229:199|191:196,1,76.4999976654053,10|0,0:3|0:0,0:0:0:0:
213,120,195034,1,10,0:0:0:0:
213,120,195193,1,10,0:3:0:0:
152,264,195353,2,0,P|124:238|114:202,1,76.4999976654053,2|0,0:0|0:0,0:0:0:0:
120,88,195672,5,10,0:3:0:0:
193,122,195831,1,10,0:0:0:0:
110,73,195991,1,10,0:3:0:0:
206,36,196151,1,10,0:3:0:0:
60,133,196310,2,0,P|35:104|34:66,1,76.4999976654053,10|8,0:0|0:3,0:0:0:0:
218,168,196629,6,0,B|205:170|205:170|196:168|196:168|198:176|198:176|189:174|189:174|166:179,1,63.75,6|0,0:0|0:0,0:0:0:0:
156,192,196948,2,0,B|200:223|200:223|232:178,1,110.499994941712,14|0,0:3|0:0,0:0:0:0:
312,46,197268,1,10,0:3:0:0:
312,46,197587,6,0,L|323:121,1,76.4999976654053,10|8,0:0|0:3,0:0:0:0:
336,215,197906,1,2,0:0:0:0:
397,153,198065,1,10,0:3:0:0:
419,244,198225,5,6,0:0:0:0:
508,214,198385,2,0,L|423:229,1,76.4999976654053,10|8,0:3|0:3,0:0:0:0:
354,303,198704,1,10,0:0:0:0:
443,333,198863,2,0,L|358:318,1,76.4999976654053,10|8,0:3|0:3,0:0:0:0:
178,349,199183,6,0,B|180:336|180:336|178:327|178:327|186:329|186:329|184:320|184:320|189:297,1,63.75,14|0,0:0|0:0,0:0:0:0:
202,287,199502,2,0,B|233:331|233:331|188:363,1,110.499994941712,14|0,0:3|0:0,0:0:0:0:
27,245,199821,1,10,0:3:0:0:
27,245,200140,6,0,L|112:260,1,76.4999976654053,10|8,0:0|0:3,0:0:0:0:
179,212,200459,1,2,0:0:0:0:
179,212,200619,1,2,0:0:0:0:
109,177,200778,5,10,0:3:0:0:
177,282,200938,1,10,0:0:0:0:
273,178,201097,2,0,L|188:193,1,76.4999976654053,10|8,0:3|0:3,0:0:0:0:
44,226,201417,1,10,0:0:0:0:
44,226,201576,1,0,0:0:0:0:
143,336,201736,2,0,P|156:300|150:263,1,76.4999976654053,10|0,0:3|0:0,0:0:0:0:
19,140,202055,5,10,0:3:0:0:
63,236,202374,5,10,0:3:0:0:
155,192,202693,5,10,0:0:0:0:
112,100,203012,5,10,0:0:0:0:
39,267,203331,6,0,B|14:246|14:246|52:252|52:252|97:243|97:243|130:262|130:262|187:265,1,191.250007295609,14|8,0:3|0:3,0:0:0:0:
219,206,203970,1,14,0:0:0:0:
236,329,204129,1,8,0:0:0:0:
236,329,204209,1,8,0:0:0:0:
236,329,204289,6,0,L|282:322,1,36.5500005577087,8|8,0:0|0:0,0:0:0:0:
338,265,204448,2,0,L|379:258,1,36.5500005577087,8|8,0:0|0:0,0:0:0:0:
478,311,204608,2,0,P|496:264|480:217,1,101.999996887207,14|0,0:3|0:0,0:0:0:0:
364,121,204927,1,10,0:0:0:0:
364,121,205246,6,0,P|347:154|349:192,1,76.4999976654053,10|8,0:3|0:3,0:0:0:0:
422,171,205565,1,8,0:0:0:0:
512,86,205725,6,0,L|430:72,1,76.4999976654053,14|0,0:3|0:0,0:0:0:0:
483,6,206044,1,10,0:3:0:0:
366,119,206204,2,0,B|332:123|332:123|291:112|291:112|218:131,1,152.999995330811,10|8,0:0|0:3,0:0:0:0:
214,211,206683,1,8,0:3:0:0:
130,91,206842,6,0,B|128:104|128:104|130:113|130:113|122:111|122:111|124:120|124:120|119:143,1,63.75,14|0,0:0|0:0,0:0:0:0:
139,168,207161,2,0,B|119:119|119:119|84:165,1,110.499994941712,14|0,0:3|0:0,0:0:0:0:
15,298,207480,5,10,0:0:0:0:
96,271,207640,1,2,0:0:0:0:
8,308,207800,1,10,0:3:0:0:
105,340,207959,1,10,0:3:0:0:
2,319,208119,1,10,0:0:0:0:
201,384,208278,6,0,P|210:350|194:300,1,78.199997374878,14|0,0:3|0:0,0:0:0:0:
112,350,208597,1,10,0:3:0:0:
233,246,208757,2,0,B|220:231|220:231|152:247|152:247|94:235,1,136,10|10,0:0|0:3,0:0:0:0:
149,169,209236,1,8,0:3:0:0:
11,244,209395,6,0,B|13:231|13:231|11:222|11:222|19:224|19:224|17:215|17:215|22:192,1,63.75,14|0,0:0|0:0,0:0:0:0:
2,167,209714,2,0,B|21:215|21:215|56:169,1,110.499994941712,14|0,0:3|0:0,0:0:0:0:
136,30,210034,1,10,0:0:0:0:
136,30,210353,6,0,L|54:16,1,79.050002472725,10|8,0:3|0:3,0:0:0:0:
91,102,210672,1,10,0:0:0:0:
209,0,210831,6,0,P|216:35|191:86,1,79.050002472725,14|0,0:3|0:0,0:0:0:0:
106,107,211151,1,10,0:0:0:0:
193,162,211310,2,0,B|238:139|275:172|278:172|281:172|310:190|352:168,1,158.10000494545,10|8,0:0|0:0,0:0:0:0:
468,101,211789,1,8,0:3:0:0:
468,101,211869,1,8,0:3:0:0:
468,101,211948,6,0,L|459:42,1,50.9999984436036,10|0,0:0|0:0,0:0:0:0:
364,10,212268,2,0,L|371:60,1,50.9999984436036,10|8,0:3|0:3,0:0:0:0:
441,189,212587,2,0,B|518:199|518:199|506:125,1,152.999995330811,10|8,0:0|0:3,0:0:0:0:
356,224,213225,6,0,L|366:291,1,68,10|8,0:0|0:3,0:0:0:0:
453,359,213544,2,0,L|442:289,1,68,10|8,0:3|0:3,0:0:0:0:
266,316,213863,2,0,B|257:383|257:383|323:373,1,136,10|8,0:0|0:3,0:0:0:0:
324,372,214342,1,8,0:3:0:0:
256,225,214502,6,0,L|172:239,1,68,10|8,0:0|0:3,0:0:0:0:
65,319,214821,2,0,P|47:277|68:235,1,87.5499992652512,10|8,0:0|0:3,0:0:0:0:
0,168,215140,2,0,P|42:149|84:171,1,87.5499992652512,10|8,0:0|0:3,0:0:0:0:
192,250,215459,5,8,0:0:0:0:
195,222,215539,1,8,0:0:0:0:
199,196,215619,1,8,0:0:0:0:
202,169,215698,1,8,0:0:0:0:
206,143,215778,2,0,L|249:150,1,43.7749996326256,8|8,0:3|0:3,0:0:0:0:
331,225,215938,2,0,L|287:217,1,43.7749996326256,8|8,0:3|0:3,0:0:0:0:
107,190,216097,5,2,0:0:0:0:
256,192,216177,12,14,217374,0:3:0:0:
195,103,226151,5,8,0:3:0:0:
195,103,226230,1,8,0:3:0:0:
195,103,226310,1,10,0:0:0:0:
174,168,226470,1,8,0:3:0:0:
220,219,226629,1,8,0:3:0:0:
241,154,226789,1,8,0:3:0:0:
107,182,226948,5,10,0:3:0:0:
107,182,227108,1,8,0:3:0:0:
263,88,227268,1,8,0:3:0:0:
71,14,227587,6,0,L|80:77,1,63.7500024318696,10|0,0:3|0:0,0:0:0:0:
56,154,227906,2,0,L|119:144,1,63.7500024318696,10|0,0:3|0:0,0:0:0:0:
196,169,228225,2,0,L|186:105,1,63.7500024318696,10|0,0:0|0:0,0:0:0:0:
211,29,228544,2,0,L|147:38,1,63.7500024318696,10|8,0:3|0:0,0:0:0:0:
0,61,228863,5,10,0:3:0:0:
0,61,229183,1,8,0:3:0:0:
43,242,229502,6,0,L|106:232,1,63.7500024318696,10|0,0:0|0:0,0:0:0:0:
178,273,229821,2,0,L|241:263,1,63.7500024318696,10|0,0:3|0:0,0:0:0:0:
318,369,230140,6,0,L|327:305,1,63.7500024318696,2|0,0:0|0:0,0:0:0:0:
344,180,230459,1,10,0:3:0:0:
344,180,230778,6,0,L|280:189,1,63.7500024318696,10|0,0:0|0:3,0:0:0:0:
151,253,231097,2,0,L|214:243,1,63.7500024318696,10|0,0:3|0:0,0:0:0:0:
345,324,231417,6,0,P|301:366|241:353,2,127.500004863739,10|8|8,0:3|0:3|0:0,0:0:0:0:
309,148,232374,5,10,0:3:0:0:
448,187,232693,6,0,L|384:196,1,63.7500024318696,10|0,0:3|0:0,0:0:0:0:
268,266,233012,2,0,L|332:257,1,63.7500024318696,10|0,0:3|0:0,0:0:0:0:
448,187,233331,2,0,L|438:123,1,63.7500024318696,10|0,0:0|0:0,0:0:0:0:
375,8,233651,2,0,L|365:71,1,63.7500024318696,10|0,0:3|0:0,0:0:0:0:
340,229,233970,5,10,0:3:0:0:
340,229,234289,1,8,0:3:0:0:
494,264,234608,6,0,L|430:273,1,63.7500024318696,10|0,0:0|0:0,0:0:0:0:
366,327,234927,2,0,L|302:317,1,63.7500024318696,10|0,0:3|0:0,0:0:0:0:
109,287,235246,5,2,0:0:0:0:
79,241,236523,6,0,L|47:236,2,31.8750012159348,8|8|8,0:3|0:3|0:3,0:0:0:0:
154,294,236842,2,0,L|185:298,2,31.8750012159348,8|8|8,0:3|0:3|0:3,0:0:0:0:
91,155,237161,1,8,0:0:0:0:
193,208,237321,5,8,0:0:0:0:
219,204,237401,1,8,0:0:0:0:
245,200,237480,1,8,0:0:0:0:
271,197,237560,1,8,0:0:0:0:
298,193,237640,1,8,0:0:0:0:
324,189,237720,1,8,0:0:0:0:
350,186,237800,6,0,P|365:146|344:96,1,96.0500002931213,14|0,0:3|0:0,0:0:0:0:
261,113,238119,1,10,0:0:0:0:
261,113,238278,1,0,0:0:0:0:
388,36,238438,2,0,P|348:21|292:41,1,96.0500002931213,10|8,0:3|0:3,0:0:0:0:
252,125,238757,1,10,0:0:0:0:
252,125,238917,1,0,0:0:0:0:
337,222,239076,6,0,B|347:191|347:191|247:222|247:222|172:187,1,192.100000586243,10|8,0:3|0:0,0:0:0:0:
251,139,239555,1,0,0:0:0:0:
119,235,239714,2,0,P|106:192|135:138,1,96.0500002931213,10|8,0:3|0:3,0:0:0:0:
193,272,240034,1,10,0:0:0:0:
193,272,240193,1,0,0:0:0:0:
99,365,240353,6,0,L|3:351,1,96.0500002931213,10|8,0:3|0:3,0:0:0:0:
50,275,240672,1,10,0:0:0:0:
50,275,240831,1,0,0:0:0:0:
173,363,240991,2,0,L|77:376,1,96.0500002931213,10|8,0:3|0:3,0:0:0:0:
103,224,241310,1,10,0:0:0:0:
103,224,241629,6,0,B|79:200|79:200|-2:207,2,96.0500002931213,10|8|8,0:3|0:3|0:0,0:0:0:0:
194,291,242108,1,0,0:0:0:0:
194,291,242268,2,0,B|187:278|187:278|191:184,1,96.0500002931213,10|8,0:3|0:3,0:0:0:0:
203,59,242587,1,10,0:0:0:0:
355,186,242906,6,0,P|309:201|262:187,1,96.0500002931213,10|0,0:3|0:0,0:0:0:0:
303,124,243225,2,0,P|348:108|395:122,1,96.0500002931213,10|0,0:0|0:0,0:0:0:0:
484,218,243544,2,0,P|468:172|482:125,1,96.0500002931213,10|8,0:3|0:3,0:0:0:0:
505,20,243863,2,0,P|520:65|506:112,1,96.0500002931213,10|0,0:0|0:0,0:0:0:0:
391,123,244183,5,10,0:3:0:0:
444,67,244342,1,0,0:0:0:0:
495,220,244502,1,8,0:0:0:0:
495,220,244821,6,0,L|393:236,1,96.0500002931213,10|8,0:3|0:3,0:0:0:0:
462,301,245140,1,10,0:0:0:0:
462,301,245300,1,0,0:0:0:0:
339,186,245459,6,0,P|323:232|336:279,1,96.0500002931213,10|8,0:3|0:3,0:0:0:0:
472,359,245778,1,10,0:0:0:0:
447,287,245938,1,0,0:0:0:0:
371,366,246097,2,0,L|272:350,1,96.0500002931213,10|8,0:3|0:3,0:0:0:0:
221,280,246417,1,10,0:0:0:0:
285,240,246576,1,0,0:0:0:0:
205,289,246736,6,0,B|110:305|110:305|128:211,1,192.100000586243,10|8,0:0|0:0,0:0:0:0:
239,173,247214,5,8,0:0:0:0:
239,173,247294,1,8,0:0:0:0:
239,173,247374,2,0,L|222:71,1,96.0500002931213,10|8,0:0|0:0,0:0:0:0:
97,31,247693,5,10,0:0:0:0:
79,28,247773,1,8,0:0:0:0:
61,25,247853,1,8,0:0:0:0:
44,23,247933,1,8,0:0:0:0:
26,20,248012,6,0,P|11:69|30:119,1,96.0500002931213,14|0,0:3|0:0,0:0:0:0:
121,138,248331,1,10,0:0:0:0:
60,184,248491,1,0,0:0:0:0:
121,138,248651,6,0,P|133:183|118:228,1,96.0500002931213,10|8,0:3|0:3,0:0:0:0:
6,256,248970,1,10,0:0:0:0:
56,190,249129,1,0,0:0:0:0:
166,296,249289,6,0,P|114:309|66:287,1,96.0500002931213,10|8,0:3|0:3,0:0:0:0:
200,224,249608,1,8,0:0:0:0:
241,344,249768,1,0,0:0:0:0:
241,344,249847,1,8,0:0:0:0:
241,344,249927,2,0,L|345:327,1,96.0500002931213,10|8,0:3|0:3,0:0:0:0:
285,252,250246,1,8,0:0:0:0:
285,252,250406,1,0,0:0:0:0:
419,374,250565,5,10,0:3:0:0:
389,264,250725,1,8,0:3:0:0:
333,344,250885,1,8,0:0:0:0:
464,291,251044,1,0,0:0:0:0:
316,335,251204,6,0,P|293:298|310:227,1,96.0500002931213,10|8,0:3|0:3,0:0:0:0:
296,247,251523,1,8,0:0:0:0:
373,274,251683,1,0,0:0:0:0:
438,215,251842,6,0,P|461:255|457:302,1,96.0500002931213,10|8,0:3|0:3,0:0:0:0:
457,302,252161,1,8,0:0:0:0:
512,366,252321,2,0,L|407:382,1,96.0500002931213,0|10,0:0|0:3,0:0:0:0:
382,264,252640,1,8,0:3:0:0:
301,342,252800,1,8,0:0:0:0:
300,342,253119,6,0,P|258:363|214:347,1,96.0500002931213,14|8,0:3|0:3,0:0:0:0:
160,284,253438,2,0,P|201:262|245:278,1,96.0500002931213,10|0,0:0|0:0,0:0:0:0:
365,330,253757,2,0,B|352:367|352:367|320:293|320:293|338:210,1,192.100000586243,10|8,0:3|0:0,0:0:0:0:
414,263,254236,1,0,0:0:0:0:
512,179,254395,6,0,P|466:193|421:180,1,96.0500002931213,10|8,0:3|0:3,0:0:0:0:
462,116,254714,1,8,0:0:0:0:
387,88,254874,1,0,0:0:0:0:
387,88,254954,1,8,0:0:0:0:
387,88,255034,2,0,L|282:104,1,96.0500002931213,10|8,0:3|0:3,0:0:0:0:
169,51,255353,2,0,L|263:35,1,96.0500002931213,8|8,0:0|0:3,0:0:0:0:
206,198,255672,5,12,0:0:0:0:
192,129,255831,1,8,0:3:0:0:
272,220,255991,1,12,0:0:0:0:
174,122,256151,1,8,0:3:0:0:
128,259,256310,5,12,0:0:0:0:
94,197,256470,1,8,0:3:0:0:
91,318,256629,1,12,0:0:0:0:
103,180,256789,1,8,0:3:0:0:
254,237,256948,6,0,L|128:259,1,128.066667057495,14|8,0:0|0:3,0:0:0:0:
103,340,257268,6,0,L|124:379,2,44.7666677596029,8|8|8,0:0|0:0|0:0,0:0:0:0:
13,328,257587,5,8,0:0:0:0:
13,328,257693,2,0,L|27:285,1,44.7666677596029,8|8,0:0|0:0,0:0:0:0:
83,216,257906,5,8,0:3:0:0:
83,216,258012,2,0,L|72:172,1,44.7666677596029,8|8,0:3|0:3,0:0:0:0:
36,40,258225,5,2,0:0:0:0:
36,40,258544,1,2,0:0:0:0:
122,116,258863,2,0,P|181:118|176:22,1,170,2|2,0:0|0:0,0:0:0:0:
14,209,260140,5,2,0:0:0:0:
95,206,260459,1,2,0:0:0:0:
7,222,260778,5,2,0:0:0:0:
163,250,261097,1,2,0:0:0:0:
37,296,261417,1,2,0:0:0:0:
14,147,261736,1,2,0:0:0:0:
15,309,262055,6,0,B|45:297|45:297|95:319|95:319|117:311|117:311|189:319,1,170,2|2,0:0|0:0,0:0:0:0:
176,317,263012,1,2,0:0:0:0:
402,261,263331,5,2,0:0:0:0:
296,252,263651,1,2,0:0:0:0:
456,206,263970,1,2,0:0:0:0:
319,328,264289,1,2,0:0:0:0:
389,189,264608,6,0,P|468:187|492:263,1,170,2|2,0:0|0:0,0:0:0:0:
429,332,265565,1,2,0:0:0:0:
242,235,265885,5,2,0:0:0:0:
353,271,266204,1,2,0:0:0:0:
242,307,266523,1,2,0:0:0:0:
311,213,266842,1,2,0:0:0:0:
311,330,267161,5,2,0:0:0:0:
256,192,267241,12,0,268544,0:0:0:0:
