osu file format v14

[General]
AudioFilename: audio.mp3
AudioLeadIn: 0
PreviewTime: 58028
Countdown: 0
SampleSet: Soft
StackLeniency: 0.7
Mode: 0
LetterboxInBreaks: 0
WidescreenStoryboard: 1

[Editor]
DistanceSpacing: 1.2
BeatDivisor: 4
GridSize: 32
TimelineZoom: 2.4

[Metadata]
Title:Kessen Spirit (TV Size)
TitleUnicode:決戦スピリット (TV Size)
Artist:CHiCO with HoneyWorks
ArtistUnicode:CHiCO with HoneyWorks
Creator:Nevo
Version:Spike
Source:ハイキュー!! TO THE TOP
Tags:volleyball sports season 4 part 1 shiratoi wanpachi cycopton glaceon japanese orange hair anime boy rock jrock opening short haikyuu collaboration Haruto_Aizawa haruto
BeatmapID:3071714
BeatmapSetID:1498771

[Difficulty]
HPDrainRate:6
CircleSize:4
OverallDifficulty:9
ApproachRate:9.3
SliderMultiplier:1.7
SliderTickRate:1

[Events]
//Background and Video events
0,0,"57509816_p0.jpg",0,0
Video,0,"haikyuu ed.mp4"
//Break Periods
//Storyboard Layer 0 (Background)
//Storyboard Layer 1 (Fail)
//Storyboard Layer 2 (Pass)
//Storyboard Layer 3 (Foreground)
//Storyboard Layer 4 (Overlay)
//Storyboard Sound Samples

[TimingPoints]
634,319.148936170213,4,2,1,50,1,0
4463,-100,4,2,1,60,0,0
14676,-100,4,2,1,55,0,0
24889,-100,4,2,1,60,0,0
34782,-100,4,2,1,60,0,0
35102,-66.6666666666667,4,2,1,55,0,0
35421,-100,4,2,1,55,0,0
37655,-66.6666666666667,4,2,1,55,0,0
37974,-100,4,2,1,55,0,0
40208,-66.6666666666667,4,2,1,55,0,0
40527,-90.9090909090909,4,2,1,55,0,0
45314,-83.3333333333333,4,2,1,60,0,0
47868,-66.6666666666667,4,2,1,60,0,0
48985,-83.3333333333333,4,2,1,60,0,0
50421,-66.6666666666667,4,2,1,60,0,0
50740,-83.3333333333333,4,2,1,60,0,0
52974,-83.3333333333333,4,2,1,65,0,0
56804,-83.3333333333333,4,2,1,55,0,0
58001,-83.3333333333333,4,2,1,5,0,0
58080,-76.9230769230769,4,2,1,70,0,1
61910,-90.9090909090909,4,2,1,70,0,1
68293,-76.9230769230769,4,2,1,70,0,1
74676,-90.9090909090909,4,2,1,70,0,1
78506,-133.333333333333,4,2,1,50,0,0
83852,-133.333333333333,4,2,1,20,0,0
83931,-133.333333333333,4,2,1,50,0,0
86165,-133.333333333333,4,2,1,30,0,0
87442,-133.333333333333,4,2,1,20,0,0
87522,-133.333333333333,4,2,1,5,0,0

[Colours]
Combo1 : 53,154,255
Combo2 : 255,128,64
Combo3 : 149,215,234
Combo4 : 144,144,144

[HitObjects]
128,100,3187,6,0,L|78:84,1,42.5,4|0,1:2|0:0,0:0:0:0:
159,176,3346,1,8,0:0:0:0:
197,158,3425,1,8,0:0:0:0:
238,147,3505,1,8,0:0:0:0:
280,143,3585,1,8,0:0:0:0:
323,146,3665,2,0,L|313:189,1,42.5,0|0,1:0|1:0,0:0:0:0:
297,269,3825,5,8,0:0:0:0:
204,291,3953,1,0,1:0:0:0:
188,288,4038,1,0,0:0:0:0:
128,358,4144,1,12,0:0:0:0:
128,358,4463,5,6,1:2:0:0:
405,304,4623,1,0,1:2:0:0:
253,248,4782,1,10,0:2:0:0:
478,378,4942,2,0,P|407:337|296:344,1,170,2|0,0:2|1:2,0:0:0:0:
164,358,5421,1,10,0:2:0:0:
343,241,5580,1,0,0:2:0:0:
185,120,5740,6,0,B|175:204,1,85,2|0,1:2|1:2,0:0:0:0:
276,57,6059,1,10,0:2:0:0:
82,145,6219,1,2,1:2:0:0:
82,145,6298,1,8,0:2:0:0:
82,145,6378,1,0,1:2:0:0:
293,164,6538,1,0,1:2:0:0:
178,21,6697,1,10,0:2:0:0:
147,233,6857,1,0,0:2:0:0:
371,102,7016,5,2,1:2:0:0:
95,60,7176,1,0,1:2:0:0:
357,18,7336,1,10,0:2:0:0:
272,256,7495,2,0,B|252:78,1,170,2|0,0:2|1:2,0:0:0:0:
162,179,7974,1,10,0:2:0:0:
371,230,8134,1,0,0:2:0:0:
162,316,8293,5,2,1:2:0:0:
440,278,8453,1,2,1:2:0:0:
287,163,8612,1,14,0:2:0:0:
316,377,8772,1,0,1:2:0:0:
444,164,8931,5,2,1:2:0:0:
300,278,9091,1,2,1:2:0:0:
277,55,9251,1,14,0:2:0:0:
371,230,9410,1,0,0:2:0:0:
167,153,9570,5,6,1:2:0:0:
391,248,9729,1,0,1:2:0:0:
379,74,9889,1,10,0:2:0:0:
101,222,10048,2,0,P|163:194|283:182,1,170,2|0,0:2|1:2,0:0:0:0:
177,289,10527,1,10,0:2:0:0:
104,94,10687,1,0,0:2:0:0:
304,263,10846,6,0,L|289:346,1,85,2|0,1:2|1:2,0:0:0:0:
234,173,11165,1,10,0:2:0:0:
414,201,11325,1,2,1:2:0:0:
414,201,11405,1,8,0:2:0:0:
414,201,11485,2,0,L|429:284,1,85,0|0,1:2|1:2,0:0:0:0:
337,117,11804,1,10,0:2:0:0:
500,123,11963,1,0,0:2:0:0:
281,33,12123,5,6,1:2:0:0:
323,229,12282,1,0,1:2:0:0:
454,42,12442,1,10,0:2:0:0:
429,284,12602,1,2,1:2:0:0:
204,202,12761,5,8,0:2:0:0:
418,153,12921,1,0,1:2:0:0:
176,197,13080,1,10,0:2:0:0:
349,335,13240,1,0,1:2:0:0:
286,112,13399,5,0,1:0:0:0:
258,79,13478,1,8,0:0:0:0:
222,58,13558,1,8,0:0:0:0:
180,52,13638,1,8,0:0:0:0:
139,60,13719,2,0,L|131:115,1,42.5,0|0,1:0|0:0,0:0:0:0:
87,211,13878,1,8,0:0:0:0:
89,240,13957,1,8,0:0:0:0:
92,270,14037,1,0,1:0:0:0:
95,299,14117,1,0,1:2:0:0:
98,329,14197,2,0,L|171:312,1,42.5,8|0,0:0|0:0,0:0:0:0:
281,241,14357,5,8,0:0:0:0:
323,246,14436,1,8,0:0:0:0:
365,251,14516,1,8,0:0:0:0:
407,257,14596,1,8,0:0:0:0:
449,262,14676,6,0,P|467:195|455:153,1,85,6|0,1:2|0:2,0:0:0:0:
415,38,14995,1,10,0:2:0:0:
315,145,15155,2,0,L|434:122,1,85,2|0,1:2|0:2,0:0:0:0:
300,332,15474,2,0,L|181:309,1,85,2|8,1:2|0:2,0:0:0:0:
50,209,15793,6,0,P|120:232|212:155,1,170,2|0,0:2|1:2,0:0:0:0:
109,27,16272,2,0,L|121:122,1,85,8|0,0:2|0:0,0:0:0:0:
119,111,16511,1,8,0:2:0:0:
119,111,16591,2,0,P|172:80|221:80,1,85,2|0,1:2|1:2,0:0:0:0:
351,165,16910,2,0,P|309:155|275:131,1,85,10|0,0:2|0:2,0:0:0:0:
449,34,17229,6,0,L|437:142,1,85,2|0,1:2|1:2,0:0:0:0:
416,276,17548,1,10,0:2:0:0:
503,206,17708,1,0,0:2:0:0:
503,206,17788,1,8,0:2:0:0:
503,206,17868,1,0,1:2:0:0:
480,352,18027,2,0,P|435:374|372:364,1,85,2|8,1:2|0:2,0:0:0:0:
255,299,18346,6,0,B|313:265|313:265|431:277,1,170,2|0,0:2|1:2,0:0:0:0:
187,376,18825,2,0,P|157:330|158:292,1,85,8|0,0:2|0:2,0:0:0:0:
156,301,19064,1,8,0:2:0:0:
156,301,19144,2,0,L|160:239,2,42.5,0|0|0,1:2|1:2|1:2,0:0:0:0:
235,189,19463,2,0,L|218:92,1,85,8|0,0:2|0:0,0:0:0:0:
44,159,19782,6,0,P|111:186|149:180,1,85,6|0,1:2|1:2,0:0:0:0:
315,98,20102,1,8,0:2:0:0:
76,18,20261,2,0,P|104:84|135:107,1,85,2|0,1:2|1:2,0:0:0:0:
264,22,20580,2,0,P|192:13|157:28,1,85,2|8,1:2|0:2,0:0:0:0:
347,201,20899,6,0,L|363:3,1,170,2|0,0:2|1:2,0:0:0:0:
244,171,21378,2,0,L|252:270,1,85,8|0,0:2|0:0,0:0:0:0:
250,255,21618,1,8,0:2:0:0:
250,255,21697,2,0,P|184:249|146:261,1,85,2|0,1:2|1:2,0:0:0:0:
308,371,22016,2,0,P|374:377|412:365,1,85,10|0,0:2|1:2,0:0:0:0:
122,173,22336,6,0,P|72:225|126:329,1,170,2|8,1:2|0:2,0:0:0:0:
347,287,22814,2,0,L|362:168,1,85,2|0,1:2|1:2,0:0:0:0:
223,77,23134,2,0,L|233:161,1,85,2|8,1:2|0:2,0:0:0:0:
475,119,23453,6,0,B|438:143|398:122|398:122|355:99|310:126,1,170,2|0,0:2|1:2,0:0:0:0:
200,251,23931,1,8,0:2:0:0:
123,120,24091,1,0,0:0:0:0:
47,297,24251,1,0,1:2:0:0:
280,188,24410,1,8,0:2:0:0:
71,28,24570,1,4,0:3:0:0:
37,53,24649,1,8,0:2:0:0:
17,91,24729,1,8,0:2:0:0:
15,133,24809,1,8,0:2:0:0:
29,172,24889,6,0,B|103:157|103:157|127:166|127:166|211:149,1,170,6|8,1:2|0:0,0:0:0:0:
373,289,25368,2,0,L|261:274,1,85,2|0,0:0|1:0,0:0:0:0:
351,117,25687,2,0,L|463:102,1,85,2|8,1:2|0:0,0:0:0:0:
279,187,26006,6,0,P|247:111|287:40,1,170,2|0,3:2|1:0,0:0:0:0:
382,191,26485,1,8,0:0:0:0:
258,280,26644,1,0,0:0:0:0:
351,117,26804,2,0,P|378:152|372:223,1,85,2|0,1:2|1:0,0:0:0:0:
161,255,27123,2,0,P|177:214|242:183,1,85,10|0,0:0|0:0,0:0:0:0:
461,273,27442,6,0,B|413:295|413:295|284:287,1,170,2|8,1:2|0:0,0:0:0:0:
128,370,27921,2,0,L|230:349,1,85,0|0,0:0|1:0,0:0:0:0:
83,214,28240,2,0,L|-19:193,1,85,2|8,1:2|0:0,0:0:0:0:
178,81,28559,1,2,1:2:0:0:
178,81,28639,1,0,1:0:0:0:
178,81,28719,6,0,P|187:126|178:170,1,85,0|0,1:2|1:2,0:0:0:0:
69,89,29038,2,0,L|59:-5,1,85,8|0,0:0|0:0,0:0:0:0:
83,214,29357,5,0,1:0:0:0:
180,164,29516,1,0,1:0:0:0:
154,328,29676,1,8,0:0:0:0:
3,278,29836,1,2,3:0:0:0:
238,248,29995,6,0,P|352:224|440:226,1,170,2|8,1:2|0:0,0:0:0:0:
494,374,30474,2,0,P|475:325|468:273,1,85,2|0,1:2|1:0,0:0:0:0:
492,81,30793,2,0,P|473:130|466:182,1,85,2|8,1:2|0:0,0:0:0:0:
385,366,31112,6,0,P|337:350|194:338,1,170,2|0,0:2|1:0,0:0:0:0:
30,384,31591,2,0,P|77:375|112:360,1,85,8|0,0:0|0:0,0:0:0:0:
53,203,31910,2,0,L|42:303,1,85,2|0,1:2|1:0,0:0:0:0:
192,159,32229,2,0,L|181:59,1,85,10|0,0:0|0:0,0:0:0:0:
26,62,32548,6,0,P|80:110|123:114,1,85,6|0,1:2|0:0,0:0:0:0:
279,17,32868,1,10,0:0:0:0:
297,261,33027,2,0,L|182:240,1,85,2|0,0:0|1:0,0:0:0:0:
400,358,33346,2,0,L|515:337,1,85,2|8,1:2|0:0,0:0:0:0:
331,144,33665,1,10,1:2:0:0:
331,144,33745,1,0,1:1:0:0:
331,144,33825,5,0,1:1:0:0:
260,364,33985,1,8,0:0:0:0:
260,364,34064,1,8,0:0:0:0:
260,364,34144,1,8,0:0:0:0:
455,272,34304,1,8,0:0:0:0:
455,272,34384,1,8,0:0:0:0:
455,272,34463,1,8,0:0:0:0:
236,175,34623,1,4,1:3:0:0:
145,300,34782,6,0,P|225:276|273:273,1,127.5,4|0,0:0|0:0,0:0:0:0:
282,276,35102,6,0,P|195:244|63:234,1,191.250007295609,4|0,0:0|0:0,0:0:0:0:
40,293,35421,6,0,L|55:382,1,85,2|0,1:2|0:0,0:0:0:0:
0,214,35740,1,10,0:0:0:0:
11,186,35899,1,0,1:0:0:0:
98,124,36059,1,0,1:0:0:0:
108,151,36219,1,0,1:0:0:0:
197,277,36378,5,10,0:0:0:0:
226,194,36538,1,8,0:0:0:0:
300,314,36697,1,0,1:0:0:0:
315,192,36857,1,0,1:0:0:0:
435,334,37016,2,0,P|487:320|515:284,1,85,10|0,0:0|0:0,0:0:0:0:
454,182,37256,1,0,1:0:0:0:
454,182,37336,6,0,B|416:164|416:164|444:277,1,127.5,4|0,0:0|0:0,0:0:0:0:
431,277,37655,6,0,B|398:145|398:145|449:169,1,191.250007295609,6|0,0:0|0:0,0:0:0:0:
460,67,37974,6,0,L|356:57,1,85,2|0,1:2|0:0,0:0:0:0:
206,99,38293,1,10,0:0:0:0:
293,138,38453,1,0,0:0:0:0:
274,30,38612,1,2,0:0:0:0:
211,184,38772,1,0,0:0:0:0:
94,57,38931,5,14,0:0:0:0:
293,138,39091,1,0,1:0:0:0:
96,197,39251,1,0,1:0:0:0:
96,197,39330,1,0,1:0:0:0:
96,197,39410,1,6,0:0:0:0:
206,99,39570,1,2,1:2:0:0:
225,285,39729,1,0,1:0:0:0:
225,285,39809,1,0,1:0:0:0:
225,285,39889,6,0,P|302:289|381:259,1,127.5,8|8,0:0|0:0,0:0:0:0:
368,264,40208,6,0,P|308:259|180:184,1,191.250007295609,4|0,0:0|0:0,0:0:0:0:
139,119,40527,6,0,P|106:151|95:196,1,93.5000028533936,2|0,1:2|0:0,0:0:0:0:
121,299,40846,2,0,L|14:281,1,93.5000028533936,10|0,0:0|0:0,0:0:0:0:
180,375,41165,1,2,0:0:0:0:
180,375,41325,1,0,1:0:0:0:
250,274,41485,1,2,1:2:0:0:
365,365,41644,1,8,0:0:0:0:
494,348,41804,6,0,P|417:347|348:265,1,187.000005706787,2|8,1:2|0:0,0:0:0:0:
295,132,42282,1,0,0:0:0:0:
454,251,42442,2,0,L|470:153,1,93.5000028533936,2|0,1:2|0:0,0:0:0:0:
360,6,42761,6,0,P|391:70|460:67,1,140.25000428009,6|0,1:2|0:0,0:0:0:0:
453,71,43080,2,0,P|402:91|379:161,1,93.5000028533936,2|0,1:2|0:0,0:0:0:0:
316,222,43399,2,0,L|295:132,1,93.5000028533936,10|0,0:0|0:0,0:0:0:0:
126,221,43719,2,0,P|180:224|231:170,1,93.5000028533936,2|8,0:2|0:0,0:0:0:0:
73,133,44038,5,4,3:2:0:0:
45,158,44117,1,0,0:0:0:0:
28,191,44197,1,0,3:0:0:0:
23,228,44277,1,0,3:0:0:0:
29,264,44357,1,0,3:0:0:0:
48,296,44436,1,0,0:0:0:0:
76,321,44516,1,0,3:0:0:0:
111,334,44596,1,0,3:0:0:0:
148,336,44676,6,0,L|137:390,1,46.7500014266968,8|0,0:0|0:0,0:0:0:0:
326,268,44836,2,0,L|314:214,1,46.7500014266968,8|8,0:0|0:0,0:0:0:0:
255,347,44995,5,8,0:3:0:0:
296,367,45074,1,8,0:3:0:0:
342,369,45154,1,4,0:3:0:0:
385,351,45234,1,4,0:3:0:0:
417,317,45314,6,0,L|432:187,1,101.999996887207,4|0,1:2|0:2,0:0:0:0:
270,101,45634,2,0,P|290:150|340:178,1,101.999996887207,10|0,0:2|0:2,0:0:0:0:
468,26,45953,1,2,1:2:0:0:
280,6,46112,1,2,1:2:0:0:
369,81,46272,1,10,0:2:0:0:
129,191,46431,6,0,B|208:176|208:176|262:187|262:187|336:174,1,203.999993774414,6|2,1:2|1:2,0:0:0:0:
51,272,46910,2,0,P|22:230|20:180,1,101.999996887207,10|0,0:2|1:2,0:0:0:0:
165,88,47229,1,0,1:2:0:0:
141,312,47389,1,0,1:2:0:0:
377,294,47548,6,0,B|343:268|343:268|195:259,1,152.999995330811,8|0,0:2|0:0,0:0:0:0:
141,312,47868,6,0,L|275:291,1,127.500004863739,4|0,1:2|0:0,0:0:0:0:
460,232,48187,1,10,0:2:0:0:
435,369,48346,1,2,0:2:0:0:
298,210,48506,1,2,1:2:0:0:
485,131,48665,1,2,1:2:0:0:
216,140,48825,1,10,0:2:0:0:
373,278,48985,6,0,P|401:203|347:118,1,152.999995330811,6|0,1:2|0:0,0:0:0:0:
317,83,49304,1,2,1:2:0:0:
211,241,49463,2,0,L|110:226,1,101.999996887207,10|0,0:2|1:2,0:0:0:0:
195,347,49782,2,0,L|295:332,1,101.999996887207,0|0,1:2|1:2,0:0:0:0:
31,137,50102,6,0,P|-13:231|29:308,1,152.999995330811,8|0,0:2|0:0,0:0:0:0:
43,360,50421,6,0,L|21:216,1,127.500004863739,4|0,1:2|0:0,0:0:0:0:
221,107,50740,2,0,L|208:218,1,101.999996887207,10|0,0:2|0:2,0:0:0:0:
209,208,50979,1,0,0:0:0:0:
209,208,51059,1,2,1:2:0:0:
105,76,51219,1,0,1:2:0:0:
314,37,51378,1,10,0:2:0:0:
100,182,51538,6,0,P|71:177|6:123,1,101.999996887207,6|0,1:2|0:0,0:0:0:0:
190,21,51857,1,2,1:2:0:0:
324,166,52016,2,0,P|352:161|418:107,1,101.999996887207,10|0,0:2|0:2,0:0:0:0:
190,21,52336,5,8,0:0:0:0:
194,51,52415,1,8,0:0:0:0:
198,81,52495,1,8,0:0:0:0:
203,111,52575,1,8,0:3:0:0:
230,149,52655,5,8,0:3:0:0:
222,193,52734,1,4,0:3:0:0:
216,238,52814,1,4,0:3:0:0:
209,283,52894,1,4,0:3:0:0:
200,328,52974,6,0,P|119:324|76:295,1,101.999996887207,6|0,1:2|1:2,0:0:0:0:
310,362,53293,2,0,P|391:358|434:329,1,101.999996887207,10|0,0:2|1:2,0:0:0:0:
388,152,53612,1,0,1:2:0:0:
348,243,53772,1,0,1:2:0:0:
481,192,53931,2,0,B|499:161|499:161|468:62,1,101.999996887207,10|0,0:2|1:2,0:0:0:0:
286,141,54251,6,0,L|422:155,1,101.999996887207,2|0,1:2|1:2,0:0:0:0:
196,40,54570,2,0,L|60:54,1,101.999996887207,10|0,0:2|1:2,0:0:0:0:
141,234,54889,1,0,1:2:0:0:
209,139,55048,1,0,1:2:0:0:
29,213,55208,2,0,B|21:240|21:240|34:317,1,101.999996887207,8|0,0:2|1:2,0:0:0:0:
314,325,55527,5,14,0:2:0:0:
345,106,55687,1,0,1:2:0:0:
199,350,55846,1,14,0:2:0:0:
132,104,56006,1,0,1:2:0:0:
416,223,56165,5,12,0:2:0:0:
94,217,56325,1,0,1:2:0:0:
279,34,56485,1,14,0:2:0:0:
255,254,56644,1,0,0:0:0:0:
48,22,56804,5,6,0:0:0:0:
323,299,58080,6,0,P|414:271|448:242,1,110.499994941712,6|0,1:2|0:2,0:0:0:0:
188,360,58399,2,0,P|97:332|63:303,1,110.499994941712,10|0,0:2|1:2,0:0:0:0:
283,83,58719,1,2,1:2:0:0:
247,272,58878,1,0,1:2:0:0:
107,127,59038,1,8,0:2:0:0:
337,205,59197,1,0,0:2:0:0:
11,198,59357,6,0,P|108:174|260:160,1,220.999989883423,2|8,1:2|0:2,0:0:0:0:
304,363,59836,1,0,1:2:0:0:
304,363,59915,1,0,1:2:0:0:
304,363,59995,2,0,P|254:298|246:268,1,110.499994941712,2|0,1:2|1:2,0:0:0:0:
399,91,60314,2,0,P|449:156|457:186,1,110.499994941712,10|0,0:2|0:2,0:0:0:0:
150,234,60634,6,0,P|212:175|314:181,1,165.749992412568,6|0,1:2|0:2,0:0:0:0:
173,341,60953,2,0,L|143:203,1,110.499994941712,10|0,0:2|1:2,0:0:0:0:
73,116,61272,2,0,L|207:159,1,110.499994941712,2|0,1:2|1:2,0:0:0:0:
317,141,61591,2,0,L|212:235,1,110.499994941712,10|0,0:2|0:2,0:0:0:0:
422,166,61910,6,0,P|428:101|332:28,1,187.000005706787,2|8,1:2|0:2,0:0:0:0:
360,261,62389,1,0,1:2:0:0:
360,261,62469,1,0,1:2:0:0:
360,261,62548,2,0,L|471:277,1,93.5000028533936,0|0,1:2|1:2,0:0:0:0:
182,352,62868,2,0,L|80:367,1,93.5000028533936,10|0,0:2|0:2,0:0:0:0:
136,167,63187,6,0,P|157:234|146:276,1,93.5000028533936,6|0,1:2|0:0,0:0:0:0:
64,101,63506,2,0,L|78:-13,1,93.5000028533936,10|0,0:2|1:2,0:0:0:0:
241,157,63825,1,2,1:2:0:0:
52,229,63985,1,0,1:2:0:0:
178,79,64144,1,8,0:2:0:0:
239,273,64304,1,0,0:2:0:0:
163,193,64463,6,0,B|241:181|241:181|286:193|286:193|369:181,1,187.000005706787,2|8,1:2|0:2,0:0:0:0:
446,26,64942,1,0,1:2:0:0:
446,26,65022,1,0,1:2:0:0:
446,26,65102,2,0,P|417:69|405:124,1,93.5000028533936,2|0,1:2|1:2,0:0:0:0:
470,267,65421,2,0,P|499:224|511:169,1,93.5000028533936,10|0,0:2|0:2,0:0:0:0:
170,174,65740,6,0,L|194:302,1,93.5000028533936,6|0,0:2|1:2,0:0:0:0:
351,125,66059,2,0,L|327:253,1,93.5000028533936,10|0,0:2|1:2,0:0:0:0:
41,106,66378,2,0,L|97:223,1,93.5000028533936,2|0,1:2|1:2,0:0:0:0:
478,60,66697,2,0,L|421:177,1,93.5000028533936,10|0,0:2|0:0,0:0:0:0:
124,378,67016,5,14,0:2:0:0:
84,376,67095,1,8,0:2:0:0:
51,355,67175,1,8,0:2:0:0:
32,320,67255,1,8,0:2:0:0:
33,281,67335,1,8,0:2:0:0:
53,247,67414,1,8,0:2:0:0:
87,227,67494,1,8,0:2:0:0:
126,227,67574,1,8,0:2:0:0:
167,245,67655,1,10,0:2:0:0:
203,274,67734,1,8,0:2:0:0:
246,290,67814,1,8,0:2:0:0:
293,288,67894,1,8,0:2:0:0:
336,270,67974,1,8,0:2:0:0:
369,237,68053,1,8,0:2:0:0:
389,195,68133,1,8,0:2:0:0:
392,149,68213,1,8,0:2:0:0:
378,105,68293,6,0,L|258:93,1,110.499994941712,6|0,1:2|0:2,0:0:0:0:
29,348,68612,2,0,L|149:336,1,110.499994941712,10|0,0:2|0:2,0:0:0:0:
370,315,68931,1,2,1:2:0:0:
151,246,69091,1,0,1:2:0:0:
353,172,69251,1,10,0:2:0:0:
55,226,69410,1,0,1:2:0:0:
256,361,69570,6,0,B|300:253|213:253|255:147,1,220.999989883423,2|8,1:2|0:2,0:0:0:0:
444,120,70048,1,0,1:2:0:0:
444,120,70128,1,0,1:2:0:0:
444,120,70208,2,0,P|394:164|328:167,1,110.499994941712,2|0,1:2|1:2,0:0:0:0:
180,73,70527,2,0,P|263:38|300:51,1,110.499994941712,10|0,0:2|0:2,0:0:0:0:
79,155,70846,6,0,L|61:33,1,110.499994941712,6|0,1:2|1:2,0:0:0:0:
255,147,71165,2,0,L|237:269,1,110.499994941712,10|0,0:2|0:2,0:0:0:0:
23,286,71485,2,0,P|87:248|121:248,1,110.499994941712,2|0,1:2|1:2,0:0:0:0:
252,369,71804,2,0,P|197:363|153:331,1,110.499994941712,10|0,0:2|1:2,0:0:0:0:
369,107,72123,6,0,L|335:335,1,220.999989883423,2|8,1:2|0:2,0:0:0:0:
238,256,72602,1,0,1:2:0:0:
471,148,72761,1,0,1:2:0:0:
253,62,72921,1,0,1:2:0:0:
456,38,73080,2,0,L|473:163,1,110.499994941712,8|0,0:2|0:0,0:0:0:0:
437,359,73399,6,0,P|390:329|336:325,1,110.499994941712,6|0,1:2|0:2,0:0:0:0:
238,148,73719,2,0,P|184:160|142:195,1,110.499994941712,10|0,0:2|0:2,0:0:0:0:
59,361,74038,2,0,L|39:201,1,110.499994941712,2|0,0:2|0:2,0:0:0:0:
346,121,74357,2,0,L|326:281,1,110.499994941712,10|0,0:2|0:2,0:0:0:0:
242,41,74676,6,0,P|328:8|448:32,1,187.000005706787,2|8,1:2|0:2,0:0:0:0:
251,148,75155,1,0,1:2:0:0:
251,148,75235,1,0,1:2:0:0:
251,148,75314,2,0,L|128:133,1,93.5000028533936,2|0,1:2|1:2,0:0:0:0:
268,273,75634,2,0,L|391:258,1,93.5000028533936,10|0,0:2|0:2,0:0:0:0:
87,119,75953,5,14,0:2:0:0:
182,323,76112,1,0,1:2:0:0:
230,51,76272,1,10,0:2:0:0:
268,273,76431,1,0,1:2:0:0:
384,39,76591,1,10,0:2:0:0:
364,273,76751,1,0,1:2:0:0:
512,81,76910,1,14,0:2:0:0:
444,331,77070,1,0,0:2:0:0:
319,189,77229,6,0,L|209:177,2,62.3333352355958,6|0|0,1:2|1:0|1:0,0:0:0:0:
158,177,77548,2,0,L|202:278,2,62.3333352355958,8|4|4,0:0|0:3|0:3,0:0:0:0:
231,323,77867,2,0,L|296:233,2,62.3333352355958,0|8|8,1:0|0:0|0:3,0:0:0:0:
144,354,78187,5,4,0:3:0:0:
101,359,78293,1,4,0:3:0:0:
60,345,78399,1,4,0:3:0:0:
29,315,78506,6,0,L|7:171,1,127.500004863739,4|2,0:0|0:0,0:0:0:0:
51,73,79144,2,0,P|106:122|231:70,1,223.125008511544,2|0,0:0|0:0,0:0:0:0:
243,55,79782,6,0,L|221:199,1,127.500004863739,2|0,0:0|0:0,0:0:0:0:
260,307,80421,2,0,P|309:308|336:294,1,63.7500024318696,2|0,0:0|0:0,0:0:0:0:
366,379,80740,2,0,P|401:345|410:316,1,63.7500024318696,2|0,0:0|0:0,0:0:0:0:
362,127,81059,6,0,P|361:188|389:253,2,127.500004863739,2|2|2,0:0|0:0|0:0,0:0:0:0:
403,16,82016,1,2,0:0:0:0:
502,60,82336,6,0,L|347:46,1,127.500004863739,2|0,0:0|0:0,0:0:0:0:
288,19,82814,1,2,0:0:0:0:
288,19,82974,2,0,L|137:35,1,127.500004863739,2|2,0:0|0:0,0:0:0:0:
81,108,83612,6,0,P|50:158|33:170,1,63.7500024318696,2|0,0:0|0:0,0:0:0:0:
172,146,83931,2,0,P|203:196|220:208,1,63.7500024318696,2|0,0:0|0:0,0:0:0:0:
111,239,84251,1,2,0:0:0:0:
271,283,84570,1,2,0:0:0:0:
204,352,84889,2,0,P|140:353|80:333,1,127.500004863739,2|0,0:0|0:0,0:0:0:0:
388,119,85527,6,0,L|360:260,1,127.500004863739,2|2,0:0|0:0,0:0:0:0:
143,210,86165,2,0,L|171:351,1,127.500004863739,2|2,0:0|0:0,0:0:0:0:
256,176,86804,1,2,0:0:0:0:
153,122,87123,1,2,0:0:0:0:
328,75,87442,5,2,0:0:0:0:
256,192,87522,12,0,88798,0:0:0:0:
