osu file format v14

[General]
AudioFilename: audio.mp3
AudioLeadIn: 0
PreviewTime:58028
Countdown: 0
SampleSet: Soft
StackLeniency: 0.3
Mode: 0
LetterboxInBreaks: 0
WidescreenStoryboard: 1

[Editor]
DistanceSpacing: 1.3
BeatDivisor: 4
GridSize: 16
TimelineZoom: 2.4

[Metadata]
Title:Kessen Spirit (TV Size)
TitleUnicode:決戦スピリット (TV Size)
Artist:CHiCO with HoneyWorks
ArtistUnicode:CHiCO with HoneyWorks
Creator:Nevo
Version:Shira's Normal
Source:ハイキュー!! TO THE TOP
Tags:volleyball sports season 4 part 1 shiratoi wanpachi cycopton glaceon japanese orange hair anime boy rock jrock opening short haikyuu collaboration Haruto_Aizawa haruto
BeatmapID:3159400
BeatmapSetID:1498771

[Difficulty]
HPDrainRate:4
CircleSize:3.3
OverallDifficulty:5
ApproachRate:5
SliderMultiplier:1.2
SliderTickRate:1

[Events]
//Background and Video events
0,0,"57509816_p0.jpg",0,0
Video,0,"haikyuu ed.mp4"
//Break Periods
//Storyboard Layer 0 (Background)
//Storyboard Layer 1 (Fail)
//Storyboard Layer 2 (Pass)
//Storyboard Layer 3 (Foreground)
//Storyboard Layer 4 (Overlay)
//Storyboard Sound Samples

[TimingPoints]
634,319.148936170213,4,2,1,50,1,0
4463,-100,4,2,1,60,0,0
14676,-100,4,2,1,55,0,0
24889,-100,4,2,1,60,0,0
35102,-100,4,2,1,55,0,0
45314,-100,4,2,1,60,0,0
52974,-100,4,2,1,65,0,0
56804,-100,4,2,1,55,0,0
58001,-100,4,2,1,5,0,0
58080,-100,4,2,1,70,0,1
78506,-100,4,2,1,50,0,0
83852,-100,4,2,1,20,0,0
83931,-100,4,2,1,50,0,0
86165,-100,4,2,1,30,0,0
87442,-100,4,2,1,5,0,0

[Colours]
Combo1 : 53,154,255
Combo2 : 255,128,64
Combo3 : 149,215,234
Combo4 : 144,144,144

[HitObjects]
212,343,3187,5,4,1:2:0:0:
212,343,3346,2,0,L|231:223,1,120,8|0,0:0|1:0,0:0:0:0:
268,194,3825,2,0,L|258:134,2,60,8|0|12,0:0|1:0|0:0,0:0:0:0:
351,241,4463,6,0,B|383:252|383:252|424:236,1,60,6|0,1:2|1:2,0:0:0:0:
437,204,4782,1,10,0:2:0:0:
437,204,4942,2,0,L|414:64,1,120,2|0,0:2|1:2,0:0:0:0:
437,41,5421,1,10,0:2:0:0:
344,17,5740,6,0,L|218:37,1,120,2|10,1:2|0:2,0:0:0:0:
182,13,6219,1,2,1:2:0:0:
100,64,6538,1,0,1:2:0:0:
100,64,6697,2,0,L|92:127,1,60,10|0,0:2|0:2,0:0:0:0:
135,144,7016,6,0,B|160:217|160:217|140:267,1,120,2|10,1:2|0:2,0:0:0:0:
108,289,7495,1,2,0:2:0:0:
178,362,7814,1,0,1:2:0:0:
178,362,7974,2,0,L|248:352,1,60,10|0,0:2|0:2,0:0:0:0:
270,318,8293,6,0,L|397:342,1,120,2|14,1:2|0:2,0:0:0:0:
471,292,8931,2,0,L|484:219,1,60,2|2,1:2|1:2,0:0:0:0:
447,198,9251,1,14,0:2:0:0:
495,115,9570,6,0,B|504:84|504:84|494:57,1,60,6|0,1:2|1:2,0:0:0:0:
461,31,9889,1,10,0:2:0:0:
461,31,10048,2,0,L|332:46,1,120,2|0,0:2|1:2,0:0:0:0:
317,81,10527,1,10,0:2:0:0:
227,120,10846,6,0,L|98:105,1,120,2|10,1:2|0:2,0:0:0:0:
83,65,11325,1,2,1:2:0:0:
22,139,11644,1,0,1:2:0:0:
22,139,11804,2,0,B|13:176|13:176|32:214,1,60,10|0,0:2|0:2,0:0:0:0:
61,224,12123,6,0,L|190:209,1,120,6|10,1:2|0:2,0:0:0:0:
213,245,12602,2,0,L|332:258,1,120,2|0,1:2|1:2,0:0:0:0:
359,297,13080,1,10,0:2:0:0:
437,242,13399,6,0,B|452:204|452:204|441:178,1,60,0|8,1:0|0:0,0:0:0:0:
409,153,13719,1,0,1:0:0:0:
322,112,14038,2,0,L|337:45,2,60,0|8|8,1:0|0:0|0:0,0:0:0:0:
240,163,14676,6,0,L|266:280,1,120,6|10,1:2|0:2,0:0:0:0:
234,316,15155,1,2,1:2:0:0:
142,287,15474,2,0,L|69:304,1,60,2|8,1:2|0:2,0:0:0:0:
49,266,15793,6,0,B|22:200|22:200|43:150,1,120,2|0,0:2|1:2,0:0:0:0:
83,132,16272,1,8,0:2:0:0:
131,49,16591,2,0,L|257:61,1,120,2|10,1:2|0:2,0:0:0:0:
315,131,17229,6,0,L|434:119,1,120,2|10,1:2|0:2,0:0:0:0:
473,147,17708,1,0,0:2:0:0:
499,239,18027,2,0,L|485:307,1,60,2|8,1:2|0:2,0:0:0:0:
449,327,18346,6,0,B|374:305|374:305|320:331,1,120,2|0,0:2|1:2,0:0:0:0:
300,355,18825,1,8,0:2:0:0:
216,307,19144,2,0,L|203:178,1,120,0|8,1:2|0:2,0:0:0:0:
115,149,19782,6,0,L|127:29,1,120,6|8,1:2|0:2,0:0:0:0:
168,5,20261,1,2,1:2:0:0:
231,77,20580,2,0,L|315:65,1,60,2|8,1:2|0:2,0:0:0:0:
321,32,20899,6,0,L|439:48,1,120,0|0,0:2|1:2,0:0:0:0:
463,90,21378,1,8,0:2:0:0:
383,143,21697,2,0,P|360:212|399:269,1,120,2|10,1:2|0:2,0:0:0:0:
474,253,22336,6,0,P|497:322|458:379,1,120,2|8,1:2|0:2,0:0:0:0:
431,371,22814,1,2,1:2:0:0:
338,343,23134,2,0,L|268:355,1,60,2|8,1:2|0:2,0:0:0:0:
243,320,23453,6,0,L|124:299,1,120,0|0,0:2|1:2,0:0:0:0:
87,329,23931,1,8,0:2:0:0:
18,261,24251,2,0,L|30:190,1,60,0|8,1:2|0:2,0:0:0:0:
68,176,24570,2,0,L|56:105,1,60,4|8,0:3|0:2,0:0:0:0:
73,71,24889,6,0,B|146:48|146:48|203:77,1,120,6|8,1:2|0:0,0:0:0:0:
217,103,25368,1,2,0:0:0:0:
297,51,25687,2,0,L|366:61,1,60,2|8,1:2|0:0,0:0:0:0:
382,100,26006,6,0,B|355:170|355:170|380:220,1,120,2|0,3:2|1:0,0:0:0:0:
418,231,26485,1,8,0:0:0:0:
496,286,26804,2,0,B|507:322|507:322|493:356,1,60,2|0,1:2|1:0,0:0:0:0:
459,370,27123,1,10,0:0:0:0:
365,346,27442,6,0,L|234:359,1,120,2|8,1:2|0:0,0:0:0:0:
217,318,27921,1,2,1:2:0:0:
134,366,28240,1,2,1:2:0:0:
53,313,28559,6,0,B|28:247|78:258|59:192,1,120,2|0,1:2|1:2,0:0:0:0:
35,156,29038,1,8,0:0:0:0:
128,132,29357,2,0,P|148:87|120:16,1,120,0|8,1:0|0:0,0:0:0:0:
222,11,29995,6,0,L|352:26,1,120,2|8,1:2|0:0,0:0:0:0:
360,69,30474,1,2,1:2:0:0:
279,121,30793,2,0,L|292:192,1,60,2|8,1:2|0:0,0:0:0:0:
337,187,31112,6,0,B|360:251|360:251|335:305,1,120,2|0,0:2|1:0,0:0:0:0:
300,327,31591,1,8,0:0:0:0:
385,370,31910,2,0,L|460:356,1,60,2|0,1:2|1:0,0:0:0:0:
490,371,32229,1,10,0:0:0:0:
506,276,32548,6,0,L|490:142,1,120,6|10,1:2|0:0,0:0:0:0:
451,131,33027,1,2,1:2:0:0:
375,190,33346,1,2,1:2:0:0:
297,133,33665,6,0,B|228:114|228:114|166:143,1,120,10|8,0:2|0:0,0:0:0:0:
151,169,34144,1,8,0:0:0:0:
214,241,34463,1,8,0:0:0:0:
170,326,34782,2,0,L|105:318,1,60,4|0,0:0|0:0,0:0:0:0:
76,353,35102,5,4,0:0:0:0:
17,276,35421,2,0,L|35:148,1,120,2|10,1:2|0:0,0:0:0:0:
78,72,36059,2,0,B|109:63|109:63|157:80,1,60,0|0,1:0|1:0,0:0:0:0:
177,95,36378,6,0,B|252:115|252:115|311:86,2,120,10|0|10,0:0|1:0|0:0,0:0:0:0:
130,179,37336,2,0,L|137:252,1,60,4|0,0:0|0:0,0:0:0:0:
172,270,37655,5,6,0:0:0:0:
155,364,37974,2,0,L|285:345,1,120,2|10,1:2|0:0,0:0:0:0:
334,272,38612,2,0,L|393:280,1,60,2|0,0:0|0:0,0:0:0:0:
430,250,38931,6,0,B|458:186|458:186|437:133,1,120,14|0,0:0|1:0,0:0:0:0:
407,103,39410,2,0,L|270:123,1,120,6|0,0:0|1:0,0:0:0:0:
257,83,39889,2,0,L|197:74,1,60,8|0,0:0|0:0,0:0:0:0:
171,33,40208,5,4,0:0:0:0:
84,75,40527,2,0,P|57:125|88:198,1,120,2|10,1:2|0:0,0:0:0:0:
163,214,41165,2,0,P|173:249|160:287,1,60,2|0,0:0|1:0,0:0:0:0:
125,294,41485,6,0,B|111:330|111:330|124:370,1,60,2|8,1:2|0:0,0:0:0:0:
159,373,41804,2,0,L|286:359,1,120,2|8,1:2|0:0,0:0:0:0:
346,291,42442,1,2,1:2:0:0:
426,343,42761,6,0,L|440:278,1,60,6|0,1:2|0:0,0:0:0:0:
471,248,43080,2,0,L|457:183,1,60,2|0,1:2|0:0,0:0:0:0:
422,157,43399,2,0,L|451:20,1,120,10|2,0:0|0:2,0:0:0:0:
352,55,44038,6,0,B|280:78|280:78|233:57,1,120,4|0,3:2|3:0,0:0:0:0:
150,24,44676,2,0,L|137:94,1,60,8|8,0:0|0:0,0:0:0:0:
96,105,44995,2,0,L|109:175,1,60,8|4,0:3|0:3,0:0:0:0:
145,192,45314,6,0,L|122:311,1,120,4|10,1:2|0:2,0:0:0:0:
204,359,45953,2,0,B|236:370|236:370|271:358,1,60,2|2,1:2|1:2,0:0:0:0:
295,327,46272,1,10,0:2:0:0:
295,327,46431,6,0,L|272:209,1,120,6|2,1:2|1:2,0:0:0:0:
294,166,46910,1,10,0:2:0:0:
243,84,47229,1,0,1:2:0:0:
304,10,47548,2,0,L|382:19,1,60,8|0,0:2|0:0,0:0:0:0:
381,61,47868,6,0,B|453:43|453:43|516:70,1,120,4|10,1:2|0:2,0:0:0:0:
502,156,48506,2,0,L|489:221,1,60,2|2,1:2|1:2,0:0:0:0:
445,232,48825,1,10,0:2:0:0:
445,232,48985,6,0,L|468:349,1,120,6|2,1:2|1:2,0:0:0:0:
424,367,49463,1,10,0:2:0:0:
346,310,49782,1,0,1:2:0:0:
264,361,50102,2,0,L|195:349,1,60,8|0,0:2|0:0,0:0:0:0:
174,313,50421,6,0,L|55:333,1,120,4|10,1:2|0:2,0:0:0:0:
12,248,51059,2,0,L|26:179,1,60,2|0,1:2|1:2,0:0:0:0:
66,166,51378,1,10,0:2:0:0:
66,166,51538,6,0,B|43:92|43:92|69:40,1,120,6|2,1:2|1:2,0:0:0:0:
97,22,52016,1,10,0:2:0:0:
182,65,52336,2,0,L|314:53,1,120,8|8,0:0|0:3,0:0:0:0:
382,106,52974,6,0,B|395:141|395:141|385:178,1,60,6|0,1:2|1:2,0:0:0:0:
354,196,53293,2,0,L|222:184,1,120,10|0,0:2|1:2,0:0:0:0:
142,213,53931,1,10,0:2:0:0:
64,269,54251,6,0,B|51:304|51:304|61:341,1,60,2|0,1:2|1:2,0:0:0:0:
92,359,54570,2,0,L|224:347,1,120,10|0,0:2|1:2,0:0:0:0:
286,288,55208,1,8,0:2:0:0:
377,316,55527,6,0,L|367:388,2,60,14|0|14,0:2|1:2|0:2,0:0:0:0:
436,240,56165,2,0,L|427:180,2,60,12|0|14,0:2|1:2|0:2,0:0:0:0:
507,304,56804,5,6,0:0:0:0:
218,50,58080,6,0,L|198:192,1,120,6|10,1:2|0:2,0:0:0:0:
287,212,58719,2,0,L|299:280,1,60,2|0,1:2|1:2,0:0:0:0:
267,308,59038,1,8,0:2:0:0:
180,348,59357,6,0,B|110:332|110:332|45:357,1,120,2|8,1:2|0:2,0:0:0:0:
21,263,59995,2,0,L|42:128,1,120,2|10,1:2|0:2,0:0:0:0:
129,109,60634,6,0,L|120:47,1,60,6|0,1:2|0:0,0:0:0:0:
151,13,60953,1,10,0:2:0:0:
228,70,61272,1,2,1:2:0:0:
315,29,61591,2,0,B|347:15|347:15|389:35,1,60,10|0,0:2|0:2,0:0:0:0:
412,47,61910,6,0,L|399:179,1,120,2|8,1:2|0:2,0:0:0:0:
437,205,62389,1,0,1:2:0:0:
437,205,62548,1,0,1:2:0:0:
365,269,62868,1,10,0:2:0:0:
433,336,63187,6,0,B|362:360|362:360|305:337,1,120,6|10,1:2|0:2,0:0:0:0:
225,327,63825,2,0,L|235:253,1,60,2|0,1:2|1:2,0:0:0:0:
197,235,64144,1,8,0:2:0:0:
277,183,64463,6,0,B|258:116|307:131|285:60,1,120,2|8,1:2|0:2,0:0:0:0:
209,10,65102,2,0,L|138:22,1,60,2|0,1:2|1:2,0:0:0:0:
127,62,65421,2,0,L|67:52,1,60,10|0,0:2|0:2,0:0:0:0:
30,82,65740,6,0,B|9:150|9:150|35:196,1,120,6|10,0:2|0:2,0:0:0:0:
101,260,66378,2,0,B|112:289|112:289|98:328,1,60,2|0,1:2|1:2,0:0:0:0:
73,355,66697,1,10,0:2:0:0:
167,369,67016,6,0,L|302:350,1,120,6|0,3:2|1:0,0:0:0:0:
368,303,67655,2,0,L|427:311,2,60,2|0|8,1:2|1:0|0:0,0:0:0:0:
340,270,68134,1,4,1:3:0:0:
340,270,68293,6,0,B|319:192|319:192|342:146,1,120,6|10,1:2|0:2,0:0:0:0:
420,110,68931,2,0,B|435:77|435:77|424:35,1,60,2|0,1:2|1:2,0:0:0:0:
391,23,69251,1,10,0:2:0:0:
295,24,69570,6,0,L|164:44,1,120,2|8,1:2|0:2,0:0:0:0:
190,136,70208,2,0,L|71:117,1,120,2|10,1:2|0:2,0:0:0:0:
15,195,70846,6,0,L|4:265,1,60,6|0,1:2|1:2,0:0:0:0:
37,290,71165,1,10,0:2:0:0:
123,247,71485,1,2,1:2:0:0:
167,331,71804,2,0,P|200:339|240:324,1,60,10|0,0:2|1:2,0:0:0:0:
268,312,72123,6,0,P|250:251|275:200,1,120,2|8,1:2|0:2,0:0:0:0:
319,192,72602,1,0,1:2:0:0:
319,192,72761,1,0,1:2:0:0:
386,260,73080,1,8,0:2:0:0:
470,214,73399,6,0,L|454:95,1,120,6|10,1:2|0:2,0:0:0:0:
357,98,74038,2,0,L|366:26,1,60,2|0,0:2|0:2,0:0:0:0:
321,17,74357,1,10,0:2:0:0:
228,44,74676,6,0,B|162:19|173:72|95:44,1,120,2|8,1:2|0:2,0:0:0:0:
21,82,75314,2,0,L|11:153,1,60,2|0,1:2|1:2,0:0:0:0:
54,165,75634,2,0,L|62:224,1,60,10|0,0:2|0:2,0:0:0:0:
25,255,75953,6,0,B|2:330|2:330|25:375,1,120,14|10,0:2|0:2,0:0:0:0:
114,344,76591,2,0,B|148:333|148:333|177:345,1,60,10|0,0:2|1:2,0:0:0:0:
215,358,76910,2,0,B|249:369|249:369|278:357,1,60,14|0,0:2|0:2,0:0:0:0:
302,322,77229,5,6,1:2:0:0:
227,261,77548,2,0,L|215:113,2,120,8|0|4,0:0|1:0|0:3,0:0:0:0:
302,322,78506,6,0,B|374:344|374:344|425:314,1,120,4|2,0:0|0:0,0:0:0:0:
481,254,79144,2,0,L|469:106,1,120,2|0,0:0|0:0,0:0:0:0:
400,69,79782,1,2,0:0:0:0:
252,192,80421,1,2,0:0:0:0:
176,132,80740,1,2,0:0:0:0:
124,212,81059,6,0,L|109:92,1,120,2|2,0:0|0:0,0:0:0:0:
28,40,81697,2,0,L|13:159,1,120,2|2,0:0|0:0,0:0:0:0:
40,251,82336,1,2,0:0:0:0:
40,251,83293,1,2,0:0:0:0:
71,341,83612,6,0,B|147:318|147:318|188:341,1,120,2|2,0:0|0:0,0:0:0:0:
271,373,84251,2,0,L|407:356,1,120,2|2,0:0|0:0,0:0:0:0:
460,293,84889,1,2,0:0:0:0:
313,168,85527,1,2,0:0:0:0:
385,105,85846,1,2,0:0:0:0:
330,25,86165,5,2,0:0:0:0:
250,78,86485,2,0,L|106:62,2,120,2|2|2,0:0|0:0|0:0,0:0:0:0:
256,192,87442,12,0,88798,0:0:0:0:
