osu file format v14

[General]
AudioFilename: audio.mp3
AudioLeadIn: 0
PreviewTime:58028
Countdown: 0
SampleSet: Soft
StackLeniency: 0.4
Mode: 0
LetterboxInBreaks: 0
WidescreenStoryboard: 1

[Editor]
DistanceSpacing: 1.2
BeatDivisor: 3
GridSize: 32
TimelineZoom: 2.4

[Metadata]
Title:Kessen Spirit (TV Size)
TitleUnicode:決戦スピリット (TV Size)
Artist:CHiCO with HoneyWorks
ArtistUnicode:CHiCO with HoneyWorks
Creator:Nevo
Version:Glaceon's Insane
Source:ハイキュー!! TO THE TOP
Tags:volleyball sports season 4 part 1 shiratoi wanpachi cycopton glaceon japanese orange hair anime boy rock jrock opening short haikyuu collaboration Haruto_Aizawa haruto
BeatmapID:3083239
BeatmapSetID:1498771

[Difficulty]
HPDrainRate:5
CircleSize:3.8
OverallDifficulty:8
ApproachRate:9
SliderMultiplier:1.8
SliderTickRate:1

[Events]
//Background and Video events
0,0,"57509816_p0.jpg",0,0
Video,0,"haikyuu ed.mp4"
//Break Periods
//Storyboard Layer 0 (Background)
//Storyboard Layer 1 (Fail)
//Storyboard Layer 2 (Pass)
//Storyboard Layer 3 (Foreground)
//Storyboard Layer 4 (Overlay)
//Storyboard Sound Samples

[TimingPoints]
634,319.148936170213,4,2,1,50,1,0
3187,-111.111111111111,4,2,1,50,0,0
4463,-111.111111111111,4,2,1,60,0,0
14676,-125,4,2,1,55,0,0
24889,-117.647058823529,4,2,1,60,0,0
35102,-133.333333333333,4,2,1,55,0,0
45314,-117.647058823529,4,2,1,60,0,0
52974,-133.333333333333,4,2,1,65,0,0
55527,-111.111111111111,4,2,1,65,0,0
56804,-111.111111111111,4,2,1,55,0,0
58001,-111.111111111111,4,2,1,5,0,0
58080,-100,4,2,1,70,0,1
78506,-142.857142857143,4,2,1,50,0,0
83852,-142.857142857143,4,2,1,20,0,0
83931,-142.857142857143,4,2,1,50,0,0
86165,-142.857142857143,4,2,1,30,0,0
87442,-142.857142857143,4,2,1,20,0,0
87522,-133.333333333333,4,2,1,5,0,0

[Colours]
Combo1 : 53,154,255
Combo2 : 255,128,64
Combo3 : 149,215,234
Combo4 : 144,144,144

[HitObjects]
125,79,3187,5,4,1:2:0:0:
235,227,3346,1,8,0:0:0:0:
235,227,3426,1,8,0:0:0:0:
235,227,3506,2,0,L|240:159,3,40.4999987640381,8|8|0|0,0:0|0:0|1:0|1:0,0:0:0:0:
241,146,3825,1,8,0:0:0:0:
122,280,3985,1,0,1:0:0:0:
122,280,4064,1,0,1:0:0:0:
122,280,4144,1,12,0:0:0:0:
122,280,4463,5,6,1:2:0:0:
214,350,4623,1,0,1:2:0:0:
358,229,4782,1,10,0:2:0:0:
464,334,4942,2,0,L|296:311,1,161.999995056153,2|0,0:2|1:2,0:0:0:0:
226,144,5421,1,10,0:2:0:0:
358,229,5580,1,0,0:2:0:0:
383,67,5740,6,0,P|343:95|327:138,1,80.9999975280763,2|0,1:2|1:2,0:0:0:0:
445,256,6059,1,10,0:2:0:0:
303,312,6219,1,2,1:2:0:0:
303,312,6298,1,8,0:2:0:0:
303,312,6378,2,0,L|214:320,1,80.9999975280763,0|0,1:2|1:2,0:0:0:0:
122,166,6697,1,10,0:2:0:0:
275,218,6857,1,0,0:2:0:0:
99,343,7016,6,0,L|112:239,1,80.9999975280763,2|0,1:2|1:2,0:0:0:0:
217,142,7336,1,10,0:2:0:0:
21,170,7495,2,0,P|35:103|142:73,1,161.999995056153,2|0,0:2|1:2,0:0:0:0:
275,218,7974,1,10,0:2:0:0:
122,166,8134,1,0,0:2:0:0:
278,0,8293,6,0,L|290:100,1,80.9999975280763,2|2,1:2|1:2,0:0:0:0:
207,254,8612,2,0,P|254:219|300:223,1,80.9999975280763,14|0,0:2|1:2,0:0:0:0:
401,183,8931,1,2,1:2:0:0:
476,281,9091,1,2,1:2:0:0:
350,384,9251,2,0,L|359:303,1,80.9999975280763,14|0,0:2|0:2,0:0:0:0:
309,148,9570,6,0,P|279:185|276:232,1,80.9999975280763,6|0,1:2|1:2,0:0:0:0:
350,384,9889,1,10,0:2:0:0:
189,343,10048,2,0,L|173:158,1,161.999995056153,2|0,0:2|1:2,0:0:0:0:
104,7,10527,1,10,0:2:0:0:
0,153,10687,1,0,0:2:0:0:
186,74,10846,6,0,L|288:61,1,80.9999975280763,2|0,1:2|1:2,0:0:0:0:
412,166,11165,1,10,0:2:0:0:
247,243,11325,1,2,1:2:0:0:
247,243,11405,1,8,0:2:0:0:
247,243,11485,2,0,L|327:253,1,80.9999975280763,0|0,1:2|1:2,0:0:0:0:
383,68,11804,1,10,0:2:0:0:
251,150,11963,1,0,0:2:0:0:
423,270,12123,6,0,P|400:321|364:340,1,80.9999975280763,6|0,1:2|1:2,0:0:0:0:
129,350,12442,1,10,0:2:0:0:
247,243,12602,1,2,1:2:0:0:
89,129,12761,1,8,0:2:0:0:
154,256,12921,1,0,1:2:0:0:
232,52,13080,2,0,L|136:60,1,80.9999975280763,10|0,0:2|1:2,0:0:0:0:
26,204,13399,5,0,1:0:0:0:
26,204,13479,1,8,0:0:0:0:
26,204,13559,2,0,L|86:209,1,40.4999987640381,8|8,0:0|0:0,0:0:0:0:
173,149,13719,2,0,L|213:145,3,40.4999987640381,0|0|8|8,1:0|0:0|0:0|0:0,0:0:0:0:
251,160,14038,1,0,1:0:0:0:
346,265,14197,1,8,0:0:0:0:
451,215,14357,1,8,0:0:0:0:
448,184,14436,1,8,0:0:0:0:
445,154,14516,1,8,0:0:0:0:
442,124,14596,1,8,0:0:0:0:
439,94,14676,6,0,P|413:57|303:52,1,144,6|10,1:2|0:2,0:0:0:0:
251,160,15155,2,0,L|335:150,1,72,2|0,1:2|0:2,0:0:0:0:
218,36,15474,2,0,L|134:26,1,72,2|8,1:2|0:2,0:0:0:0:
47,78,15793,1,2,0:2:0:0:
120,179,15953,6,0,P|139:224|135:255,1,72,0|0,0:0|1:2,0:0:0:0:
96,384,16272,2,0,L|195:374,1,72,8|0,0:2|0:0,0:0:0:0:
207,376,16511,1,8,0:2:0:0:
207,376,16591,2,0,P|207:340|224:308,1,72,2|0,1:2|1:2,0:0:0:0:
383,368,16910,2,0,L|293:357,1,72,10|0,0:2|0:2,0:0:0:0:
256,216,17229,6,0,P|298:243|310:293,1,72,2|0,1:2|1:2,0:0:0:0:
170,238,17548,1,10,0:2:0:0:
147,153,17708,1,0,0:2:0:0:
147,153,17788,1,8,0:2:0:0:
147,153,17868,2,0,L|75:161,1,72,0|2,1:2|1:2,0:0:0:0:
29,295,18187,2,0,L|101:303,1,72,8|2,0:2|0:2,0:0:0:0:
217,319,18506,5,0,0:0:0:0:
307,261,18665,1,0,1:2:0:0:
418,343,18825,2,0,P|444:300|439:263,1,72,8|0,0:2|0:2,0:0:0:0:
430,251,19064,1,8,0:2:0:0:
430,251,19144,2,0,L|435:185,2,36,0|0|0,1:2|1:2|1:2,0:0:0:0:
338,91,19463,2,0,L|348:170,1,72,8|0,0:2|0:0,0:0:0:0:
165,222,19782,6,0,L|185:69,1,144,6|8,1:2|0:2,0:0:0:0:
91,7,20261,1,2,1:2:0:0:
91,7,20341,1,0,0:0:0:0:
91,7,20421,2,0,P|59:38|53:80,1,72,0|2,1:2|1:2,0:0:0:0:
20,160,20740,2,0,P|52:191|58:233,1,72,8|0,0:2|0:2,0:0:0:0:
27,352,21059,6,0,L|129:341,1,72,0|0,0:0|1:2,0:0:0:0:
295,315,21378,2,0,L|193:304,1,72,8|0,0:2|0:0,0:0:0:0:
203,283,21618,1,8,0:2:0:0:
203,283,21697,2,0,L|305:272,1,72,2|0,1:2|1:2,0:0:0:0:
399,198,22016,2,0,P|371:163|318:153,1,72,10|0,0:2|1:2,0:0:0:0:
186,183,22336,6,0,P|230:176|265:135,1,72,2|0,1:2|0:0,0:0:0:0:
175,25,22655,1,8,0:2:0:0:
84,120,22814,1,2,1:2:0:0:
84,120,22894,1,0,0:0:0:0:
84,120,22974,2,0,L|95:207,1,72,0|2,1:2|1:2,0:0:0:0:
222,265,23293,2,0,L|211:352,1,72,8|0,0:2|0:2,0:0:0:0:
94,372,23612,5,0,0:0:0:0:
18,290,23772,1,0,1:2:0:0:
186,183,23931,2,0,L|268:178,1,72,8|0,0:2|0:0,0:0:0:0:
365,248,24251,1,0,1:2:0:0:
471,146,24410,1,8,0:2:0:0:
373,39,24570,1,4,0:3:0:0:
461,239,24729,5,8,0:2:0:0:
461,239,24809,1,8,0:2:0:0:
461,239,24889,2,0,P|454:303|362:348,1,153.000002918243,6|8,1:2|0:0,0:0:0:0:
216,318,25368,2,0,L|326:307,1,76.5000014591217,2|0,0:0|1:0,0:0:0:0:
315,167,25687,1,2,1:2:0:0:
159,229,25846,2,0,L|49:218,1,76.5000014591217,8|2,0:0|3:2,0:0:0:0:
177,56,26165,6,0,P|207:98|204:142,1,76.5000014591217,0|0,0:0|1:0,0:0:0:0:
15,104,26485,2,0,P|36:57|75:37,1,76.5000014591217,8|0,0:0|0:0,0:0:0:0:
159,229,26804,1,2,1:2:0:0:
113,113,26963,1,0,1:0:0:0:
54,279,27123,2,0,L|65:368,1,76.5000014591217,10|0,0:0|0:0,0:0:0:0:
242,348,27442,6,0,L|251:272,1,76.5000014591217,2|0,1:2|0:0,0:0:0:0:
345,147,27761,1,8,0:0:0:0:
453,245,27921,2,0,L|362:251,1,76.5000014591217,0|0,0:0|1:0,0:0:0:0:
242,107,28240,1,2,1:2:0:0:
410,65,28399,2,0,P|448:105|449:152,1,76.5000014591217,8|2,0:0|1:2,0:0:0:0:
260,202,28719,6,0,L|183:196,1,76.5000014591217,0|0,1:2|1:2,0:0:0:0:
85,63,29038,2,0,L|161:57,1,76.5000014591217,8|0,0:0|0:0,0:0:0:0:
71,248,29357,1,0,1:0:0:0:
16,139,29516,1,0,1:0:0:0:
6,326,29676,2,0,P|40:349|97:337,1,76.5000014591217,8|2,0:0|3:0,0:0:0:0:
222,287,29995,6,0,P|185:304|166:360,1,76.5000014591217,2|0,1:2|0:0,0:0:0:0:
318,279,30314,1,8,0:0:0:0:
394,354,30474,2,0,L|407:265,1,76.5000014591217,2|0,1:2|1:0,0:0:0:0:
261,202,30793,1,2,1:2:0:0:
321,67,30953,2,0,L|332:142,1,76.5000014591217,8|2,0:0|0:2,0:0:0:0:
170,208,31272,6,0,P|174:167|217:127,1,76.5000014591217,0|0,0:0|1:0,0:0:0:0:
318,279,31591,2,0,P|281:298|223:283,1,76.5000014591217,8|0,0:0|0:0,0:0:0:0:
85,249,31910,1,2,1:2:0:0:
261,202,32070,1,0,1:0:0:0:
167,381,32229,2,0,L|159:282,1,76.5000014591217,10|0,0:0|0:0,0:0:0:0:
30,172,32548,6,0,L|38:73,1,76.5000014591217,6|0,1:2|0:0,0:0:0:0:
201,0,32868,1,10,0:0:0:0:
272,76,33027,2,0,P|234:103|182:99,1,76.5000014591217,2|0,0:0|1:0,0:0:0:0:
95,0,33346,1,2,1:2:0:0:
133,187,33506,2,0,P|170:192|199:216,1,76.5000014591217,8|10,0:0|0:2,0:0:0:0:
294,329,33825,5,0,1:0:0:0:
294,329,33905,1,0,0:0:0:0:
294,329,33985,2,0,L|301:263,1,38.2500007295609,8|8,0:0|0:0,0:0:0:0:
403,234,34144,2,0,L|416:319,1,76.5000014591217,8|8,0:0|0:0,0:0:0:0:
445,340,34384,1,8,0:0:0:0:
445,340,34463,2,0,L|456:264,1,76.5000014591217,8|4,0:0|1:3,0:0:0:0:
512,139,34782,1,4,0:0:0:0:
415,61,34942,1,0,0:0:0:0:
279,196,35102,6,0,B|201:195|235:238|141:221,1,135.000005149842,4|2,0:0|1:2,0:0:0:0:
36,170,35580,1,0,0:0:0:0:
118,73,35740,2,0,L|127:158,1,67.5000025749208,10|0,0:0|1:0,0:0:0:0:
36,170,36059,2,0,L|27:255,1,67.5000025749208,0|0,1:0|1:0,0:0:0:0:
88,324,36378,5,10,0:0:0:0:
196,205,36538,1,8,0:0:0:0:
261,290,36697,2,0,L|174:299,1,67.5000025749208,0|0,1:0|1:0,0:0:0:0:
251,127,37016,2,0,P|281:154|291:204,1,67.5000025749208,10|0,0:0|0:0,0:0:0:0:
193,296,37336,1,4,0:0:0:0:
315,376,37495,1,0,0:0:0:0:
424,306,37655,6,0,L|408:152,1,135.000005149842,6|2,0:0|1:2,0:0:0:0:
371,56,38134,1,0,0:0:0:0:
251,127,38293,2,0,L|157:118,1,67.5000025749208,10|0,0:0|0:0,0:0:0:0:
127,45,38612,2,0,L|59:51,1,67.5000025749208,2|0,0:0|0:0,0:0:0:0:
21,257,38931,6,0,P|40:205|126:172,1,135.000005149842,14|0,0:0|1:0,0:0:0:0:
214,327,39410,2,0,P|177:271|113:256,1,135.000005149842,6|0,0:0|1:0,0:0:0:0:
43,373,39889,2,0,L|132:361,1,67.5000025749208,8|0,0:0|0:0,0:0:0:0:
142,373,40128,1,8,0:0:0:0:
142,373,40208,1,4,0:0:0:0:
142,373,40527,6,0,L|287:380,1,135.000005149842,2|10,1:2|0:0,0:0:0:0:
384,331,41006,1,0,0:0:0:0:
298,262,41165,2,0,P|294:228|306:197,1,67.5000025749208,2|0,0:0|1:0,0:0:0:0:
331,174,41405,5,0,0:0:0:0:
331,174,41485,1,2,1:2:0:0:
431,69,41644,1,8,0:0:0:0:
492,167,41804,2,0,L|413:157,1,67.5000025749208,2|0,1:2|0:0,0:0:0:0:
347,34,42123,2,0,L|280:42,1,67.5000025749208,8|0,0:0|0:0,0:0:0:0:
181,120,42442,2,0,L|269:133,1,67.5000025749208,2|0,1:2|0:0,0:0:0:0:
111,37,42761,6,0,P|70:73|70:151,2,135.000005149842,6|2|10,1:2|1:2|0:0,0:0:0:0:
181,120,43559,1,0,0:0:0:0:
149,218,43719,2,0,L|140:290,1,67.5000025749208,2|8,0:2|0:0,0:0:0:0:
240,362,44038,6,0,L|234:307,3,33.7500012874604,4|0|0|0,3:2|0:0|3:0|3:0,0:0:0:0:
259,303,44357,2,0,L|265:248,3,33.7500012874604,0|0|0|0,3:0|0:0|3:0|3:0,0:0:0:0:
245,240,44676,1,8,0:0:0:0:
318,125,44836,1,8,0:0:0:0:
318,125,44915,1,8,0:0:0:0:
318,125,44995,2,0,L|326:182,1,33.7500012874604,8|8,0:3|0:3,0:0:0:0:
402,213,45155,2,0,L|394:270,1,33.7500012874604,4|4,0:3|0:3,0:0:0:0:
358,366,45314,6,0,L|464:356,1,76.5000014591217,4|0,1:2|0:2,0:0:0:0:
512,213,45634,1,10,0:2:0:0:
512,213,45953,2,0,P|503:164|471:137,1,76.5000014591217,2|2,1:2|1:2,0:0:0:0:
416,42,46272,1,10,0:2:0:0:
337,153,46431,6,0,B|402:157|402:157|422:142|422:142|508:146,1,153.000002918243,6|2,1:2|1:2,0:0:0:0:
288,29,46910,2,0,B|223:33|223:33|203:18|203:18|117:22,1,153.000002918243,10|0,0:2|1:2,0:0:0:0:
47,94,47389,1,0,1:2:0:0:
166,215,47548,2,0,L|156:122,1,76.5000014591217,8|0,0:2|0:0,0:0:0:0:
13,209,47868,2,0,L|4:285,1,76.5000014591217,4|0,1:2|0:0,0:0:0:0:
197,353,48187,5,10,0:2:0:0:
90,277,48346,1,2,0:2:0:0:
255,230,48506,2,0,L|349:218,1,76.5000014591217,2|2,1:2|1:2,0:0:0:0:
455,300,48825,1,10,0:2:0:0:
512,154,48985,6,0,P|489:118|363:120,1,153.000002918243,6|2,1:2|1:2,0:0:0:0:
220,103,49463,2,0,P|262:101|323:-9,1,153.000002918243,10|0,0:2|1:2,0:0:0:0:
156,31,49942,1,0,1:2:0:0:
181,188,50102,2,0,P|205:228|202:268,1,76.5000014591217,8|0,0:2|0:0,0:0:0:0:
28,225,50421,2,0,P|50:184|86:166,1,76.5000014591217,4|0,1:2|0:0,0:0:0:0:
124,359,50740,6,0,L|115:268,1,76.5000014591217,10|0,0:2|0:2,0:0:0:0:
285,293,51059,2,0,L|294:202,1,76.5000014591217,2|0,1:2|1:2,0:0:0:0:
220,103,51378,1,10,0:2:0:0:
373,35,51538,6,0,L|391:196,1,153.000002918243,6|2,1:2|1:2,0:0:0:0:
503,269,52016,2,0,P|477:313|443:328,1,76.5000014591217,10|0,0:2|0:2,0:0:0:0:
323,296,52336,2,0,L|251:289,3,38.2500007295609,8|8|8|8,0:0|0:0|0:0|0:3,0:0:0:0:
255,317,52655,2,0,L|216:320,3,38.2500007295609,8|4|4|4,0:3|0:3|0:3|0:3,0:0:0:0:
192,296,52974,6,0,L|51:287,2,135.000005149842,6|10|0,1:2|0:2|1:2,0:0:0:0:
291,198,53772,1,0,1:2:0:0:
186,118,53931,2,0,L|192:210,1,67.5000025749208,10|0,0:2|1:2,0:0:0:0:
167,210,54171,5,0,0:0:0:0:
167,210,54251,2,0,P|96:197|66:127,2,135.000005149842,2|10|0,1:2|0:2|1:2,0:0:0:0:
284,105,55048,1,0,1:2:0:0:
378,222,55208,2,0,P|353:266|313:281,1,67.5000025749208,8|0,0:2|1:2,0:0:0:0:
181,303,55527,5,14,0:2:0:0:
291,198,55687,1,0,1:2:0:0:
388,369,55846,2,0,L|294:377,1,80.9999975280763,14|0,0:2|1:2,0:0:0:0:
197,190,56165,1,12,0:2:0:0:
339,274,56325,1,0,1:2:0:0:
189,384,56485,2,0,L|180:291,1,80.9999975280763,14|0,0:2|0:0,0:0:0:0:
96,151,56804,5,6,0:0:0:0:
96,151,58080,6,0,P|108:103|162:72,1,90,6|0,1:2|0:2,0:0:0:0:
296,164,58399,2,0,L|184:153,1,90,10|0,0:2|1:2,0:0:0:0:
343,47,58719,1,2,1:2:0:0:
424,132,58878,1,0,1:2:0:0:
304,253,59038,2,0,L|294:151,1,90,8|0,0:2|0:2,0:0:0:0:
419,286,59357,6,0,P|390:357|268:362,1,180,2|8,1:2|0:2,0:0:0:0:
188,305,59836,1,0,1:2:0:0:
51,384,59995,2,0,L|63:286,1,90,2|0,1:2|1:2,0:0:0:0:
211,132,60314,2,0,L|221:221,1,90,10|0,0:2|0:2,0:0:0:0:
1,223,60634,6,0,P|38:196|102:207,1,90,6|0,1:2|0:0,0:0:0:0:
48,66,60953,2,0,P|92:76|125:133,1,90,10|0,0:2|1:2,0:0:0:0:
188,305,61272,1,2,1:2:0:0:
80,196,61431,1,0,1:2:0:0:
0,369,61591,2,0,L|109:355,1,90,10|0,0:2|0:2,0:0:0:0:
261,229,61910,6,0,B|298:228|328:246|328:246|367:228|367:228|399:250|442:252,1,180,2|8,1:2|0:2,0:0:0:0:
512,370,62389,1,0,1:2:0:0:
506,198,62548,2,0,P|470:167|421:164,1,90,0|0,1:2|1:2,0:0:0:0:
261,229,62868,1,10,0:2:0:0:
261,229,63187,6,0,P|301:187|300:137,1,90,6|0,1:2|0:0,0:0:0:0:
181,22,63506,2,0,L|193:129,1,90,10|0,0:2|1:2,0:0:0:0:
26,223,63825,1,2,1:2:0:0:
97,104,63985,1,0,1:2:0:0:
129,279,64144,2,0,L|139:189,1,90,8|0,0:2|0:2,0:0:0:0:
27,344,64463,6,0,B|135:371|135:371|209:344,1,180,2|8,1:2|0:2,0:0:0:0:
261,229,64942,1,0,1:2:0:0:
382,329,65102,2,0,L|290:316,1,90,2|0,1:2|1:2,0:0:0:0:
473,184,65421,2,0,L|383:196,1,90,10|0,0:2|0:2,0:0:0:0:
229,71,65740,5,6,0:2:0:0:
110,158,65899,1,0,1:2:0:0:
334,93,66059,2,0,P|332:33|296:1,1,90,10|0,0:2|1:2,0:0:0:0:
118,68,66378,2,0,L|108:173,1,90,2|0,1:2|1:2,0:0:0:0:
274,254,66697,2,0,L|265:164,1,90,10|0,0:2|0:0,0:0:0:0:
37,221,67016,6,0,L|45:288,3,45,6|0|0|0,3:2|3:0|3:0|3:0,0:0:0:0:
76,296,67336,2,0,L|68:363,3,45,0|0|0|0,1:0|1:0|3:0|3:0,0:0:0:0:
34,367,67655,1,2,1:2:0:0:
190,339,67814,1,0,1:0:0:0:
190,339,67894,1,0,1:0:0:0:
190,339,67974,2,0,L|181:273,1,45,8|0,0:0|1:0,0:0:0:0:
140,211,68134,2,0,L|149:145,1,45,4|8,1:3|1:3,0:0:0:0:
229,42,68293,6,0,P|282:60|305:113,1,90,6|0,1:2|0:2,0:0:0:0:
366,245,68612,2,0,L|246:233,1,90,10|0,0:2|0:2,0:0:0:0:
390,140,68931,1,2,1:2:0:0:
474,217,69091,1,0,1:2:0:0:
477,41,69251,2,0,L|378:50,1,90,10|0,0:2|1:2,0:0:0:0:
229,121,69570,6,0,P|171:54|62:84,1,180,2|8,1:2|0:2,0:0:0:0:
0,163,70048,1,0,1:2:0:0:
147,236,70208,2,0,L|138:139,1,90,2|0,1:2|1:2,0:0:0:0:
34,290,70527,2,0,L|25:379,1,90,10|0,0:2|0:2,0:0:0:0:
211,290,70846,6,0,P|168:241|115:238,1,90,6|0,1:2|1:2,0:0:0:0:
344,165,71165,2,0,P|278:166|242:205,1,90,10|0,0:2|0:2,0:0:0:0:
278,384,71485,1,2,1:2:0:0:
312,246,71644,1,0,1:2:0:0:
439,382,71804,2,0,L|455:266,1,90,10|0,0:2|1:2,0:0:0:0:
484,112,72123,6,0,P|453:164|323:142,1,180,2|8,1:2|0:2,0:0:0:0:
235,44,72602,1,0,1:2:0:0:
177,195,72761,2,0,P|224:174|249:118,1,90,0|0,1:2|1:2,0:0:0:0:
88,20,73080,1,8,0:2:0:0:
88,20,73399,6,0,L|77:114,1,90,6|0,1:2|0:2,0:0:0:0:
5,247,73719,2,0,L|16:341,1,90,10|0,0:2|0:2,0:0:0:0:
177,195,74038,1,2,0:2:0:0:
0,158,74197,1,0,0:2:0:0:
137,290,74357,2,0,P|196:298|235:275,1,90,10|0,0:2|0:2,0:0:0:0:
288,105,74676,6,0,P|275:157|392:233,1,180,2|8,1:2|0:2,0:0:0:0:
490,211,75155,1,0,1:2:0:0:
387,50,75314,2,0,L|373:170,1,90,2|0,1:2|1:2,0:0:0:0:
500,300,75634,2,0,L|489:210,1,90,10|0,0:2|0:2,0:0:0:0:
249,343,75953,5,14,0:2:0:0:
356,238,76112,1,0,1:2:0:0:
447,370,76272,2,0,L|336:355,1,90,10|0,0:2|1:2,0:0:0:0:
248,178,76591,1,10,0:2:0:0:
128,296,76751,1,0,1:2:0:0:
41,154,76910,2,0,L|50:57,1,90,14|0,0:2|0:2,0:0:0:0:
202,14,77229,6,0,P|259:22|292:66,1,90,6|0,1:2|0:0,0:0:0:0:
301,83,77469,1,0,0:0:0:0:
301,83,77548,2,0,L|380:75,2,60,8|4|4,0:0|0:3|0:3,0:0:0:0:
231,145,77868,2,0,L|152:137,2,60,0|8|8,1:0|0:0|0:3,0:0:0:0:
298,217,78187,2,0,L|377:209,2,60,4|4|4,0:3|0:3|0:3,0:0:0:0:
234,286,78506,6,0,L|89:270,1,125.999996154785,4|2,0:0|0:0,0:0:0:0:
290,367,79144,2,0,L|435:351,1,125.999996154785,2|0,0:0|0:0,0:0:0:0:
475,200,79782,2,0,P|461:137|328:100,1,188.999994232178,2|0,0:0|0:0,0:0:0:0:
253,198,80421,2,0,L|408:186,1,125.999996154785,2|2,0:0|0:0,0:0:0:0:
110,70,81059,6,0,L|90:214,1,125.999996154785,2|2,0:0|0:0,0:0:0:0:
270,322,81697,2,0,L|252:197,1,125.999996154785,2|2,0:0|0:0,0:0:0:0:
0,261,82336,2,0,P|51:325|161:304,1,188.999994232178,2|2,0:0|0:0,0:0:0:0:
100,111,82974,2,0,L|93:253,1,125.999996154785,2|2,0:0|0:0,0:0:0:0:
292,347,83612,6,0,P|346:318|355:241,1,125.999996154785,2|2,0:0|0:0,0:0:0:0:
206,143,84251,2,0,P|204:204|266:250,1,125.999996154785,2|2,0:0|0:0,0:0:0:0:
494,94,84889,2,0,L|282:77,1,188.999994232178,2|0,0:0|0:0,0:0:0:0:
206,143,85527,2,0,P|236:186|319:191,1,125.999996154785,2|2,0:0|0:0,0:0:0:0:
106,81,86165,6,0,L|92:222,1,125.999996154785,2|2,0:0|0:0,0:0:0:0:
251,220,86804,2,0,L|265:361,1,125.999996154785,2|2,0:0|0:0,0:0:0:0:
113,353,87442,2,0,L|109:384,1,31.4999990386963,2|0,0:0|0:0,0:0:0:0:
256,192,87602,12,0,88798,0:0:0:0:
