osu file format v14

[General]
AudioFilename: audio.mp3
AudioLeadIn: 0
PreviewTime:58028
Countdown: 0
SampleSet: Soft
StackLeniency: 0.7
Mode: 0
LetterboxInBreaks: 0
WidescreenStoryboard: 1

[Editor]
DistanceSpacing: 1.3
BeatDivisor: 4
GridSize: 32
TimelineZoom: 2.4

[Metadata]
Title:Kessen Spirit (TV Size)
TitleUnicode:決戦スピリット (TV Size)
Artist:CHiCO with HoneyWorks
ArtistUnicode:CHiCO with HoneyWorks
Creator:Nevo
Version:Collab Hard
Source:ハイキュー!! TO THE TOP
Tags:volleyball sports season 4 part 1 shiratoi wanpachi cycopton glaceon japanese orange hair anime boy rock jrock opening short haikyuu collaboration Haruto_Aizawa haruto
BeatmapID:3227068
BeatmapSetID:1498771

[Difficulty]
HPDrainRate:5
CircleSize:3.5
OverallDifficulty:7
ApproachRate:8
SliderMultiplier:1.4
SliderTickRate:1

[Events]
//Background and Video events
0,0,"57509816_p0.jpg",0,0
Video,0,"haikyuu ed.mp4"
//Break Periods
//Storyboard Layer 0 (Background)
//Storyboard Layer 1 (Fail)
//Storyboard Layer 2 (Pass)
//Storyboard Layer 3 (Foreground)
//Storyboard Layer 4 (Overlay)
//Storyboard Sound Samples

[TimingPoints]
634,319.148936170213,4,2,1,50,1,0
4463,-100,4,2,1,60,0,0
14676,-100,4,2,1,55,0,0
24889,-100,4,2,1,60,0,0
34782,-100,4,2,1,60,0,0
35102,-100,4,2,1,55,0,0
35421,-100,4,2,1,55,0,0
37655,-100,4,2,1,55,0,0
37974,-100,4,2,1,55,0,0
40208,-100,4,2,1,55,0,0
40527,-100,4,2,1,55,0,0
45314,-100,4,2,1,60,0,0
47868,-100,4,2,1,60,0,0
48985,-100,4,2,1,60,0,0
50421,-100,4,2,1,60,0,0
50740,-100,4,2,1,60,0,0
52974,-100,4,2,1,65,0,0
56804,-100,4,2,1,55,0,0
58001,-100,4,2,1,5,0,0
58080,-90.9090909090909,4,2,1,70,0,1
61910,-90.9090909090909,4,2,1,70,0,1
68293,-90.9090909090909,4,2,1,70,0,1
74676,-90.9090909090909,4,2,1,70,0,1
78506,-111.111111111111,4,2,1,50,0,0
83852,-100,4,2,1,20,0,0
83931,-100,4,2,1,50,0,0
86165,-100,4,2,1,30,0,0
87442,-100,4,2,1,20,0,0
87522,-133.333333333333,4,2,1,5,0,0

[Colours]
Combo1 : 53,154,255
Combo2 : 255,128,64
Combo3 : 149,215,234
Combo4 : 144,144,144

[HitObjects]
115,53,3187,5,4,1:2:0:0:
70,131,3346,1,8,0:0:0:0:
70,131,3426,1,8,0:0:0:0:
70,131,3506,2,0,L|90:217,1,70,8|8,0:0|0:0,0:0:0:0:
142,270,3825,2,0,L|127:326,3,35,8|0|0|0,0:0|1:0|1:0|1:0,0:0:0:0:
102,330,4144,5,12,0:0:0:0:
282,353,4463,6,0,L|356:345,1,70,6|0,1:2|1:2,0:0:0:0:
437,375,4782,1,10,0:2:0:0:
482,295,4942,2,0,B|507:255|507:255|484:144,1,140,2|0,0:2|1:2,0:0:0:0:
421,100,5421,2,0,P|383:122|326:119,1,70,10|0,0:2|0:2,0:0:0:0:
282,74,5740,6,0,L|193:85,1,70,2|0,1:2|1:2,0:0:0:0:
128,47,6059,1,10,0:2:0:0:
80,127,6219,1,2,1:2:0:0:
80,127,6298,1,8,0:2:0:0:
80,127,6378,2,0,P|69:179|79:209,1,70,0|0,1:2|1:2,0:0:0:0:
115,274,6697,2,0,L|198:262,1,70,10|0,0:2|0:2,0:0:0:0:
264,219,7016,6,0,L|333:223,1,70,2|0,1:2|1:2,0:0:0:0:
401,285,7336,1,10,0:2:0:0:
362,372,7495,2,0,L|211:362,1,140,2|0,0:2|1:2,0:0:0:0:
133,338,7974,2,0,P|114:302|118:261,1,70,10|0,0:2|0:2,0:0:0:0:
188,218,8293,5,2,1:2:0:0:
188,218,8453,1,2,1:2:0:0:
148,136,8612,2,0,L|78:128,1,70,14|0,0:2|1:2,0:0:0:0:
59,39,8931,2,0,L|128:46,1,70,2|2,1:2|1:2,0:0:0:0:
217,68,9251,2,0,L|314:56,1,70,14|0,0:2|0:2,0:0:0:0:
377,58,9570,6,0,L|363:131,2,70,6|0|10,1:2|1:2|0:2,0:0:0:0:
460,92,10048,2,0,L|483:241,1,140,2|0,0:2|1:2,0:0:0:0:
434,308,10527,2,0,P|408:299|340:319,1,70,10|0,0:2|0:2,0:0:0:0:
294,358,10846,6,0,P|251:366|208:343,1,70,2|0,1:2|1:2,0:0:0:0:
159,296,11165,1,10,0:2:0:0:
77,320,11325,1,2,1:2:0:0:
77,320,11405,1,8,0:2:0:0:
77,320,11485,2,0,L|71:229,1,70,0|0,1:2|1:2,0:0:0:0:
139,188,11804,2,0,L|145:97,1,70,10|0,0:2|0:2,0:0:0:0:
98,38,12123,6,0,P|63:31|35:11,2,70,6|0|10,1:2|1:2|0:2,0:0:0:0:
143,118,12602,2,0,L|305:101,1,140,2|0,1:2|1:2,0:0:0:0:
361,58,13080,2,0,P|375:100|362:142,1,70,10|0,0:2|1:2,0:0:0:0:
312,194,13399,5,0,1:0:0:0:
312,194,13479,1,8,0:0:0:0:
312,194,13559,1,8,0:0:0:0:
376,258,13719,2,0,L|456:248,1,70,0|8,1:0|0:0,0:0:0:0:
448,340,14038,2,0,L|378:348,1,70,0|8,1:0|0:0,0:0:0:0:
292,379,14357,1,8,0:0:0:0:
257,375,14436,1,8,0:0:0:0:
223,370,14516,1,8,0:0:0:0:
188,365,14596,1,8,0:0:0:0:
153,360,14676,6,0,P|128:315|146:228,1,140,6|10,1:2|0:2,0:0:0:0:
202,161,15155,2,0,P|225:130|227:76,1,70,2|0,1:2|0:2,0:0:0:0:
166,34,15474,2,0,P|143:65|141:119,1,70,2|8,1:2|0:2,0:0:0:0:
230,99,15793,6,0,L|393:85,1,140,2|0,0:2|1:2,0:0:0:0:
391,175,16272,2,0,L|292:184,1,70,8|0,0:2|0:0,0:0:0:0:
269,256,16591,2,0,L|184:248,1,70,2|0,1:2|1:2,0:0:0:0:
123,198,16910,2,0,P|106:240|113:276,1,70,10|0,0:2|0:2,0:0:0:0:
157,340,17229,6,0,L|330:356,1,140,2|10,1:2|0:2,0:0:0:0:
380,318,17708,2,0,P|412:281|420:259,1,70,0|0,0:2|1:2,0:0:0:0:
508,278,18027,2,0,P|504:229|494:207,1,70,2|8,1:2|0:2,0:0:0:0:
458,127,18346,6,0,B|426:152|426:152|317:137,1,140,2|0,0:2|1:2,0:0:0:0:
257,79,18825,2,0,L|181:88,1,70,8|0,0:2|0:2,0:0:0:0:
108,41,19144,2,0,P|97:93|107:132,2,70,0|0|8,1:2|1:2|0:2,0:0:0:0:
237,169,19782,6,0,L|227:269,1,70,6|0,1:2|1:2,0:0:0:0:
217,329,20102,1,8,0:2:0:0:
132,360,20261,2,0,P|92:365|58:358,1,70,2|0,1:2|1:2,0:0:0:0:
1,292,20580,2,0,L|12:196,1,70,2|8,1:2|0:2,0:0:0:0:
94,190,20899,6,0,L|86:45,1,140,0|0,0:2|1:2,0:0:0:0:
172,19,21378,2,0,P|211:9|260:25,1,70,8|0,0:2|0:0,0:0:0:0:
310,71,21697,2,0,L|393:63,1,70,2|0,1:2|1:2,0:0:0:0:
455,13,22016,2,0,P|475:54|466:94,1,70,10|0,0:2|1:2,0:0:0:0:
414,148,22336,6,0,L|430:295,1,140,2|8,1:2|0:2,0:0:0:0:
345,321,22814,2,0,L|333:221,1,70,2|0,1:2|1:2,0:0:0:0:
249,224,23134,2,0,L|257:293,1,70,2|8,1:2|0:2,0:0:0:0:
191,356,23453,6,0,P|146:365|81:300,1,140,0|0,0:2|1:2,0:0:0:0:
90,215,23931,2,0,L|167:204,1,70,8|0,0:2|0:0,0:0:0:0:
249,224,24251,1,0,1:2:0:0:
249,224,24410,1,8,0:2:0:0:
322,169,24570,1,4,0:3:0:0:
272,95,24729,1,8,0:2:0:0:
272,95,24809,1,8,0:2:0:0:
272,95,24889,6,0,L|263:12,1,70,6|0,1:2|0:0,0:0:0:0:
176,48,25208,1,8,0:0:0:0:
176,48,25368,2,0,L|183:117,1,70,2|0,0:0|1:0,0:0:0:0:
97,145,25687,2,0,L|89:214,1,70,2|8,1:2|0:0,0:0:0:0:
83,305,26006,6,0,P|138:323|243:288,1,140,2|0,3:2|1:0,0:0:0:0:
298,263,26485,2,0,P|363:249|390:258,1,70,8|0,0:0|0:0,0:0:0:0:
433,309,26804,2,0,P|456:270|458:230,1,70,2|0,1:2|1:0,0:0:0:0:
417,164,27123,2,0,L|407:89,1,70,10|0,0:0|0:0,0:0:0:0:
340,32,27442,6,0,P|293:22|258:23,1,70,2|0,1:2|0:0,0:0:0:0:
202,81,27761,1,8,0:0:0:0:
202,81,27921,2,0,P|167:79|133:70,1,70,0|0,0:0|1:0,0:0:0:0:
45,45,28240,2,0,L|56:128,1,70,2|8,1:2|0:0,0:0:0:0:
122,175,28559,6,0,L|106:320,1,140,2|0,1:2|1:2,0:0:0:0:
175,373,29038,2,0,P|211:360|253:358,1,70,8|0,0:0|0:0,0:0:0:0:
333,362,29357,2,0,L|408:372,1,70,0|0,1:0|1:0,0:0:0:0:
441,289,29676,2,0,L|371:279,1,70,8|2,0:0|3:0,0:0:0:0:
307,213,29995,6,0,P|297:170|308:127,1,70,2|0,1:2|0:0,0:0:0:0:
319,58,30314,1,8,0:0:0:0:
319,58,30474,2,0,L|223:67,1,70,2|0,1:2|1:0,0:0:0:0:
183,127,30793,2,0,L|113:120,1,70,2|8,1:2|0:0,0:0:0:0:
54,50,31112,6,0,P|26:102|56:197,1,140,2|0,0:2|1:0,0:0:0:0:
101,246,31591,2,0,L|107:342,1,70,8|0,0:0|0:0,0:0:0:0:
176,373,31910,2,0,P|226:377|252:368,1,70,2|0,1:2|1:0,0:0:0:0:
308,306,32229,2,0,P|358:302|384:311,1,70,10|0,0:0|0:0,0:0:0:0:
431,380,32548,6,0,L|416:233,1,140,6|10,1:2|0:0,0:0:0:0:
349,179,33027,2,0,L|356:87,1,70,2|0,0:0|1:0,0:0:0:0:
268,76,33346,2,0,L|262:145,1,70,2|8,1:2|0:0,0:0:0:0:
259,237,33665,6,0,P|312:280|410:266,1,140,10|8,0:2|0:0,0:0:0:0:
462,240,34144,2,0,L|470:170,1,70,8|8,0:0|0:0,0:0:0:0:
448,135,34384,1,8,0:0:0:0:
448,135,34464,2,0,L|439:65,1,70,8|4,0:0|1:3,0:0:0:0:
364,13,34782,2,0,P|329:7|291:17,1,70,4|0,0:0|0:0,0:0:0:0:
264,101,35102,6,0,L|134:89,1,105,4|0,0:0|0:0,0:0:0:0:
118,110,35421,2,0,L|23:121,1,70,2|0,1:2|0:0,0:0:0:0:
34,208,35740,1,10,0:0:0:0:
34,208,35899,1,0,1:0:0:0:
117,252,36059,2,0,P|140:298|141:336,1,70,0|0,1:0|1:0,0:0:0:0:
72,374,36378,6,0,L|165:361,1,70,10|8,0:0|0:0,0:0:0:0:
231,379,36697,2,0,L|324:366,1,70,0|0,1:0|1:0,0:0:0:0:
375,317,37016,2,0,P|351:290|361:201,1,105,10|0,0:0|1:0,0:0:0:0:
378,190,37336,2,0,P|399:152|398:120,1,70,4|0,0:0|0:0,0:0:0:0:
300,67,37655,6,0,L|311:140,1,70,6|0,0:0|0:0,0:0:0:0:
297,229,37974,1,2,1:2:0:0:
297,229,38134,1,0,0:0:0:0:
216,271,38293,2,0,P|142:254|134:247,1,70,10|0,0:0|0:0,0:0:0:0:
83,322,38612,2,0,P|42:258|42:247,1,70,2|0,0:0|0:0,0:0:0:0:
38,174,38931,6,0,L|48:82,1,70,14|0,0:0|1:0,0:0:0:0:
81,74,39171,1,0,0:0:0:0:
81,74,39251,2,0,P|136:49|156:50,1,70,0|6,1:0|0:0,0:0:0:0:
225,90,39570,2,0,P|267:100|348:75,1,105,2|0,1:2|1:0,0:0:0:0:
361,58,39889,2,0,L|445:65,1,70,8|0,0:0|0:0,0:0:0:0:
467,99,40128,1,8,0:0:0:0:
467,99,40208,6,0,P|470:135|452:189,1,70,4|0,0:0|0:0,0:0:0:0:
398,232,40527,2,0,L|413:330,1,70,2|0,1:2|0:0,0:0:0:0:
329,346,40846,2,0,L|318:276,1,70,10|0,0:0|0:0,0:0:0:0:
253,212,41165,1,2,0:0:0:0:
253,212,41325,1,0,1:0:0:0:
169,249,41485,6,0,P|123:268|90:262,1,70,2|8,1:2|0:0,0:0:0:0:
26,218,41804,2,0,L|12:68,1,140,2|8,1:2|0:0,0:0:0:0:
183,14,42442,2,0,L|173:95,1,70,2|0,1:2|0:0,0:0:0:0:
145,170,42761,6,0,P|191:172|227:159,1,70,6|0,1:2|0:0,0:0:0:0:
262,242,43080,2,0,P|295:210|312:176,1,70,2|0,1:2|0:0,0:0:0:0:
321,100,43399,2,0,P|376:116|405:112,1,70,10|0,0:0|0:0,0:0:0:0:
470,75,43719,2,0,P|481:122|472:163,1,70,2|8,0:2|0:0,0:0:0:0:
410,203,44038,6,0,L|422:304,1,70,4|0,3:2|3:0,0:0:0:0:
393,310,44277,1,0,3:0:0:0:
393,310,44357,2,0,P|339:294|320:295,1,70,0|0,3:0|3:0,0:0:0:0:
240,327,44676,2,0,P|178:345|155:336,1,70,8|8,0:0|0:0,0:0:0:0:
98,294,44995,1,8,0:3:0:0:
96,269,45074,1,8,0:3:0:0:
94,245,45154,1,4,0:3:0:0:
92,221,45234,1,4,0:3:0:0:
89,196,45314,6,0,L|84:106,1,70,4|0,1:2|0:2,0:0:0:0:
136,50,45634,2,0,P|179:39|205:43,1,70,10|0,0:2|0:2,0:0:0:0:
281,100,45953,1,2,1:2:0:0:
281,100,46112,1,2,1:2:0:0:
359,53,46272,1,10,0:2:0:0:
429,110,46431,6,0,L|415:260,1,140,6|2,1:2|1:2,0:0:0:0:
377,332,46910,2,0,P|348:314|303:308,1,70,10|0,0:2|1:2,0:0:0:0:
226,338,47229,2,0,P|161:354|138:345,1,70,0|0,1:2|1:2,0:0:0:0:
78,313,47548,2,0,L|72:230,1,70,8|0,0:2|0:0,0:0:0:0:
107,158,47868,6,0,P|164:181|201:177,1,70,4|0,1:2|0:0,0:0:0:0:
247,131,48187,2,0,L|238:46,2,70,10|2|2,0:2|0:2|1:2,0:0:0:0:
299,205,48665,1,2,1:2:0:0:
385,170,48825,5,10,0:2:0:0:
385,170,48985,2,0,P|424:161|459:162,1,70,6|0,1:2|0:0,0:0:0:0:
499,246,49304,1,2,1:2:0:0:
499,246,49463,2,0,L|483:347,1,70,10|0,0:2|1:2,0:0:0:0:
405,354,49782,2,0,P|358:342|310:348,1,70,0|0,1:2|1:2,0:0:0:0:
253,380,50102,2,0,P|212:385|168:370,1,70,8|0,0:2|0:0,0:0:0:0:
109,327,50421,6,0,L|102:200,1,105,4|0,1:2|0:0,0:0:0:0:
72,188,50740,2,0,L|80:94,1,70,10|0,0:2|0:2,0:0:0:0:
136,48,51059,2,0,P|178:37|212:36,1,70,2|0,1:2|1:2,0:0:0:0:
284,80,51378,1,10,0:2:0:0:
284,80,51538,2,0,P|344:90|379:86,1,70,6|0,1:2|0:0,0:0:0:0:
413,22,51857,1,2,1:2:0:0:
413,22,52016,6,0,P|440:75|413:160,1,140,10|8,0:2|0:0,0:0:0:0:
346,202,52495,1,8,0:0:0:0:
268,175,52655,1,8,0:3:0:0:
268,175,52734,1,4,0:3:0:0:
268,175,52814,1,4,0:3:0:0:
180,201,52974,6,0,L|165:288,1,70,6|0,1:2|1:2,0:0:0:0:
252,303,53293,2,0,L|267:390,1,70,10|0,0:2|1:2,0:0:0:0:
342,325,53612,2,0,P|401:304|429:307,1,70,0|0,1:2|1:2,0:0:0:0:
479,360,53931,2,0,P|496:325|499:287,1,70,10|0,0:2|1:2,0:0:0:0:
441,223,54251,6,0,L|430:133,1,70,2|0,1:2|1:2,0:0:0:0:
342,137,54570,2,0,L|353:47,1,70,10|0,0:2|1:2,0:0:0:0:
259,78,54889,2,0,P|205:83|164:64,1,70,0|0,1:2|1:2,0:0:0:0:
112,32,55208,2,0,P|93:91|102:121,1,70,8|0,0:2|1:2,0:0:0:0:
137,177,55527,6,0,L|113:270,1,70,14|0,0:2|1:2,0:0:0:0:
201,285,55846,2,0,L|225:378,1,70,14|0,0:2|1:2,0:0:0:0:
313,384,56165,1,12,0:2:0:0:
313,384,56325,1,0,1:2:0:0:
380,322,56485,2,0,P|394:280|386:242,1,70,14|0,0:2|0:0,0:0:0:0:
402,172,56804,6,0,B|298:155|298:155|233:186|233:186|125:168,1,280,6|0,0:0|0:0,0:0:0:0:
500,12,58080,6,0,P|493:50|488:89,1,77.0000023498536,6|0,1:2|0:2,0:0:0:0:
391,113,58399,2,0,P|397:150|402:189,1,77.0000023498536,10|0,0:2|1:2,0:0:0:0:
478,255,58719,2,0,B|418:273|436:291|380:315,1,115.50000352478,2|0,1:2|0:0,0:0:0:0:
345,351,59038,2,0,P|315:312|275:300,1,77.0000023498536,8|0,0:2|0:2,0:0:0:0:
222,227,59357,6,0,P|175:243|60:269,1,154.000004699707,2|8,1:2|0:2,0:0:0:0:
9,189,59836,1,0,1:2:0:0:
61,104,59995,2,0,P|69:62|76:25,1,77.0000023498536,2|0,1:2|1:2,0:0:0:0:
172,4,60314,2,0,P|180:46|187:83,1,77.0000023498536,10|0,0:2|0:2,0:0:0:0:
269,137,60634,6,0,P|346:113|369:54,1,115.50000352478,6|0,1:2|0:2,0:0:0:0:
362,86,60953,2,0,L|451:100,1,77.0000023498536,10|0,0:2|1:2,0:0:0:0:
499,178,61272,1,2,1:2:0:0:
499,178,61431,1,0,1:2:0:0:
441,260,61591,2,0,P|404:272|358:295,1,77.0000023498536,10|0,0:2|0:2,0:0:0:0:
288,347,61910,6,0,B|207:356|225:310|123:330,2,154.000004699707,2|8|0,1:2|0:2|1:2,0:0:0:0:
369,288,62708,1,0,1:2:0:0:
446,351,62868,1,10,0:2:0:0:
496,157,63187,6,0,P|486:115|477:52,1,77.0000023498536,6|0,1:2|0:0,0:0:0:0:
390,37,63506,2,0,P|383:74|374:112,1,77.0000023498536,10|0,0:2|1:2,0:0:0:0:
295,174,63825,2,0,P|251:113|150:115,1,154.000004699707,2|8,1:2|0:2,0:0:0:0:
109,177,64304,1,0,0:2:0:0:
25,122,64463,6,0,P|24:208|8:289,1,154.000004699707,2|8,1:2|0:2,0:0:0:0:
81,347,64942,1,0,1:2:0:0:
81,347,65102,2,0,P|148:340|172:334,1,77.0000023498536,2|0,1:2|1:2,0:0:0:0:
210,252,65421,2,0,P|277:259|301:265,1,77.0000023498536,10|0,0:2|0:2,0:0:0:0:
363,333,65740,6,0,P|435:306|447:248,1,115.50000352478,6|0,0:2|0:0,0:0:0:0:
448,274,66059,2,0,P|437:228|429:190,1,77.0000023498536,10|0,0:2|1:2,0:0:0:0:
490,118,66378,2,0,P|444:104|408:92,1,77.0000023498536,2|0,1:2|1:2,0:0:0:0:
375,4,66697,2,0,P|340:36|312:62,1,77.0000023498536,10|0,0:2|0:0,0:0:0:0:
218,67,67016,6,0,P|247:126|257:199,1,115.50000352478,6|0,3:2|3:0,0:0:0:0:
256,174,67336,2,0,P|238:208|230:245,1,77.0000023498536,0|0,1:0|3:0,0:0:0:0:
297,335,67655,2,0,P|254:335|207:357,1,77.0000023498536,2|0,1:2|1:0,0:0:0:0:
138,379,67974,1,8,0:0:0:0:
120,371,68053,1,0,1:0:0:0:
102,364,68133,1,4,1:3:0:0:
84,358,68213,1,8,1:3:0:0:
66,352,68293,6,0,P|50:313|30:281,1,77.0000023498536,6|0,1:2|0:2,0:0:0:0:
101,218,68612,2,0,P|81:185|66:149,1,77.0000023498536,10|0,0:2|0:2,0:0:0:0:
121,68,68931,2,0,B|180:62|167:87|247:74,1,115.50000352478,2|0,1:2|0:0,0:0:0:0:
235,75,69251,2,0,P|282:55|339:50,1,77.0000023498536,10|0,0:2|1:2,0:0:0:0:
408,69,69570,6,0,P|401:153|401:237,1,154.000004699707,2|8,1:2|0:2,0:0:0:0:
467,283,70048,1,0,1:2:0:0:
394,338,70208,2,0,P|345:291|270:292,1,115.50000352478,2|0,1:2|0:0,0:0:0:0:
299,284,70527,2,0,P|257:298|218:307,1,77.0000023498536,10|0,0:2|0:2,0:0:0:0:
139,356,70846,6,0,P|131:308|109:270,1,77.0000023498536,6|0,1:2|1:2,0:0:0:0:
35,226,71165,2,0,P|19:191|14:152,1,77.0000023498536,10|0,0:2|0:2,0:0:0:0:
64,65,71485,1,2,1:2:0:0:
64,65,71644,1,0,1:2:0:0:
156,104,71804,2,0,P|215:86|244:74,1,77.0000023498536,10|0,0:2|1:2,0:0:0:0:
312,24,72123,6,0,P|391:38|422:121,2,154.000004699707,2|8|0,1:2|0:2|1:2,0:0:0:0:
229,80,72921,1,0,1:2:0:0:
159,8,73080,1,8,0:2:0:0:
24,156,73399,6,0,P|40:205|45:250,1,77.0000023498536,6|0,1:2|0:2,0:0:0:0:
142,252,73719,2,0,P|126:301|121:346,1,77.0000023498536,10|0,0:2|0:2,0:0:0:0:
211,370,74038,2,0,P|293:359|336:353,1,115.50000352478,2|0,0:2|0:0,0:0:0:0:
325,354,74357,2,0,P|365:374|417:370,1,77.0000023498536,10|0,0:2|0:2,0:0:0:0:
472,309,74676,6,0,B|480:226|416:244|422:167,1,154.000004699707,2|8,1:2|0:2,0:0:0:0:
490,95,75155,1,0,1:2:0:0:
424,19,75314,2,0,P|381:32|340:39,1,77.0000023498536,2|0,1:2|1:2,0:0:0:0:
320,134,75634,2,0,P|277:121|236:114,1,77.0000023498536,10|0,0:2|0:2,0:0:0:0:
179,39,75953,6,0,P|123:47|91:103,1,115.50000352478,14|0,0:2|0:0,0:0:0:0:
92,93,76272,2,0,P|103:149|104:197,1,77.0000023498536,10|0,0:2|1:2,0:0:0:0:
161,251,76591,1,10,0:2:0:0:
65,282,76751,1,0,1:2:0:0:
115,367,76910,2,0,P|153:370|190:379,1,77.0000023498536,14|0,0:2|0:2,0:0:0:0:
252,300,77229,5,6,1:2:0:0:
449,334,77548,6,0,P|474:329|499:325,2,51.3333348999024,0|8|8,1:0|0:0|0:3,0:0:0:0:
423,271,77868,6,0,P|398:266|373:262,2,51.3333348999024,0|8|8,1:0|0:0|0:3,0:0:0:0:
448,209,78187,6,0,P|473:203|498:199,2,51.3333348999024,4|4|4,0:3|0:3|0:3,0:0:0:0:
424,159,78506,5,4,0:0:0:0:
317,258,78825,1,2,0:0:0:0:
196,166,79144,2,0,B|97:185|135:233|29:261,1,188.999994232178,2|0,0:0|0:0,0:0:0:0:
8,188,79782,2,0,P|25:128|36:54,1,125.999996154785,2|0,0:0|0:0,0:0:0:0:
172,1,80421,1,2,0:0:0:0:
250,130,80740,1,2,0:0:0:0:
400,116,81059,6,0,P|476:132|510:192,1,125.999996154785,2|2,0:0|0:0,0:0:0:0:
440,305,81697,2,0,P|364:289|330:229,1,125.999996154785,2|2,0:0|0:0,0:0:0:0:
250,130,82336,2,0,P|158:198|190:320,1,251.999992309571,2|2,0:0|0:0,0:0:0:0:
452,173,83612,6,0,P|438:106|435:28,1,125.999996154785,2|2,0:0|0:0,0:0:0:0:
271,6,84251,1,2,0:0:0:0:
189,153,84570,1,2,0:0:0:0:
32,93,84889,2,0,B|30:251|126:183|123:347,1,280,2|2,0:0|0:0,0:0:0:0:
288,377,85846,1,2,0:0:0:0:
423,277,86165,6,0,P|434:199|471:129,1,140,2|2,0:0|0:0,0:0:0:0:
345,21,86804,2,0,P|271:50|192:53,1,140,2|2,0:0|0:0,0:0:0:0:
95,179,87442,2,0,P|206:262|287:376,1,280,2|0,0:0|0:0,0:0:0:0:
