osu file format v14

[General]
AudioFilename: audio.mp3
AudioLeadIn: 0
PreviewTime: 56953
Countdown: 0
SampleSet: Soft
StackLeniency: 0.4
Mode: 0
LetterboxInBreaks: 0
WidescreenStoryboard: 1

[Editor]
Bookmarks: 12412,22625,32837,43050,50710,53263,55816,66029
DistanceSpacing: 0.6
BeatDivisor: 4
GridSize: 32
TimelineZoom: 2.4

[Metadata]
Title:Kessen Spirit (TV Size)
TitleUnicode:決戦スピリット (TV Size)
Artist:CHiCO with HoneyWorks
ArtistUnicode:CHiCO with HoneyWorks
Creator:Haruto
Version:hypercyte's Insane
Source:ハイキュー!! TO THE TOP
Tags:japanese jpop anime haikyuu season 4 fourth ending shito gom haniwa haruto_aizawa sotarks ipas kalibe tomadoi agatsu hypercyte seolv 10nya stixy a_r_m_i_n armin serizawa haruki newipas [_l_u_k_a_s_] -_t_e_n_n_y_a_- shiinoha kotone tricolor hypercute lukas jack j_a_c_k
BeatmapID:2288549
BeatmapSetID:1092298

[Difficulty]
HPDrainRate:5.8
CircleSize:4.2
OverallDifficulty:8
ApproachRate:9.2
SliderMultiplier:1.74
SliderTickRate:1

[Events]
//Background and Video events
0,0,"57509816_p0.jpg",0,0
Video,0,"haikyuu ed.mp4"
//Break Periods
//Storyboard Layer 0 (Background)
//Storyboard Layer 1 (Fail)
//Storyboard Layer 2 (Pass)
//Storyboard Layer 3 (Foreground)
//Storyboard Layer 4 (Overlay)
//Storyboard Sound Samples

[TimingPoints]
2140,279.06976744186,4,2,1,70,1,0
2279,319.148936170213,4,2,1,50,1,0
2598,290.556900726392,4,2,1,50,1,0
2888,368.098159509202,4,2,1,60,1,0
3072,329.67032967033,4,2,1,60,1,0
3401,319.148936170213,4,2,1,70,1,0
3401,-95.2380952380952,4,2,1,70,0,0
8188,334.261838440111,4,2,1,70,1,0
8188,-95.2380952380952,4,2,1,70,0,0
8522,317.040951122854,4,2,1,70,1,0
8522,-95.2380952380952,4,2,1,70,0,0
9790,319.148936170213,4,2,1,70,1,0
9790,-95.2380952380952,4,2,1,70,0,0
11066,312.5,4,2,1,70,1,0
11066,-95.2380952380952,4,2,1,70,0,0
12003,323.450134770889,4,2,1,70,1,0
12003,-95.2380952380952,4,2,1,70,0,0
12326,318.302387267905,4,2,1,70,1,0
13599,332.409972299169,4,2,1,55,1,0
13599,-133.333333333333,4,2,1,55,0,0
14097,319.148936170213,4,2,1,55,1,0
14097,-133.333333333333,4,2,1,55,0,0
14894,319.148936170213,4,2,1,55,1,0
14894,-133.333333333333,4,2,1,55,0,0
33723,-200,4,2,1,70,0,0
34043,-100,4,2,1,70,0,0
36277,-200,4,2,1,70,0,0
36596,-100,4,2,1,70,0,0
46489,-200,4,2,1,70,0,0
46809,-100,4,2,1,70,0,0
49043,-200,4,2,1,70,0,0
49362,-100,4,2,1,70,0,0
51915,-95.2380952380952,4,2,1,70,0,0
54468,-83.3333333333333,4,2,1,70,0,0
55426,-111.111111111111,4,2,1,70,0,0
55745,-227.272727272727,4,2,1,70,0,0
57021,-80.6451612903226,4,2,1,70,0,0
77447,-227.272727272727,4,2,1,40,0,0
85106,-294.117647058824,4,2,1,30,0,0

[Colours]
Combo1 : 53,154,255
Combo2 : 255,128,64
Combo3 : 149,215,234
Combo4 : 144,144,144

[HitObjects]
256,192,2140,5,4,1:2:0:0:
355,68,2279,1,8,0:0:0:0:
317,45,2358,1,8,0:0:0:0:
282,71,2438,2,0,L|291:137,1,43.5,8|8,0:0|0:0,0:0:0:0:
346,185,2598,2,0,L|340:228,1,43.5,0|0,1:0|1:0,0:0:0:0:
292,304,2743,1,8,0:0:0:0:
177,231,2888,1,0,1:0:0:0:
177,231,2980,1,0,1:0:0:0:
177,231,3072,1,12,0:0:0:0:
169,229,3401,5,6,1:2:0:0:
125,320,3560,1,0,1:2:0:0:
213,384,3720,1,10,0:2:0:0:
312,231,3879,2,0,B|362:236|386:278|355:312|390:350|444:350,1,182.699994424439,2|0,0:2|1:2,0:0:0:0:
295,233,4358,1,10,0:2:0:0:
392,170,4517,1,0,0:2:0:0:
183,45,4677,5,2,1:2:0:0:
183,45,4836,1,0,1:2:0:0:
88,179,4996,1,10,0:2:0:0:
26,110,5156,1,2,1:2:0:0:
53,79,5235,1,8,0:2:0:0:
92,90,5315,1,0,0:0:0:0:
222,203,5475,1,0,1:2:0:0:
334,195,5634,1,10,0:2:0:0:
372,92,5794,1,0,0:2:0:0:
196,209,5953,6,0,P|183:269|208:307,1,91.3499972122193,2|0,1:2|1:2,0:0:0:0:
305,334,6273,1,10,0:2:0:0:
453,74,6432,2,0,B|401:77|375:123|400:146|381:184|328:196,1,182.699994424439,2|0,0:2|1:2,0:0:0:0:
100,66,6911,2,0,P|147:108|177:108,1,91.3499972122193,10|0,0:2|0:2,0:0:0:0:
321,198,7230,5,2,1:2:0:0:
244,278,7390,1,2,1:2:0:0:
151,226,7549,1,14,0:2:0:0:
52,268,7709,1,0,1:2:0:0:
38,302,7789,1,0,1:0:0:0:
57,332,7868,1,2,1:2:0:0:
151,226,8028,1,2,1:2:0:0:
17,108,8188,2,0,B|61:126|61:126|120:96,1,91.3499972122193,14|0,0:2|0:2,0:0:0:0:
332,25,8522,5,6,1:2:0:0:
307,116,8680,1,0,1:2:0:0:
336,10,8839,1,10,0:2:0:0:
353,190,8997,2,0,B|341:124|341:124|347:68|347:68|335:7,1,182.699994424439,2|0,0:2|1:2,0:0:0:0:
358,216,9473,2,0,P|413:245|447:224,1,91.3499972122193,10|0,0:2|0:2,0:0:0:0:
199,108,9790,5,2,1:2:0:0:
33,194,9949,1,0,1:2:0:0:
49,107,10109,1,10,0:2:0:0:
177,205,10268,1,2,1:2:0:0:
213,211,10348,1,0,1:2:0:0:
244,192,10428,1,0,1:0:0:0:
347,28,10587,1,0,1:2:0:0:
404,136,10747,2,0,L|308:111,1,91.3499972122193,10|0,0:2|0:2,0:0:0:0:
109,272,11066,6,0,B|106:247|115:238|115:238|237:204,1,137.024995818329,6|0,1:2|0:0,0:0:0:0:
102,286,11378,2,0,B|57:301|57:301|18:282,1,91.3499972122193,10|2,0:2|1:2,0:0:0:0:
253,132,11691,2,0,P|217:181|216:237,1,91.3499972122193,8|0,0:2|1:2,0:0:0:0:
373,340,12003,2,0,P|309:328|292:345,1,91.3499972122193,8|0,0:2|1:2,0:0:0:0:
456,250,12326,5,0,1:0:0:0:
471,215,12405,1,8,0:0:0:0:
460,178,12485,1,8,0:0:0:0:
425,160,12564,1,8,0:0:0:0:
397,168,12644,1,0,1:0:0:0:
121,113,12803,5,8,0:0:0:0:
152,105,12883,1,8,0:0:0:0:
179,121,12962,1,8,0:2:0:0:
270,337,13121,1,8,0:0:0:0:
311,213,13280,5,8,0:0:0:0:
280,205,13360,1,8,0:0:0:0:
253,221,13440,1,8,0:0:0:0:
243,251,13519,1,8,0:0:0:0:
261,278,13599,6,0,P|277:316|266:344,2,65.2500024890901,6|0|10,1:2|0:0|0:2,0:0:0:0:
151,220,14097,1,2,1:2:0:0:
151,220,14176,1,0,1:0:0:0:
151,220,14256,2,0,L|56:228,1,65.2500024890901,0|2,1:2|1:2,0:0:0:0:
208,144,14575,2,0,L|273:138,1,65.2500024890901,8|2,0:2|0:2,0:0:0:0:
60,228,14894,6,0,P|18:189|56:115,1,130.50000497818,0|8,1:2|0:2,0:0:0:0:
75,20,15372,1,0,1:0:0:0:
75,20,15452,1,0,1:2:0:0:
75,20,15532,2,0,P|121:50|146:53,1,65.2500024890901,2|0,1:2|1:2,0:0:0:0:
238,20,15851,1,10,0:2:0:0:
238,20,16170,6,0,B|277:18|302:44|287:64|304:92|349:92,1,130.50000497818,2|10,1:2|0:2,0:0:0:0:
396,209,16649,1,0,1:0:0:0:
396,209,16729,1,0,1:2:0:0:
396,209,16808,2,0,P|418:170|442:162,1,65.2500024890901,0|2,1:2|1:2,0:0:0:0:
436,10,17128,2,0,L|419:92,1,65.2500024890901,8|2,0:2|0:2,0:0:0:0:
381,228,17447,6,0,B|335:224|335:224|289:196|289:196|245:192,1,130.50000497818,0|8,1:2|0:2,0:0:0:0:
93,148,17926,1,0,1:0:0:0:
93,148,18005,1,0,1:2:0:0:
93,148,18085,2,0,P|69:173|75:219,1,65.2500024890901,0|0,1:2|1:2,0:0:0:0:
135,264,18404,1,8,0:2:0:0:
135,264,18723,6,0,P|192:236|241:290,1,130.50000497818,6|8,1:2|0:2,0:0:0:0:
323,381,19202,1,2,1:2:0:0:
323,381,19282,1,0,1:0:0:0:
323,381,19362,2,0,P|330:340|355:313,1,65.2500024890901,0|2,1:2|1:2,0:0:0:0:
491,300,19681,2,0,P|484:259|459:232,1,65.2500024890901,8|0,0:2|0:0,0:0:0:0:
434,99,20000,6,0,B|398:98|378:124|396:141|360:172|326:168,1,130.50000497818,2|8,1:2|0:2,0:0:0:0:
312,166,20638,2,0,P|300:133|320:96,1,65.2500024890901,2|0,1:2|1:2,0:0:0:0:
359,252,20957,2,0,L|346:328,1,65.2500024890901,10|0,0:2|1:2,0:0:0:0:
189,194,21277,6,0,P|140:220|159:307,1,130.50000497818,2|8,1:2|0:2,0:0:0:0:
207,196,21755,1,2,1:2:0:0:
207,196,21835,1,0,1:2:0:0:
207,196,21915,2,0,L|190:117,1,65.2500024890901,0|2,1:2|1:2,0:0:0:0:
116,51,22234,2,0,L|102:114,1,65.2500024890901,8|0,0:2|0:0,0:0:0:0:
85,216,22553,5,2,1:2:0:0:
85,216,22713,1,0,1:2:0:0:
59,360,22872,2,0,L|45:296,1,65.2500024890901,8|0,0:2|0:0,0:0:0:0:
202,328,23192,1,0,1:2:0:0:
280,262,23351,1,8,0:2:0:0:
441,333,23511,1,4,0:3:0:0:
493,253,23670,5,8,1:2:0:0:
467,232,23750,1,8,1:2:0:0:
435,242,23830,1,6,1:2:0:0:
339,334,23989,1,0,0:0:0:0:
280,262,24149,1,8,0:0:0:0:
280,262,24309,2,0,P|272:209|288:179,1,65.2500024890901,2|0,0:0|1:0,0:0:0:0:
358,143,24628,2,0,P|366:90|350:60,1,65.2500024890901,2|8,1:2|0:0,0:0:0:0:
284,24,24947,1,2,3:2:0:0:
164,162,25106,6,0,P|112:154|112:86,1,130.50000497818,0|8,1:0|0:0,0:0:0:0:
187,156,25585,1,0,0:0:0:0:
140,278,25745,2,0,P|169:252|205:254,1,65.2500024890901,2|0,1:2|1:0,0:0:0:0:
286,183,26064,2,0,P|315:209|351:207,1,65.2500024890901,10|0,0:0|0:0,0:0:0:0:
122,299,26383,6,0,P|60:270|65:217,1,130.50000497818,2|8,1:2|0:0,0:0:0:0:
30,84,26862,2,0,L|177:61,1,130.50000497818,0|2,0:0|1:2,0:0:0:0:
326,190,27340,1,8,0:0:0:0:
394,128,27500,1,2,1:2:0:0:
301,200,27660,6,0,P|261:186|264:105,1,130.50000497818,0|8,1:2|0:0,0:0:0:0:
373,274,28138,1,0,0:0:0:0:
451,233,28298,2,0,P|458:191|449:168,1,65.2500024890901,0|0,1:0|1:0,0:0:0:0:
301,319,28617,2,0,P|294:361|303:384,1,65.2500024890901,8|2,0:0|3:0,0:0:0:0:
242,153,28936,6,0,B|197:157|184:184|197:204|184:229|143:239,1,130.50000497818,2|8,1:2|0:0,0:0:0:0:
265,149,29415,2,0,P|285:111|269:78,1,65.2500024890901,2|0,1:2|1:0,0:0:0:0:
46,185,29734,1,2,1:2:0:0:
36,105,29894,2,0,P|84:110|101:126,1,65.2500024890901,8|2,0:0|0:2,0:0:0:0:
233,276,30213,6,0,B|285:258|285:258|314:263|314:263|363:247,1,130.50000497818,0|8,1:0|0:0,0:0:0:0:
446,216,30692,1,0,0:0:0:0:
313,168,30851,2,0,P|339:143|353:108,1,65.2500024890901,2|0,1:2|1:0,0:0:0:0:
229,289,31170,2,0,P|265:288|299:303,1,65.2500024890901,10|0,0:0|0:0,0:0:0:0:
359,83,31489,6,0,P|323:49|254:77,1,130.50000497818,6|10,1:2|0:0,0:0:0:0:
110,164,31968,2,0,P|60:136|57:117,1,65.2500024890901,2|0,0:0|1:0,0:0:0:0:
243,257,32287,1,2,1:2:0:0:
300,202,32447,2,0,L|380:212,1,65.2500024890901,8|10,0:0|0:0,0:0:0:0:
138,317,32766,5,0,1:0:0:0:
115,293,32846,1,0,0:0:0:0:
115,260,32926,1,8,0:0:0:0:
133,233,33005,1,8,0:0:0:0:
165,226,33085,1,8,0:0:0:0:
241,349,33245,5,8,0:0:0:0:
257,320,33325,1,8,0:0:0:0:
289,317,33404,1,8,0:0:0:0:
428,372,33564,1,4,1:3:0:0:
414,175,33723,6,0,P|418:121|423:95,1,65.25,4|0,0:0|0:0,0:0:0:0:
426,90,34043,6,0,P|417:145|338:141,1,130.5,4|0,0:0|0:0,0:0:0:0:
330,122,34362,5,2,1:2:0:0:
235,170,34521,1,0,0:0:0:0:
76,121,34681,5,10,0:0:0:0:
162,119,34840,1,0,1:0:0:0:
217,186,35000,1,0,1:0:0:0:
197,271,35160,1,0,1:0:0:0:
75,120,35319,5,10,0:0:0:0:
88,34,35479,2,0,L|73:130,1,87,8|0,0:0|1:0,0:0:0:0:
197,271,35798,1,0,1:0:0:0:
217,186,35957,2,0,L|230:271,1,87,10|0,0:0|0:0,0:0:0:0:
305,94,36277,6,0,P|329:85|374:108,1,65.25,0|0,1:0|0:0,0:0:0:0:
365,118,36596,6,0,P|289:105|286:40,1,130.5,6|0,0:0|0:0,0:0:0:0:
294,18,36915,5,2,1:2:0:0:
294,18,37075,1,0,0:0:0:0:
88,132,37234,2,0,P|138:112|213:146,1,130.5,10|0,0:0|0:0,0:0:0:0:
72,143,37553,2,0,P|39:101|45:65,1,87,2|0,0:0|0:0,0:0:0:0:
221,304,37872,5,14,0:0:0:0:
260,231,38032,2,0,B|218:217|218:217|166:239,1,87,0|0,1:0|1:0,0:0:0:0:
480,103,38351,2,0,P|386:131|390:209,1,174,6|0,0:0|1:0,0:0:0:0:
105,310,38830,1,8,0:0:0:0:
96,213,38989,5,8,0:0:0:0:
134,203,39069,1,8,0:0:0:0:
164,228,39149,2,0,B|205:221|205:221|219:222|219:222|257:214,1,87,4|0,0:0|0:0,0:0:0:0:
56,195,39468,2,0,P|33:152|52:117,1,87,2|0,1:2|0:0,0:0:0:0:
76,24,39787,2,0,L|166:53,1,87,10|0,0:0|0:0,0:0:0:0:
294,163,40106,1,2,0:0:0:0:
294,163,40266,1,0,1:0:0:0:
435,104,40426,5,2,1:2:0:0:
352,40,40585,1,8,0:0:0:0:
275,167,40745,2,0,P|269:218|293:253,1,87,2|0,1:2|1:0,0:0:0:0:
167,95,41064,2,0,B|126:96|106:124|122:147|93:171|54:170,1,130.5,8|0,0:0|0:0,0:0:0:0:
195,97,41383,2,0,P|220:52|200:20,1,87,2|0,1:2|0:0,0:0:0:0:
151,260,41702,6,0,P|199:226|233:236,1,87,6|0,1:2|0:0,0:0:0:0:
358,357,42021,2,0,P|362:301|385:256,1,87,2|0,1:2|0:0,0:0:0:0:
476,146,42340,1,10,0:0:0:0:
358,46,42500,1,0,0:0:0:0:
433,16,42660,1,2,0:1:0:0:
340,56,42819,1,8,0:0:0:0:
167,14,42979,6,0,B|108:24|108:24|54:47|54:47|-5:59,1,174,4|0,3:2|3:0,0:0:0:0:
193,13,43457,1,0,1:0:0:0:
373,165,43617,1,8,0:0:0:0:
392,78,43777,5,8,0:0:0:0:
355,65,43856,1,8,0:0:0:0:
318,79,43936,1,8,0:3:0:0:
298,112,44016,1,8,0:3:0:0:
263,130,44096,1,4,0:3:0:0:
223,127,44176,1,4,0:3:0:0:
200,95,44255,6,0,L|210:9,1,87,4|0,1:2|0:0,0:0:0:0:
69,187,44575,2,0,P|165:195|178:254,1,130.5,10|0,0:2|0:0,0:0:0:0:
43,193,44894,2,0,B|25:154|25:154|42:104,1,87,2|2,1:2|1:2,0:0:0:0:
236,285,45213,1,10,0:2:0:0:
326,238,45372,6,0,P|341:184|310:146,1,87,6|0,1:2|0:0,0:0:0:0:
54,376,45692,1,2,1:2:0:0:
17,290,45851,2,0,L|109:302,1,87,10|0,0:2|1:2,0:0:0:0:
338,326,46170,1,0,1:2:0:0:
338,326,46330,1,0,1:2:0:0:
444,321,46489,6,0,P|409:291|403:264,1,65.25,8|0,0:2|0:0,0:0:0:0:
465,319,46809,6,0,P|495:274|474:198,1,130.5,4|0,1:2|0:0,0:0:0:0:
465,188,47128,6,0,B|422:199|422:199|380:194,1,87,10|2,0:2|0:2,0:0:0:0:
241,113,47447,1,2,1:2:0:0:
309,49,47606,1,2,1:2:0:0:
391,94,47766,1,10,0:2:0:0:
220,131,47926,6,0,B|167:131|143:94|165:69|137:34|85:31,1,174,6|2,1:2|1:2,0:0:0:0:
4,229,48404,2,0,P|37:186|76:180,1,87,10|0,0:2|1:2,0:0:0:0:
231,316,48723,1,0,1:2:0:0:
231,316,48883,1,0,1:2:0:0:
318,229,49043,6,0,L|244:237,1,65.25,8|0,0:2|0:0,0:0:0:0:
347,232,49362,6,0,B|368:211|373:190|373:190|334:77,1,130.5,4|0,1:2|0:0,0:0:0:0:
333,92,49681,6,0,L|344:1,1,87,10|0,0:2|0:2,0:0:0:0:
157,121,50000,2,0,P|89:110|67:210,1,174,2|10,1:2|0:2,0:0:0:0:
259,332,50479,6,0,P|247:258|250:182,1,130.5,6|0,1:2|0:0,0:0:0:0:
247,202,50798,1,2,1:2:0:0:
361,72,50957,2,0,P|365:136|360:163,1,87,10|0,0:2|0:2,0:0:0:0:
241,324,51277,5,8,0:0:0:0:
202,321,51356,1,8,0:0:0:0:
179,289,51436,1,8,0:0:0:0:
184,250,51516,1,8,0:3:0:0:
197,227,51596,5,8,0:3:0:0:
200,201,51676,1,4,0:3:0:0:
189,177,51755,1,4,0:3:0:0:
165,165,51835,1,4,0:3:0:0:
139,169,51915,6,0,L|41:194,1,91.3499972122193,6|0,1:2|1:2,0:0:0:0:
287,254,52234,1,10,0:2:0:0:
364,200,52394,1,0,1:2:0:0:
364,200,52473,1,0,1:2:0:0:
364,200,52553,2,0,P|370:152|328:118,1,91.3499972122193,0|0,1:2|1:2,0:0:0:0:
144,48,52872,6,0,P|161:109|160:153,1,91.3499972122193,10|0,0:2|1:2,0:0:0:0:
128,29,53112,1,0,0:0:0:0:
128,29,53192,2,0,P|184:-2|225:11,1,91.3499972122193,2|0,1:2|1:2,0:0:0:0:
364,200,53511,1,10,0:2:0:0:
456,148,53670,1,0,1:2:0:0:
456,148,53750,1,0,1:2:0:0:
456,148,53830,2,0,P|469:86|445:58,1,91.3499972122193,0|0,1:2|1:2,0:0:0:0:
248,237,54149,6,0,B|196:221|196:221|164:221|164:221|98:202,1,137.024995818329,8|0,0:2|0:0,0:0:0:0:
272,255,54468,5,14,0:2:0:0:
380,205,54628,1,0,1:2:0:0:
230,330,54787,5,14,0:2:0:0:
112,289,54947,1,0,1:2:0:0:
299,383,55106,5,12,0:2:0:0:
407,333,55266,1,0,1:2:0:0:
86,276,55426,6,0,P|71:230|105:162,1,117.449996415711,14|0,0:2|0:0,0:0:0:0:
96,168,55745,6,0,B|173:178|173:178|242:206|242:206|322:217,1,229.680007009278,6|0,0:0|0:0,0:0:0:0:
421,36,57021,6,0,B|372:36|350:72|370:97|337:132|286:129,1,161.819993580139,6|0,1:2|0:0,0:0:0:0:
441,38,57340,2,0,P|479:79|460:133,1,107.879995720093,10|0,0:2|1:2,0:0:0:0:
277,250,57660,1,2,1:2:0:0:
134,180,57819,1,0,1:2:0:0:
53,216,57979,2,0,P|46:282|79:315,1,107.879995720093,8|0,0:2|0:2,0:0:0:0:
277,250,58298,6,0,B|330:231|330:231|395:251,1,107.879995720093,2|0,1:2|0:0,0:0:0:0:
186,116,58617,1,8,0:2:0:0:
251,60,58777,1,0,1:2:0:0:
277,78,58856,1,0,1:2:0:0:
274,110,58936,1,2,1:2:0:0:
130,258,59096,1,0,1:2:0:0:
249,347,59255,2,0,P|306:321|322:274,1,107.879995720093,10|0,0:2|0:2,0:0:0:0:
107,156,59575,6,0,P|133:227|127:265,1,107.879995720093,6|0,1:2|0:0,0:0:0:0:
274,110,59894,2,0,P|334:57|373:70,1,107.879995720093,10|0,0:2|1:2,0:0:0:0:
486,195,60213,1,2,1:2:0:0:
431,267,60372,1,0,1:2:0:0:
290,222,60532,2,0,B|242:233|242:233|199:256|199:256|134:270,1,161.819993580139,10|0,0:2|0:0,0:0:0:0:
136,269,60851,5,2,1:2:0:0:
226,349,61011,1,0,1:2:0:0:
176,105,61170,1,8,0:2:0:0:
108,204,61330,1,0,1:2:0:0:
96,174,61410,1,0,1:2:0:0:
86,143,61489,1,0,1:2:0:0:
117,228,61649,1,0,1:2:0:0:
186,76,61809,2,0,P|257:52|314:113,1,161.819993580139,10|0,0:2|0:0,0:0:0:0:
173,93,62128,6,0,P|208:149|192:188,1,107.879995720093,6|0,1:2|0:0,0:0:0:0:
47,317,62447,1,10,0:2:0:0:
134,366,62606,1,0,1:2:0:0:
151,338,62686,1,0,1:2:0:0:
138,305,62766,1,2,1:2:0:0:
0,169,62926,1,0,1:2:0:0:
44,79,63085,2,0,L|20:184,1,107.879995720093,8|0,0:2|0:2,0:0:0:0:
284,161,63404,6,0,P|356:172|368:273,1,161.819993580139,2|0,1:2|0:0,0:0:0:0:
265,159,63723,2,0,L|284:42,1,107.879995720093,8|0,0:2|1:2,0:0:0:0:
282,52,63963,1,0,1:2:0:0:
282,52,64043,1,2,1:2:0:0:
238,161,64202,1,0,1:2:0:0:
346,243,64362,2,0,L|456:211,1,107.879995720093,10|0,0:2|0:2,0:0:0:0:
247,316,64681,6,0,B|190:305|190:305|152:306|152:306|85:293,1,161.819993580139,6|0,0:2|0:0,0:0:0:0:
66,288,65000,1,10,0:2:0:0:
68,153,65160,1,0,1:2:0:0:
98,163,65239,1,0,1:2:0:0:
109,193,65319,1,2,1:2:0:0:
11,363,65479,1,0,1:2:0:0:
90,384,65638,2,0,L|212:352,1,107.879995720093,10|0,0:2|0:0,0:0:0:0:
380,180,65957,5,6,3:2:0:0:
423,259,66117,1,0,3:0:0:0:
397,279,66197,1,0,3:0:0:0:
365,271,66277,1,0,3:0:0:0:
232,106,66436,1,0,3:0:0:0:
151,251,66596,1,2,1:2:0:0:
0,134,66755,5,0,1:0:0:0:
31,141,66835,1,0,1:0:0:0:
58,158,66915,1,8,0:0:0:0:
70,188,66995,1,0,1:0:0:0:
91,212,67075,1,4,1:3:0:0:
120,224,67154,1,8,1:3:0:0:
153,226,67234,6,0,B|204:213|204:213|262:220|262:220|316:202,1,161.819993580139,6|0,1:2|0:0,0:0:0:0:
329,203,67553,2,0,P|361:257|341:297,1,107.879995720093,10|0,0:2|0:2,0:0:0:0:
153,356,67872,1,2,1:2:0:0:
63,320,68032,1,0,1:2:0:0:
333,309,68192,2,0,L|452:282,1,107.879995720093,10|0,0:2|1:2,0:0:0:0:
477,142,68511,5,2,1:2:0:0:
477,142,68670,1,0,1:2:0:0:
268,70,68830,1,8,0:2:0:0:
237,160,68989,1,0,1:2:0:0:
267,172,69069,1,0,1:2:0:0:
296,158,69149,1,2,1:2:0:0:
371,24,69309,1,0,1:2:0:0:
477,142,69468,2,0,P|490:76|506:37,1,107.879995720093,10|0,0:2|0:2,0:0:0:0:
218,157,69787,6,0,B|150:144|150:144|112:148|112:148|57:140,1,161.819993580139,6|0,1:2|0:0,0:0:0:0:
237,160,70106,2,0,P|264:211|221:262,1,107.879995720093,10|0,0:2|0:2,0:0:0:0:
113,333,70426,1,2,1:2:0:0:
21,274,70585,1,0,1:2:0:0:
232,260,70745,2,0,B|282:266|301:306|281:324|306:360|350:367,1,161.819993580139,10|0,0:2|0:0,0:0:0:0:
342,365,71064,5,2,1:2:0:0:
430,291,71223,1,0,1:2:0:0:
332,132,71383,1,8,0:2:0:0:
411,83,71543,1,0,1:2:0:0:
431,107,71622,1,0,1:2:0:0:
423,138,71702,1,0,1:2:0:0:
329,239,71862,1,0,1:2:0:0:
173,126,72021,2,0,P|118:147|129:247,1,161.819993580139,8|0,0:2|0:0,0:0:0:0:
192,117,72340,6,0,L|169:4,1,107.879995720093,6|0,1:2|0:0,0:0:0:0:
329,239,72660,1,10,0:2:0:0:
365,160,72819,1,0,1:2:0:0:
336,144,72899,1,0,1:0:0:0:
306,157,72979,1,2,1:2:0:0:
182,285,73138,1,0,0:2:0:0:
75,212,73298,2,0,L|186:191,1,107.879995720093,10|0,0:2|0:2,0:0:0:0:
341,288,73617,5,2,1:2:0:0:
341,288,73777,1,0,0:0:0:0:
268,368,73936,1,8,0:2:0:0:
366,252,74096,5,0,1:2:0:0:
398,247,74176,1,0,1:2:0:0:
422,268,74255,1,2,1:2:0:0:
254,376,74415,1,0,1:2:0:0:
172,321,74575,2,0,B|157:267|157:267|184:216,1,107.879995720093,10|0,0:2|0:2,0:0:0:0:
357,49,74894,5,14,0:2:0:0:
385,136,75053,1,0,1:2:0:0:
274,248,75213,5,10,0:2:0:0:
302,161,75372,1,0,1:2:0:0:
194,41,75532,5,10,0:2:0:0:
222,128,75692,1,0,1:2:0:0:
129,248,75851,6,0,L|12:237,1,107.879995720093,14|0,0:2|0:2,0:0:0:0:
302,161,76170,2,0,L|409:150,1,107.879995720093,6|0,1:2|1:0,0:0:0:0:
194,41,76489,6,0,L|120:32,2,71.9199971467286,8|4|4,0:0|0:3|0:3,0:0:0:0:
272,121,76809,5,0,1:0:0:0:
302,161,76915,1,8,0:0:0:0:
277,204,77021,1,8,0:3:0:0:
248,209,77128,5,4,0:3:0:0:
227,228,77234,1,4,0:3:0:0:
224,256,77340,1,4,0:3:0:0:
235,270,77447,6,0,P|250:325|250:356,1,76.5600023364259,4|2,0:0|0:0,0:0:0:0:
100,158,78085,2,0,P|100:104|188:77,1,153.120004672852,2|2,0:0|0:0,0:0:0:0:
387,197,79362,2,0,L|476:174,1,76.5600023364259,2|2,0:0|0:0,0:0:0:0:
202,269,80000,2,0,L|113:246,1,76.5600023364259,2|2,0:0|0:0,0:0:0:0:
313,128,80638,2,0,B|301:189|301:189|304:219|304:219|291:288,2,153.120004672852,2|2|0,0:0|0:0|0:0,0:0:0:0:
337,23,82234,1,2,0:0:0:0:
206,154,82553,6,0,L|188:73,1,76.5600023364259,2|2,0:0|0:0,0:0:0:0:
373,270,83192,2,0,L|391:189,1,76.5600023364259,2|2,0:0|0:0,0:0:0:0:
256,384,83830,1,2,0:0:0:0:
166,130,84468,2,0,L|85:149,1,76.5600023364259,2|2,0:0|0:0,0:0:0:0:
355,226,85106,6,0,B|428:234|457:307|415:319|448:377|509:384,1,236.640001444336,2|2,0:0|0:0,0:0:0:0:
