osu file format v14

[General]
AudioFilename: audio.mp3
AudioLeadIn: 0
PreviewTime: 56953
Countdown: 0
SampleSet: Soft
StackLeniency: 0.7
Mode: 0
LetterboxInBreaks: 0
WidescreenStoryboard: 1

[Editor]
DistanceSpacing: 1
BeatDivisor: 4
GridSize: 32
TimelineZoom: 2.4

[Metadata]
Title:Kessen Spirit (TV Size)
TitleUnicode:決戦スピリット (TV Size)
Artist:CHiCO with HoneyWorks
ArtistUnicode:CHiCO with HoneyWorks
Creator:Haruto
Version:Sotarks' Revolution
Source:ハイキュー!! TO THE TOP
Tags:japanese jpop anime haikyuu season 4 fourth ending shito gom haniwa haruto_aizawa sotarks ipas kalibe tomadoi agatsu hypercyte seolv 10nya stixy a_r_m_i_n armin serizawa haruki newipas [_l_u_k_a_s_] -_t_e_n_n_y_a_- shiinoha kotone tricolor hypercute lukas jack j_a_c_k
BeatmapID:2288017
BeatmapSetID:1092298

[Difficulty]
HPDrainRate:6.2
CircleSize:5
OverallDifficulty:9
ApproachRate:9.5
SliderMultiplier:1.82
SliderTickRate:1

[Events]
//Background and Video events
0,0,"57509816_p0.jpg",0,0
Video,0,"haikyuu ed.mp4"
//Break Periods
//Storyboard Layer 0 (Background)
//Storyboard Layer 1 (Fail)
//Storyboard Layer 2 (Pass)
//Storyboard Layer 3 (Foreground)
//Storyboard Layer 4 (Overlay)
//Storyboard Sound Samples

[TimingPoints]
2140,279.06976744186,4,2,1,50,1,0
2279,319.148936170213,4,2,1,50,1,0
2279,-125,4,2,1,50,0,0
2598,290.556900726392,4,2,1,50,1,0
2598,-125,4,2,1,50,0,0
2888,368.098159509202,4,2,1,60,1,0
3072,329.67032967033,4,2,1,60,1,0
3401,319.148936170213,4,2,1,70,1,0
3401,-121.951219512195,4,2,1,70,0,0
8188,334.261838440111,4,2,1,70,1,0
8522,317.040951122854,4,2,1,70,1,0
8522,-121.951219512195,4,2,1,70,0,0
9790,319.148936170213,4,2,1,70,1,0
9790,-121.951219512195,4,2,1,70,0,0
11066,312.5,4,2,1,70,1,0
12003,323.450134770889,4,2,1,70,1,0
12326,318.302387267905,4,2,1,70,1,0
13599,332.409972299169,4,2,1,55,1,0
13599,-138.888888888889,4,2,1,55,0,0
14097,319.148936170213,4,2,1,55,1,0
14097,-138.888888888889,4,2,1,55,0,0
14894,319.148936170213,4,2,1,55,1,0
14894,-138.888888888889,4,2,1,55,0,0
23830,-121.951219512195,4,2,1,60,0,0
34043,-138.888888888889,4,2,1,55,0,0
44255,-121.951219512195,4,2,1,60,0,0
51915,-108.695652173913,4,2,1,65,0,0
55745,-161.290322580645,4,2,1,55,0,0
56942,-161.290322580645,4,2,1,5,0,0
57021,-98.0392156862744,4,2,1,70,0,0
77447,-161.290322580645,4,2,1,40,0,0
82872,-161.290322580645,4,2,1,30,0,0
83191,-161.290322580645,4,2,1,40,0,0
85106,-312.5,4,2,1,30,0,0
86383,-833.333333333333,4,2,1,20,0,0
86543,-833.333333333333,4,2,1,20,0,0

[Colours]
Combo1 : 53,154,255
Combo2 : 255,128,64
Combo3 : 149,215,234
Combo4 : 144,144,144

[HitObjects]
362,67,2140,5,4,1:2:0:0:
259,238,2279,1,8,0:0:0:0:
259,238,2358,1,8,0:0:0:0:
259,238,2438,2,0,L|266:299,1,36.4,8|8,0:0|0:0,0:0:0:0:
401,172,2598,2,0,L|406:122,1,36.4,0|0,1:0|1:0,0:0:0:0:
295,340,2743,1,8,0:0:0:0:
198,181,2888,1,0,1:0:0:0:
202,143,2980,1,0,1:0:0:0:
206,106,3072,1,12,0:0:0:0:
47,314,3401,5,6,1:2:0:0:
94,130,3560,1,0,1:2:0:0:
284,168,3720,1,10,0:2:0:0:
237,352,3879,2,0,P|177:327|151:306,1,74.6200011386109,2|0,0:2|1:2,0:2:0:0:
279,94,4198,1,0,1:2:0:0:
382,277,4358,1,10,0:2:0:0:
234,222,4518,1,0,0:2:0:0:
428,114,4677,5,2,1:2:0:0:
225,44,4836,1,0,1:2:0:0:
149,241,4996,1,10,0:2:0:0:
352,311,5156,1,2,1:2:0:0:
352,311,5236,1,8,1:2:0:0:
352,311,5315,2,0,P|342:244|329:213,1,74.6200011386109,0|0,1:2|1:2,0:2:0:0:
217,336,5635,1,10,0:2:0:0:
414,236,5794,1,0,0:2:0:0:
199,122,5954,5,2,1:2:0:0:
373,172,6113,1,0,1:2:0:0:
320,356,6273,1,10,0:2:0:0:
146,306,6432,2,0,P|184:283|238:271,1,74.6200011386109,2|0,0:2|1:2,0:2:0:0:
408,329,6752,1,0,1:2:0:0:
318,115,6911,1,10,0:2:0:0:
247,290,7071,1,0,0:2:0:0:
399,89,7230,5,2,1:2:0:0:
220,179,7390,1,2,1:2:0:0:
312,355,7549,1,14,0:2:0:0:
491,265,7710,1,0,1:2:0:0:
491,265,7790,1,0,1:2:0:0:
491,265,7869,1,2,1:2:0:0:
348,218,8028,1,2,1:2:0:0:
512,160,8188,1,14,0:2:0:0:
369,113,8355,1,0,0:2:0:0:
421,307,8522,5,6,1:2:0:0:
291,170,8680,1,0,1:2:0:0:
151,247,8839,1,10,0:2:0:0:
281,384,8997,2,0,P|296:340|298:296,1,74.6200011386109,2|0,0:2|1:2,0:2:0:0:
160,129,9314,1,0,1:2:0:0:
211,298,9473,1,10,0:2:0:0:
240,107,9631,1,0,0:2:0:0:
134,320,9790,5,2,1:2:0:0:
309,200,9949,1,0,1:2:0:0:
240,26,10109,1,10,0:2:0:0:
65,146,10268,1,2,1:2:0:0:
65,146,10348,1,8,0:2:0:0:
65,146,10428,2,0,P|56:205|54:243,1,74.6200011386109,0|0,1:2|1:2,0:2:0:0:
197,154,10747,1,10,0:2:0:0:
32,70,10906,1,0,0:2:0:0:
231,272,11066,5,6,1:2:0:0:
168,57,11222,1,0,1:2:0:0:
121,306,11378,1,10,0:2:0:0:
269,81,11534,1,2,1:2:0:0:
317,333,11691,1,8,0:2:0:0:
129,142,11847,1,0,1:2:0:0:
80,384,12003,1,10,0:2:0:0:
267,194,12164,1,0,1:2:0:0:
53,279,12326,5,0,1:0:0:0:
23,256,12405,1,8,0:0:0:0:
6,223,12485,1,8,0:0:0:0:
3,186,12564,1,8,0:0:0:0:
16,152,12644,1,0,1:0:0:0:
207,258,12803,1,8,0:0:0:0:
207,258,12883,1,8,0:0:0:0:
207,258,12962,1,0,1:0:0:0:
157,49,13121,1,8,0:0:0:0:
148,311,13280,1,8,0:0:0:0:
175,335,13360,1,8,0:0:0:0:
211,346,13440,1,8,0:0:0:0:
247,340,13519,1,8,0:0:0:0:
278,320,13599,6,0,P|288:264|294:240,1,65.5200015996094,6|0,1:2|0:2,0:2:0:0:
193,132,13931,1,10,0:2:0:0:
366,259,14097,2,0,P|361:226|354:194,1,65.5200015996094,2|0,1:2|0:2,0:2:0:0:
241,64,14417,2,0,P|234:96|229:128,1,65.5200015996094,2|8,1:2|0:2,0:2:0:0:
279,231,14735,1,2,0:2:0:0:
352,115,14894,5,0,1:2:0:0:
209,208,15053,1,0,1:2:0:0:
345,354,15213,2,0,P|360:296|367:232,1,98.2800023994141,8|8,0:2|0:2,0:2:0:0:
366,231,15532,2,0,P|313:238|284:253,1,65.5200015996094,2|0,1:2|1:2,0:2:0:0:
156,272,15851,2,0,P|187:281|219:283,1,65.5200015996094,10|0,0:2|0:2,0:2:0:0:
117,127,16170,6,0,P|109:171|100:202,1,65.5200015996094,2|0,1:2|1:2,0:2:0:0:
190,72,16489,1,10,0:2:0:0:
79,28,16649,1,0,0:2:0:0:
79,28,16729,1,8,0:2:0:0:
79,28,16808,1,0,1:2:0:0:
191,149,16968,1,2,1:2:0:0:
35,216,17128,2,0,P|43:260|52:291,1,65.5200015996094,8|2,0:2|0:2,0:2:0:0:
266,112,17447,5,0,1:2:0:0:
111,168,17606,1,0,1:2:0:0:
268,297,17766,2,0,P|280:252|282:212,1,65.5200015996094,8|0,0:2|0:2,0:2:0:0:
279,209,18005,1,8,0:2:0:0:
279,209,18085,2,0,L|232:222,1,32.7600007998047,0|0,1:2|1:2,0:2:0:0:
372,255,18245,1,0,1:2:0:0:
326,66,18404,2,0,L|202:97,1,98.2800023994141,8|0,0:2|1:2,0:2:0:0:
202,68,18723,6,0,P|191:106|184:146,1,65.5200015996094,6|0,1:2|1:2,0:2:0:0:
227,294,19043,1,8,0:2:0:0:
108,127,19202,2,0,P|119:165|126:205,1,65.5200015996094,2|0,1:2|1:2,0:2:0:0:
255,277,19521,2,0,P|261:244|270:213,1,65.5200015996094,2|8,1:2|0:2,0:2:0:0:
138,274,19840,1,0,0:2:0:0:
316,164,20000,5,2,1:2:0:0:
202,68,20160,1,0,1:2:0:0:
336,245,20319,2,0,P|406:224|453:215,1,98.2800023994141,8|8,0:2|0:2,0:2:0:0:
464,188,20638,2,0,P|400:180|390:176,1,65.5200015996094,2|0,1:2|1:2,0:2:0:0:
285,96,20957,2,0,P|316:88|349:87,1,65.5200015996094,10|0,0:2|1:2,0:2:0:0:
223,247,21277,6,0,P|214:212|209:165,1,65.5200015996094,2|0,1:2|0:2,0:2:0:0:
144,314,21596,1,8,0:2:0:0:
299,221,21755,1,2,1:2:0:0:
299,221,21835,1,0,1:2:0:0:
299,221,21915,1,0,1:2:0:0:
147,144,22075,1,2,1:2:0:0:
286,297,22234,2,0,P|328:290|362:277,1,65.5200015996094,8|0,0:2|0:2,0:2:0:0:
374,259,22473,1,8,0:2:0:0:
374,259,22553,5,2,1:2:0:0:
274,119,22713,1,0,1:2:0:0:
209,298,22872,2,0,P|142:282|66:276,1,131.040003199219,8|0,0:2|1:2,0:2:0:0:
302,191,23351,1,8,0:2:0:0:
148,78,23511,1,4,0:3:0:0:
225,223,23670,1,8,0:2:0:0:
225,223,23750,1,8,0:2:0:0:
225,223,23830,6,0,P|231:176|234:124,1,74.6200011386109,6|0,1:2|0:0,0:0:0:0:
120,252,24149,1,8,0:0:0:0:
279,356,24309,2,0,P|274:319|270:281,1,74.6200011386109,2|0,0:0|1:0,0:0:0:0:
359,132,24628,1,2,1:2:0:0:
225,223,24787,1,8,0:0:0:0:
397,304,24947,1,2,3:2:0:0:
397,304,25027,1,0,1:0:0:0:
397,304,25106,5,0,1:0:0:0:
308,192,25266,1,0,1:0:0:0:
219,329,25426,1,8,0:0:0:0:
376,224,25585,1,0,0:0:0:0:
216,123,25745,2,0,P|210:172|202:213,1,74.6200011386109,2|0,1:2|1:0,0:0:0:0:
326,355,26064,2,0,P|319:318|315:281,1,74.6200011386109,10|0,0:0|0:0,0:0:0:0:
413,51,26383,5,2,1:2:0:0:
287,167,26543,1,0,1:0:0:0:
460,263,26702,1,8,0:0:0:0:
345,89,26862,2,0,P|336:140|326:198,1,74.6200011386109,0|0,0:0|1:0,0:0:0:0:
202,302,27181,2,0,P|195:265|189:228,1,74.6200011386109,2|8,1:2|0:0,0:0:0:0:
240,55,27500,1,2,1:2:0:0:
240,55,27580,1,0,1:0:0:0:
240,55,27660,5,0,1:2:0:0:
86,163,27819,1,0,1:2:0:0:
278,266,27979,2,0,P|343:245|373:231,1,74.6200011386109,8|0,0:0|0:0,0:0:0:0:
203,126,28298,1,0,1:0:0:0:
141,314,28457,1,0,1:0:0:0:
293,183,28617,1,8,0:0:0:0:
165,66,28777,1,2,3:0:0:0:
240,257,28936,6,0,P|233:312|230:360,1,74.6200011386109,2|0,1:2|0:0,0:0:0:0:
350,138,29255,1,8,0:0:0:0:
233,25,29415,2,0,P|238:61|241:99,1,74.6200011386109,2|0,1:2|1:0,0:0:0:0:
367,217,29734,1,2,1:2:0:0:
190,153,29894,1,8,0:0:0:0:
387,71,30053,1,2,0:2:0:0:
300,269,30213,5,0,1:0:0:0:
318,64,30372,1,0,1:0:0:0:
369,288,30532,1,8,0:0:0:0:
289,130,30692,1,0,0:0:0:0:
264,325,30851,2,0,P|220:309|184:285,1,74.6200011386109,2|0,1:2|1:0,0:0:0:0:
380,180,31170,2,0,P|344:191|312:210,1,74.6200011386109,10|0,0:0|0:0,0:0:0:0:
465,257,31489,5,6,1:2:0:0:
465,257,31649,1,0,1:0:0:0:
396,100,31809,1,10,0:0:0:0:
396,100,31968,1,2,0:0:0:0:
272,242,32128,1,0,1:0:0:0:
296,153,32287,1,2,1:2:0:0:
147,191,32447,1,8,0:0:0:0:
115,64,32606,1,10,0:0:0:0:
47,264,32766,5,0,1:0:0:0:
192,115,32926,1,8,0:0:0:0:
192,115,33005,1,8,0:0:0:0:
192,115,33085,1,8,0:0:0:0:
251,308,33245,1,8,0:0:0:0:
251,308,33325,1,8,0:0:0:0:
251,308,33404,1,8,0:0:0:0:
147,191,33564,1,4,1:3:0:0:
299,244,33723,1,4,0:0:0:0:
186,267,33883,1,2,0:0:0:0:
329,81,34043,5,4,0:0:0:0:
329,81,34362,2,0,P|336:167|345:235,1,131.040003199219,2|10,1:2|0:0,0:0:0:0:
249,114,34840,2,0,P|246:158|236:203,1,65.5200015996094,0|0,1:0|1:0,0:0:0:0:
180,75,35160,1,0,1:0:0:0:
263,247,35319,1,10,0:0:0:0:
161,152,35479,1,8,0:0:0:0:
198,300,35638,2,0,P|192:267|191:234,1,65.5200015996094,0|0,1:0|1:0,0:0:0:0:
81,170,35957,2,0,P|79:202|74:235,1,65.5200015996094,10|0,0:0|1:0,0:0:0:0:
53,265,36197,1,0,1:0:0:0:
53,265,36277,2,0,P|94:274|123:290,1,65.5200015996094,0|8,1:0|0:0,0:0:0:0:
272,135,36596,5,6,0:0:0:0:
272,135,36915,2,0,P|339:117|389:182,1,131.040003199219,2|10,1:2|0:0,0:0:0:0:
269,213,37394,2,0,P|220:195|185:193,1,65.5200015996094,0|2,0:0|0:0,0:0:0:0:
299,279,37713,1,0,0:0:0:0:
150,137,37872,1,14,0:0:0:0:
229,275,38032,2,0,P|217:335|213:369,1,65.5200015996094,0|0,1:0|1:0,0:0:0:0:
333,138,38351,1,6,0:0:0:0:
177,59,38511,2,0,P|184:90|189:123,1,65.5200015996094,2|0,1:2|1:0,0:0:0:0:
399,20,38830,2,0,P|391:51|386:84,1,65.5200015996094,8|8,0:0|0:0,0:0:0:0:
408,156,39069,1,8,0:0:0:0:
408,156,39149,5,4,0:0:0:0:
408,156,39468,2,0,P|320:171|298:214,1,131.040003199219,2|10,1:2|0:0,0:0:0:0:
328,324,39947,2,0,P|275:302|246:299,1,65.5200015996094,0|2,0:0|0:0,0:0:0:0:
372,240,40266,1,0,1:0:0:0:
202,205,40426,1,2,1:2:0:0:
305,121,40585,1,8,0:0:0:0:
239,24,40745,2,0,P|236:60|229:96,1,65.5200015996094,2|0,1:2|1:0,0:0:0:0:
291,273,41064,2,0,P|285:240|282:208,1,65.5200015996094,8|0,0:0|0:0,0:0:0:0:
354,56,41383,1,2,1:2:0:0:
152,302,41702,5,6,1:2:0:0:
152,302,42021,2,0,P|150:236|137:157,1,131.040003199219,2|10,1:2|0:0,0:0:0:0:
237,262,42500,2,0,P|245:210|249:186,1,65.5200015996094,0|2,0:0|0:1,0:0:0:0:
313,303,42819,1,8,0:0:0:0:
228,125,42979,5,4,3:2:0:0:
361,216,43138,1,0,3:0:0:0:
361,216,43218,1,0,3:0:0:0:
361,216,43298,2,0,P|353:164|349:140,1,65.5200015996094,0|0,3:0|3:0,0:0:0:0:
365,118,43537,1,0,3:0:0:0:
365,118,43617,1,8,0:0:0:0:
224,200,43777,1,8,0:0:0:0:
191,199,43856,1,8,0:0:0:0:
162,184,43936,1,8,0:3:0:0:
141,159,44016,1,8,0:3:0:0:
132,128,44096,1,4,0:3:0:0:
137,96,44175,1,4,0:3:0:0:
155,69,44255,6,0,P|215:77|249:90,1,74.6200011386109,4|0,1:2|0:2,0:2:0:0:
412,155,44575,2,0,P|374:157|338:167,1,74.6200011386109,10|0,0:2|0:2,0:2:0:0:
322,192,44814,1,0,0:2:0:0:
322,192,44894,1,2,1:2:0:0:
401,49,45053,1,2,1:2:0:0:
469,218,45213,1,10,0:2:0:0:
308,78,45372,6,0,B|202:75|274:134|145:125,1,149.240002277222,6|2,1:2|1:2,0:2:0:0:
299,157,45851,1,10,0:2:0:0:
179,47,46011,1,0,1:2:0:0:
179,47,46090,1,0,1:2:0:0:
179,47,46170,1,0,1:2:0:0:
140,207,46330,1,0,1:2:0:0:
307,235,46489,1,8,0:2:0:0:
346,75,46649,1,0,0:2:0:0:
176,138,46809,6,0,P|177:198|185:304,1,149.240002277222,4|10,1:2|0:2,0:2:0:0:
256,154,47287,1,2,0:2:0:0:
102,262,47447,1,2,1:2:0:0:
279,346,47606,1,2,1:2:0:0:
152,207,47766,1,10,0:2:0:0:
344,120,47926,6,0,P|266:125|210:64,1,149.240002277222,6|2,1:2|1:2,0:2:0:0:
417,191,48404,2,0,P|374:196|332:221,1,74.6200011386109,10|0,0:2|1:2,0:2:0:0:
321,236,48644,1,0,1:2:0:0:
321,236,48723,1,0,1:2:0:0:
413,88,48883,1,0,1:2:0:0:
457,281,49043,1,8,0:2:0:0:
344,120,49202,1,0,0:2:0:0:
232,308,49362,6,0,P|243:251|245:187,1,111.930001707916,4|0,1:2|0:2,0:2:0:0:
241,160,49681,2,0,P|175:174|144:188,1,74.6200011386109,10|0,0:2|0:2,0:2:0:0:
66,29,50000,2,0,P|102:34|138:45,1,74.6200011386109,2|0,1:2|1:2,0:2:0:0:
29,177,50319,1,10,0:2:0:0:
270,78,50479,6,0,P|312:119|323:222,1,149.240002277222,6|2,1:2|1:2,0:2:0:0:
153,325,50957,2,0,P|164:257|177:228,1,74.6200011386109,10|0,0:2|0:2,0:2:0:0:
402,233,51277,1,8,0:0:0:0:
381,263,51356,1,8,0:0:0:0:
348,280,51436,1,8,0:0:0:0:
311,280,51516,1,8,0:3:0:0:
279,262,51596,2,0,L|273:221,1,37.3100005693054,8|4,0:3|0:3,0:0:0:0:
158,172,51755,2,0,L|163:135,1,37.3100005693054,4|4,0:3|0:3,0:0:0:0:
277,25,51915,6,0,P|283:86|292:144,1,83.7199971895753,6|0,1:2|1:2,0:2:0:0:
87,130,52234,2,0,P|92:88|96:46,1,83.7199971895753,10|0,0:2|1:2,0:2:0:0:
81,22,52473,1,0,1:2:0:0:
81,22,52553,1,0,1:2:0:0:
202,113,52713,1,0,1:2:0:0:
154,298,52872,2,0,P|148:256|144:214,1,83.7199971895753,10|0,0:2|1:2,0:2:0:0:
152,184,53112,1,0,1:2:0:0:
152,184,53192,6,0,P|93:170|45:173,1,83.7199971895753,2|0,1:2|1:2,0:2:0:0:
289,215,53511,2,0,P|330:212|370:200,1,83.7199971895753,10|0,0:2|1:2,0:2:0:0:
386,182,53750,1,0,1:2:0:0:
386,182,53830,1,0,1:2:0:0:
279,48,53989,1,0,1:2:0:0:
385,274,54149,1,8,0:2:0:0:
482,100,54309,1,0,1:2:0:0:
209,174,54468,5,14,0:2:0:0:
468,331,54628,1,0,1:2:0:0:
362,43,54787,1,14,0:2:0:0:
202,340,54947,1,0,1:2:0:0:
490,168,55106,1,12,0:2:0:0:
170,40,55266,1,0,1:2:0:0:
354,373,55426,1,14,0:2:0:0:
354,373,55745,6,0,B|92:357|294:162|6:171,1,423.149983212434,6|0,0:0|0:0,0:0:0:0:
7,129,57021,6,0,P|75:123|125:111,1,92.8200005665283,6|0,1:2|0:2,0:2:0:0:
320,42,57340,2,0,P|273:39|228:31,1,92.8200005665283,10|0,0:2|1:2,0:2:0:0:
347,164,57660,1,2,1:2:0:0:
138,228,57819,1,0,1:2:0:0:
403,91,57979,2,0,P|416:144|422:191,1,92.8200005665283,8|0,0:2|0:2,0:2:0:0:
102,324,58298,6,0,P|152:248|259:264,1,185.640001133057,2|8,1:2|0:2,0:2:0:0:
440,326,58777,1,0,1:2:0:0:
440,326,58856,1,0,1:2:0:0:
440,326,58936,2,0,P|374:342|310:343,1,92.8200005665283,2|0,1:2|1:2,0:2:0:0:
212,157,59255,2,0,P|258:162|302:175,1,92.8200005665283,10|0,0:2|0:2,0:2:0:0:
175,333,59575,5,6,1:2:0:0:
336,158,59734,1,0,1:2:0:0:
336,158,59814,1,0,1:2:0:0:
336,158,59894,2,0,P|344:221|352:254,1,92.8200005665283,10|0,0:2|1:2,0:2:0:0:
162,104,60213,1,2,1:2:0:0:
338,21,60372,1,0,1:2:0:0:
182,224,60532,2,0,P|191:178|196:132,1,92.8200005665283,10|0,0:2|0:2,0:2:0:0:
328,277,60851,5,2,1:2:0:0:
97,325,61011,1,0,1:2:0:0:
307,189,61170,1,8,0:2:0:0:
132,77,61330,1,0,1:2:0:0:
132,77,61410,1,0,1:2:0:0:
132,77,61489,1,0,1:2:0:0:
253,252,61649,1,0,1:2:0:0:
349,39,61809,2,0,P|359:96|367:137,1,92.8200005665283,10|0,0:2|0:2,0:2:0:0:
346,167,62048,1,0,0:2:0:0:
346,167,62128,6,0,B|241:159|293:240|140:225,1,185.640001133057,6|10,1:2|0:2,0:2:0:0:
356,264,62606,1,0,1:2:0:0:
356,264,62686,1,0,1:2:0:0:
356,264,62766,2,0,P|431:244|459:244,1,92.8200005665283,2|0,1:2|1:2,0:2:0:0:
206,140,63085,2,0,P|162:124|116:119,1,92.8200005665283,8|0,0:2|0:2,0:2:0:0:
346,24,63404,6,0,P|437:49|425:148,1,185.640001133057,2|8,1:2|0:2,0:2:0:0:
270,272,63883,1,0,1:2:0:0:
270,272,63963,1,0,1:2:0:0:
270,272,64043,2,0,P|277:205|286:159,1,92.8200005665283,2|0,1:2|1:2,0:2:0:0:
100,95,64362,2,0,P|107:140|111:187,1,92.8200005665283,10|0,0:2|0:2,0:2:0:0:
275,47,64681,5,6,0:2:0:0:
139,258,64840,1,0,1:2:0:0:
334,109,65000,1,10,0:2:0:0:
372,327,65160,1,0,1:2:0:0:
372,327,65239,1,0,1:2:0:0:
372,327,65319,1,2,1:2:0:0:
152,181,65479,1,0,1:2:0:0:
396,43,65638,2,0,P|422:114|418:189,1,139.230000849792,10|0,0:2|0:2,0:2:0:0:
397,220,65957,5,6,3:2:0:0:
232,114,66117,1,0,3:0:0:0:
232,114,66197,1,0,3:0:0:0:
232,114,66277,1,0,1:0:0:0:
155,305,66436,1,0,3:0:0:0:
316,152,66596,2,0,P|301:79|280:44,1,92.8200005665283,2|0,1:2|1:0,0:0:0:0:
228,26,66835,1,0,1:0:0:0:
228,26,66915,2,0,P|167:46|151:47,1,46.4100002832642,8|0,0:0|1:0,0:0:0:0:
167,231,67075,2,0,P|144:224|123:214,1,46.4100002832642,4|8,1:3|1:3,0:0:0:0:
28,39,67234,6,0,P|19:96|4:148,1,92.8200005665283,6|0,1:2|0:2,0:2:0:0:
250,204,67553,2,0,P|238:159|231:113,1,92.8200005665283,10|0,0:2|0:2,0:2:0:0:
111,311,67873,1,2,1:2:0:0:
337,212,68032,1,0,1:2:0:0:
156,50,68192,2,0,P|149:95|137:140,1,92.8200005665283,10|0,0:2|1:2,0:2:0:0:
280,38,68511,5,2,1:2:0:0:
72,98,68670,1,0,1:2:0:0:
245,246,68830,2,0,P|233:201|226:155,1,92.8200005665283,8|0,0:2|1:2,0:2:0:0:
239,118,69069,1,0,1:2:0:0:
239,118,69149,1,2,1:2:0:0:
140,302,69309,1,0,1:2:0:0:
359,217,69468,2,0,P|352:262|340:307,1,92.8200005665283,10|0,0:2|0:2,0:2:0:0:
157,155,69787,5,6,1:2:0:0:
399,85,69947,1,0,1:2:0:0:
173,234,70106,2,0,P|99:215|67:189,1,92.8200005665283,10|0,0:2|0:2,0:2:0:0:
334,44,70426,1,2,1:2:0:0:
236,282,70585,1,0,1:2:0:0:
399,85,70745,2,0,P|405:141|419:209,1,92.8200005665283,10|0,0:2|1:2,0:2:0:0:
396,215,70984,1,0,1:2:0:0:
396,215,71064,5,2,1:2:0:0:
453,33,71223,1,0,1:2:0:0:
322,190,71383,1,8,0:2:0:0:
263,6,71543,1,0,1:2:0:0:
263,6,71622,1,0,1:2:0:0:
263,6,71702,1,0,1:2:0:0:
438,152,71862,1,0,1:2:0:0:
224,252,72021,2,0,P|237:167|257:108,1,139.230000849792,8|0,0:2|0:2,0:2:0:0:
292,80,72340,6,0,P|218:101|171:107,1,92.8200005665283,6|0,1:2|0:2,0:2:0:0:
15,223,72660,2,0,P|60:232|104:246,1,92.8200005665283,10|0,0:2|0:2,0:2:0:0:
87,40,72979,1,2,1:2:0:0:
170,280,73138,1,0,0:2:0:0:
248,27,73298,2,0,P|293:36|337:50,1,92.8200005665283,10|0,0:2|0:2,0:2:0:0:
417,282,73617,5,2,1:2:0:0:
280,111,73777,1,0,0:2:0:0:
235,333,73936,1,8,0:2:0:0:
363,130,74096,1,0,1:2:0:0:
363,130,74176,1,0,1:2:0:0:
363,130,74255,2,0,P|351:199|345:252,1,92.8200005665283,2|0,1:2|1:2,0:2:0:0:
212,70,74575,1,10,0:2:0:0:
406,28,74734,1,0,0:2:0:0:
114,257,74894,5,14,0:2:0:0:
448,98,75053,1,0,1:2:0:0:
128,0,75213,1,10,0:2:0:0:
431,294,75372,1,0,1:2:0:0:
252,0,75532,1,10,0:2:0:0:
131,359,75692,1,0,1:2:0:0:
371,99,75851,2,0,P|379:171|387:210,1,92.8200005665283,14|0,0:2|0:2,0:2:0:0:
155,73,76170,6,0,P|81:78|41:150,1,139.230000849792,6|0,1:2|0:0,1:0:0:0:
81,188,76489,2,0,L|94:254,1,61.8800003776855,8|4,0:0|0:3,0:0:0:0:
200,157,76702,1,4,0:3:0:0:
200,157,76809,2,0,L|187:223,1,61.8800003776855,0|8,1:0|0:0,0:0:0:0:
284,248,77021,1,8,0:3:0:0:
284,248,77128,2,0,L|271:182,1,61.8800003776855,4|4,0:3|0:3,0:0:0:0:
337,146,77340,1,4,0:3:0:0:
337,146,77447,6,0,P|390:137|444:183,1,112.839995523316,4|2,0:0|0:0,0:0:0:0:
300,86,78085,2,0,P|243:57|128:84,1,169.259993284973,2|0,0:0|0:0,0:0:0:0:
72,64,78723,2,0,P|88:122|87:185,1,112.839995523316,2|0,0:0|0:0,0:0:0:0:
59,241,79202,1,0,0:0:0:0:
59,241,79362,2,0,P|98:229|128:228,1,56.4199977616578,2|0,0:0|0:0,0:0:0:0:
175,186,79681,2,0,P|214:198|244:199,1,56.4199977616578,2|0,0:0|0:0,0:0:0:0:
329,227,80000,6,0,P|279:245|245:304,1,112.839995523316,2|2,0:0|0:0,0:0:0:0:
416,146,80638,2,0,P|393:194|411:259,1,112.839995523316,2|2,0:0|0:0,0:0:0:0:
417,32,81277,2,0,P|437:137|485:196,1,169.259993284973,2|0,0:0|0:0,0:0:0:0:
473,185,81915,1,0,0:0:0:0:
332,94,82234,1,2,0:0:0:0:
305,271,82553,6,0,P|246:240|186:247,1,112.839995523316,2|2,0:0|0:0,0:0:0:0:
365,234,83192,2,0,P|396:220|430:216,1,56.4199977616578,2|0,0:0|0:0,0:0:0:0:
336,169,83511,2,0,P|367:155|401:151,1,56.4199977616578,2|0,0:0|0:0,0:0:0:0:
196,299,83830,2,0,P|110:322|51:256,1,169.259993284973,2|0,0:0|0:0,0:0:0:0:
109,191,84468,2,0,P|115:242|121:264,1,56.4199977616578,2|0,0:0|0:0,0:0:0:0:
42,184,84787,2,0,P|48:235|54:257,1,56.4199977616578,2|0,0:0|0:0,0:0:0:0:
162,140,85106,6,0,P|185:128|224:124,2,58.24,2|2|2,0:0|0:0|0:0,0:0:0:0:
278,155,86064,1,2,0:0:0:0:
278,155,86383,6,0,B|327:155|300:177|359:179,1,87.3600021328126,2|0,0:0|0:2,0:0:0:0:
