osu file format v14

[General]
AudioFilename: audio.mp3
AudioLeadIn: 0
PreviewTime: 56953
Countdown: 0
SampleSet: Soft
StackLeniency: 0.7
Mode: 0
LetterboxInBreaks: 0
WidescreenStoryboard: 1

[Editor]
Bookmarks: 22625,32837,43050,50710,53263,55816,66029
DistanceSpacing: 1
BeatDivisor: 2
GridSize: 32
TimelineZoom: 2.7

[Metadata]
Title:Kessen Spirit (TV Size)
TitleUnicode:決戦スピリット (TV Size)
Artist:CHiCO with HoneyWorks
ArtistUnicode:CHiCO with HoneyWorks
Creator:Haruto
Version:Normal
Source:ハイキュー!! TO THE TOP
Tags:japanese jpop anime haikyuu season 4 fourth ending shito gom haniwa haruto_aizawa sotarks ipas kalibe tomadoi agatsu hypercyte seolv 10nya stixy a_r_m_i_n armin serizawa haruki newipas [_l_u_k_a_s_] -_t_e_n_n_y_a_- shiinoha kotone tricolor hypercute lukas jack j_a_c_k
BeatmapID:2283792
BeatmapSetID:1092298

[Difficulty]
HPDrainRate:3
CircleSize:3
OverallDifficulty:3
ApproachRate:4
SliderMultiplier:1
SliderTickRate:1

[Events]
//Background and Video events
0,0,"57509816_p0.jpg",0,0
Video,0,"haikyuu ed.mp4"
//Break Periods
//Storyboard Layer 0 (Background)
//Storyboard Layer 1 (Fail)
//Storyboard Layer 2 (Pass)
//Storyboard Layer 3 (Foreground)
//Storyboard Layer 4 (Overlay)
//Storyboard Sound Samples

[TimingPoints]
2140,279.06976744186,4,2,1,70,1,0
2279,319.148936170213,4,2,1,50,1,0
2598,290.556900726392,4,2,1,50,1,0
2888,368.098159509202,4,2,1,60,1,0
3072,329.67032967033,4,2,1,60,1,0
3401,319.148936170213,4,2,1,70,1,0
6273,-100,4,2,2,70,0,0
6353,-100,4,2,1,70,0,0
8188,334.261838440111,4,2,1,70,1,0
8522,317.040951122854,4,2,1,70,1,0
9790,319.148936170213,4,2,1,70,1,0
11066,312.5,4,2,1,70,1,0
12003,323.450134770889,4,2,1,70,1,0
12326,318.302387267905,4,2,1,70,1,0
13599,332.409972299169,4,2,1,55,1,0
13931,-100,4,2,2,70,0,0
14014,-100,4,2,1,70,0,0
14097,319.148936170213,4,2,1,55,1,0
14894,319.148936170213,4,2,1,55,1,0
15215,-100,4,2,2,70,0,0
15295,-100,4,2,1,70,0,0
16491,-100,4,2,2,70,0,0
16571,-100,4,2,1,70,0,0
19042,-100,4,2,2,70,0,0
19122,-100,4,2,1,70,0,0
21596,-100,4,2,2,70,0,0
21676,-100,4,2,1,70,0,0
24149,-100,4,2,2,70,0,0
24229,-100,4,2,1,70,0,0
26702,-100,4,2,2,70,0,0
26782,-100,4,2,1,70,0,0
29255,-100,4,2,2,70,0,0
29335,-100,4,2,1,70,0,0
35957,-100,4,2,2,70,0,0
36037,-100,4,2,1,70,0,0
44575,-100,4,2,2,70,0,0
44654,-100,4,2,1,70,0,0
57021,-100,4,2,1,70,0,1
71383,-100,4,2,2,70,0,1
71463,-100,4,2,1,70,0,1
77447,-100,4,2,1,40,0,0

[Colours]
Combo1 : 53,154,255
Combo2 : 255,128,64
Combo3 : 149,215,234
Combo4 : 144,144,144

[HitObjects]
111,58,3401,6,0,L|115:125,1,50,6|0,1:2|0:2,0:0:0:0:
127,161,3720,1,10,0:0:0:0:
127,161,3879,2,0,P|189:166|242:95,1,150,2|10,0:2|0:2,0:0:0:0:
318,35,4677,2,0,B|365:26|369:57|415:51,1,100,2|10,1:2|0:2,0:0:0:0:
458,75,5156,2,0,L|450:188,1,100,2|0,1:2|1:2,0:0:0:0:
449,224,5635,1,10,0:2:0:0:
360,270,5954,6,0,P|290:249|257:182,2,150,2|2|10,1:2|0:2|0:2,0:0:0:0:
356,169,7230,2,0,L|362:83,1,50,2|2,1:2|1:2,0:0:0:0:
361,69,7549,2,0,L|248:61,1,100,14|2,0:2|1:2,0:0:0:0:
166,49,8188,1,14,0:2:0:0:
70,93,8522,6,0,L|17:89,2,50,4|0|8,0:0|1:0|0:0,0:0:0:0:
101,132,8997,2,0,B|83:197|118:214|100:280,1,150,2|10,1:2|0:2,0:0:0:0:
190,323,9790,2,0,L|200:259,1,50,2|0,1:2|1:2,0:0:0:0:
240,244,10109,1,10,0:2:0:0:
240,244,10268,2,0,P|300:238|347:160,1,150,2|10,1:2|0:2,0:0:0:0:
361,69,11066,6,0,L|460:76,1,100,6|10,1:2|0:2,0:0:0:0:
494,170,11691,2,0,L|486:269,1,100,8|10,0:2|0:2,0:0:0:0:
410,334,12326,2,0,L|330:328,1,50,0|8,1:0|0:0,0:0:0:0:
325,293,12644,2,0,L|225:300,1,100,0|0,1:0|1:0,0:0:0:0:
125,305,13280,1,8,0:0:0:0:
74,219,13599,6,0,P|105:152|183:149,1,150,6|2,1:2|1:2,0:0:0:0:
270,189,14417,1,2,1:2:0:0:
270,189,14575,1,8,0:2:0:0:
312,98,14894,2,0,L|476:86,1,150,0|0,1:2|0:0,0:0:0:0:
503,115,15532,2,0,P|491:162|488:218,1,100,2|10,1:2|0:2,0:0:0:0:
410,276,16170,6,0,B|344:259|334:312|260:295,1,150,2|0,1:2|0:2,0:0:0:0:
177,246,16968,1,2,1:2:0:0:
177,246,17128,1,8,0:2:0:0:
92,299,17447,2,0,L|82:167,1,100,0|8,1:2|0:2,0:0:0:0:
170,147,18085,2,0,L|164:67,1,50,0|0,1:2|1:2,0:0:0:0:
162,47,18404,1,8,0:2:0:0:
254,8,18723,6,0,P|318:5|372:86,1,150,6|2,1:2|1:2,0:0:0:0:
313,148,19521,1,2,1:2:0:0:
391,209,19840,2,0,P|385:244|377:349,1,100,0|0,0:2|1:2,0:0:0:0:
373,358,20319,1,8,0:2:0:0:
273,345,20638,2,0,P|279:310|287:205,1,100,2|10,1:2|0:2,0:0:0:0:
218,171,21276,6,0,L|41:158,1,150,2|2,1:2|1:2,0:0:0:0:
130,81,22074,1,2,1:2:0:0:
191,1,22394,2,0,P|245:7|301:8,1,100,0|0,0:2|1:2,0:0:0:0:
338,20,22872,2,0,B|350:65|326:77|338:123,1,100,12|0,0:2|1:2,0:0:0:0:
407,190,23511,1,4,0:3:0:0:
334,259,23830,6,0,B|280:255|280:255|238:274|238:274|180:271,1,150,6|2,1:2|0:0,0:0:0:0:
143,181,24628,1,2,1:2:0:0:
143,181,24787,1,8,0:0:0:0:
63,121,25106,2,0,P|48:167|46:220,1,100,0|8,1:0|0:0,0:0:0:0:
143,181,25745,2,0,P|157:134|159:81,1,100,2|10,1:2|0:0,0:0:0:0:
230,13,26383,6,0,L|382:24,1,150,2|0,1:2|0:0,0:0:0:0:
447,97,27181,2,0,P|436:133|434:173,1,50,2|8,1:2|0:0,0:0:0:0:
432,195,27500,2,0,P|378:207|310:125,1,150,2|8,1:2|0:0,0:0:0:0:
216,117,28298,2,0,L|207:237,1,100,0|8,1:0|0:0,0:0:0:0:
112,189,28936,6,0,B|108:135|108:135|127:93|127:93|124:35,1,150,2|2,1:2|1:2,0:0:0:0:
27,67,29734,1,2,1:2:0:0:
27,67,29894,2,0,L|22:134,1,50,8|0,0:0|0:0,0:0:0:0:
3,164,30213,2,0,L|11:284,1,100,0|8,1:0|0:0,0:0:0:0:
44,357,30851,2,0,P|89:330|105:278,1,100,2|10,1:2|0:0,0:0:0:0:
105,187,31489,6,0,L|204:180,1,100,6|10,1:2|0:0,0:0:0:0:
261,180,31968,1,2,0:0:0:0:
360,171,32287,1,2,1:2:0:0:
302,89,32606,1,10,0:0:0:0:
302,89,32766,2,0,L|203:82,1,100,0|8,1:0|0:0,0:0:0:0:
102,76,33404,1,8,0:0:0:0:
40,154,33723,1,4,0:0:0:0:
139,168,34043,6,0,B|101:249|168:274|129:366,1,200,4|10,0:0|0:0,0:0:0:0:
229,353,35000,1,0,1:0:0:0:
253,256,35319,2,0,P|274:199|215:109,2,150,10|0|0,0:0|1:0|1:0,0:0:0:0:
327,323,36596,6,0,B|477:309|477:309|506:248,1,200,6|10,0:0|0:0,0:0:0:0:
411,215,37553,1,2,0:0:0:0:
489,153,37872,2,0,P|483:107|480:45,1,100,14|0,0:0|1:0,0:0:0:0:
442,20,38351,2,0,P|396:26|334:29,1,100,6|0,0:0|1:0,0:0:0:0:
311,67,38830,2,0,P|315:101|317:148,1,50,8|8,0:0|0:0,0:0:0:0:
320,167,39149,6,0,P|274:161|119:149,1,200,4|10,0:0|0:0,0:0:0:0:
56,226,40107,2,0,L|60:290,1,50,2|8,0:0|0:0,0:0:0:0:
109,302,40426,1,2,1:2:0:0:
109,302,40585,2,0,P|145:297|267:287,1,150,8|8,0:0|0:0,0:0:0:0:
357,277,41383,1,2,1:2:0:0:
417,197,41702,6,0,P|432:146|314:56,1,200,6|10,1:2|0:0,0:0:0:0:
262,117,42660,1,2,0:1:0:0:
178,61,42979,2,0,L|79:68,1,100,4|0,3:2|3:0,0:0:0:0:
22,151,43617,2,0,L|29:250,1,100,8|8,0:0|0:3,0:0:0:0:
68,291,44096,1,4,0:3:0:0:
68,291,44255,6,0,P|137:294|181:166,1,200,4|2,1:2|1:2,0:0:0:0:
262,117,45213,1,10,0:2:0:0:
262,117,45372,2,0,L|427:128,1,150,6|10,1:2|0:2,0:0:0:0:
511,135,46170,1,0,1:2:0:0:
455,218,46489,1,8,0:2:0:0:
399,301,46809,6,0,L|279:309,1,100,4|10,1:2|0:2,0:0:0:0:
261,286,47287,1,2,0:2:0:0:
261,286,47447,2,0,L|141:278,1,100,2|10,1:2|0:2,0:0:0:0:
111,274,47926,2,0,P|86:216|128:129,1,150,6|10,1:2|0:2,0:0:0:0:
200,85,48723,1,0,1:2:0:0:
291,125,49043,2,0,L|357:131,1,50,8|0,0:2|0:2,0:0:0:0:
390,135,49362,6,0,L|379:251,1,100,4|10,1:2|0:2,0:0:0:0:
308,303,50000,2,0,B|259:290|254:322|206:312,1,100,2|10,1:2|0:2,0:0:0:0:
160,304,50479,2,0,L|152:204,1,100,6|0,1:2|1:2,0:0:0:0:
150,154,50957,1,10,0:0:0:0:
143,54,51277,1,8,0:0:0:0:
236,89,51596,1,8,0:3:0:0:
315,29,51915,5,6,1:2:0:0:
407,66,52234,2,0,L|390:219,1,150,10|0,0:2|1:2,0:0:0:0:
386,265,52872,1,10,0:2:0:0:
305,324,53192,2,0,P|254:305|230:264,1,100,2|10,1:2|0:2,0:0:0:0:
137,302,53830,2,0,P|127:248|151:207,1,100,0|8,1:2|0:2,0:0:0:0:
237,163,54468,1,14,0:2:0:0:
256,192,54548,12,6,55745,0:0:0:0:
58,53,57021,6,0,P|126:30|167:48,1,100,6|8,1:2|1:2,0:0:0:0:
211,118,57660,1,2,1:2:0:0:
157,202,57979,1,8,0:2:0:0:
242,254,58298,2,0,P|232:298|227:355,1,100,2|8,1:2|0:2,0:0:0:0:
184,326,58777,1,0,1:0:0:0:
143,300,58936,2,0,P|153:251|157:201,1,100,2|10,1:2|0:2,0:0:0:0:
211,118,59575,6,0,L|318:128,1,100,6|10,1:2|0:2,0:0:0:0:
410,136,60213,1,0,1:0:0:0:
509,146,60532,1,10,0:2:0:0:
452,228,60851,2,0,L|402:232,1,50,2|0,1:2|1:2,0:0:0:0:
352,240,61170,2,0,L|220:252,1,100,8|0,0:2|1:2,0:0:0:0:
152,262,61809,1,10,0:2:0:0:
90,183,62128,6,0,P|74:136|89:89,1,100,6|10,1:2|0:2,0:0:0:0:
172,34,62766,2,0,P|201:33|236:49,1,50,2|0,1:2|1:2,0:0:0:0:
252,78,63085,1,8,0:0:0:0:
353,70,63404,2,0,L|452:60,1,100,2|8,1:2|0:2,0:0:0:0:
467,160,64043,2,0,L|394:166,1,50,2|0,1:2|1:2,0:0:0:0:
367,169,64362,1,10,0:0:0:0:
288,230,64681,6,0,P|273:274|267:338,1,100,6|10,0:2|0:2,0:0:0:0:
183,271,65319,1,0,1:0:0:0:
190,171,65638,1,10,0:2:0:0:
194,71,65957,2,0,L|82:58,1,100,6|8,3:2|0:0,0:0:0:0:
16,122,66596,2,0,L|24:230,1,100,2|8,1:2|0:0,0:0:0:0:
48,265,67075,1,4,1:3:0:0:
48,265,67234,6,0,L|156:256,1,100,6|8,1:2|0:2,0:0:0:0:
247,252,67872,1,10,0:0:0:0:
347,240,68192,1,10,0:2:0:0:
290,157,68511,2,0,L|295:82,1,50,2|0,1:2|1:2,0:0:0:0:
297,57,68830,2,0,P|361:53|398:78,1,100,8|2,0:2|0:2,0:0:0:0:
414,167,69468,1,8,0:0:0:0:
347,240,69787,6,0,L|358:349,1,100,6|10,1:2|0:2,0:0:0:0:
257,349,70426,2,0,L|246:240,1,100,2|10,1:2|0:2,0:0:0:0:
195,163,71064,2,0,B|128:143|75:186|75:186|49:150|71:112,1,200,2|0,1:2|1:2,0:0:0:0:
121,33,72021,1,8,0:2:0:0:
220,44,72340,6,0,L|319:54,1,100,6|10,1:2|0:2,0:0:0:0:
349,149,72979,2,0,L|406:144,1,50,2|0,1:2|1:0,0:0:0:0:
448,139,73298,1,8,0:0:0:0:
458,238,73617,2,0,L|350:248,1,100,2|8,1:2|0:2,0:0:0:0:
289,320,74255,2,0,L|181:330,1,100,2|8,1:2|0:2,0:0:0:0:
110,269,74893,5,12,0:0:0:0:
126,170,75212,1,8,0:0:0:0:
116,71,75532,1,10,0:2:0:0:
209,105,75851,1,14,0:2:0:0:
304,74,76170,1,6,1:2:0:0:
256,192,76330,12,4,77447,0:0:0:0:
412,177,78723,6,0,L|399:286,1,100,2|0,0:0|0:0,0:0:0:0:
393,326,79202,2,0,P|347:322|296:235,1,150,2|2,0:0|0:0,0:0:0:0:
320,143,80000,2,0,L|211:156,1,100,2|2,0:0|0:0,0:0:0:0:
171,163,80479,1,0,0:0:0:0:
171,163,80638,1,2,0:0:0:0:
72,178,80957,1,2,0:0:0:0:
107,84,81276,6,0,P|147:19|207:13,1,100,2|2,0:0|0:0,0:0:0:0:
215,16,81755,2,0,L|395:37,1,150,2|2,0:0|0:0,0:0:0:0:
428,110,82553,2,0,L|411:243,1,100,2|2,0:0|0:0,0:0:0:0:
323,246,83191,2,0,L|311:146,1,100,0|2,0:0|0:0,0:0:0:0:
213,124,83830,6,0,P|148:136|109:235,1,150,2|0,0:0|0:0,0:0:0:0:
108,253,84468,2,0,P|163:260|197:291,1,100,2|2,0:0|0:0,0:0:0:0:
119,353,85106,2,0,L|19:341,2,100,0|2|2,0:0|0:0|0:0,0:0:0:0:
218,367,86064,1,2,0:0:0:0:
317,380,86383,6,0,P|368:337|197:172,1,400,2|0,0:0|0:0,0:0:0:0:
