osu file format v14

[General]
AudioFilename: audio.mp3
AudioLeadIn: 0
PreviewTime: 56953
Countdown: 0
SampleSet: Soft
StackLeniency: 0.7
Mode: 0
LetterboxInBreaks: 0
WidescreenStoryboard: 1

[Editor]
Bookmarks: 14676,35102
DistanceSpacing: 1
BeatDivisor: 4
GridSize: 32
TimelineZoom: 2.7

[Metadata]
Title:Kessen Spirit (TV Size)
TitleUnicode:決戦スピリット (TV Size)
Artist:CHiCO with HoneyWorks
ArtistUnicode:CHiCO with HoneyWorks
Creator:Haruto
Version:Insane
Source:ハイキュー!! TO THE TOP
Tags:japanese jpop anime haikyuu season 4 fourth ending shito gom haniwa haruto_aizawa sotarks ipas kalibe tomadoi agatsu hypercyte seolv 10nya stixy a_r_m_i_n armin serizawa haruki newipas [_l_u_k_a_s_] -_t_e_n_n_y_a_- shiinoha kotone tricolor hypercute lukas jack j_a_c_k
BeatmapID:2283817
BeatmapSetID:1092298

[Difficulty]
HPDrainRate:5
CircleSize:3.7
OverallDifficulty:7
ApproachRate:9
SliderMultiplier:1.65
SliderTickRate:1

[Events]
//Background and Video events
0,0,"57509816_p0.jpg",0,0
Video,0,"haikyuu ed.mp4"
//Break Periods
//Storyboard Layer 0 (Background)
//Storyboard Layer 1 (Fail)
//Storyboard Layer 2 (Pass)
//Storyboard Layer 3 (Foreground)
//Storyboard Layer 4 (Overlay)
//Storyboard Sound Samples

[TimingPoints]
2140,279.06976744186,4,2,1,70,1,0
2279,319.148936170213,4,2,1,50,1,0
2598,290.556900726392,4,2,1,50,1,0
2888,368.098159509202,4,2,1,60,1,0
3072,329.67032967033,4,2,1,60,1,0
3401,319.148936170213,4,2,1,70,1,0
8188,334.261838440111,4,2,1,70,1,0
8522,317.040951122854,4,2,1,70,1,0
9790,319.148936170213,4,2,1,70,1,0
11066,312.5,4,2,1,70,1,0
12003,323.450134770889,4,2,1,70,1,0
12326,318.302387267905,4,2,1,70,1,0
13599,332.409972299169,4,2,1,55,1,0
13599,-142.857142857143,4,2,1,55,0,0
14097,319.148936170213,4,2,1,55,1,0
14097,-133.333333333333,4,2,1,55,0,0
14894,319.148936170213,4,2,1,55,1,0
14894,-133.333333333333,4,2,1,55,0,0
23830,-117.647058823529,4,2,1,70,0,0
34043,-133.333333333333,4,2,1,70,0,0
42979,-100,4,2,1,70,0,0
57021,-100,4,2,1,70,0,1
72580,-100,4,2,1,20,0,1
72660,-100,4,2,1,70,0,1
76489,-125,4,2,1,70,0,1
77447,-100,4,2,1,40,0,0
82553,-181.818181818181,4,2,1,40,0,0
85106,-200,4,2,1,40,0,0
86463,-333.333333333333,4,2,1,40,0,0
86543,-333.333333333333,4,2,1,30,0,0
87660,-333.333333333333,4,2,1,20,0,0

[Colours]
Combo1 : 53,154,255
Combo2 : 255,128,64
Combo3 : 149,215,234
Combo4 : 144,144,144

[HitObjects]
103,99,2140,5,4,1:2:0:0:
155,253,2279,1,8,0:0:0:0:
157,230,2358,1,8,0:0:0:0:
159,208,2438,2,0,L|167:133,1,41.25,8|8,0:0|0:0,0:0:0:0:
182,9,2598,2,0,L|177:50,1,41.25,0|0,1:0|1:0,0:0:0:0:
237,112,2743,1,8,0:0:0:0:
326,122,2888,5,0,1:0:0:0:
345,123,2980,1,0,1:0:0:0:
364,125,3072,1,12,0:0:0:0:
184,346,3401,6,0,L|102:354,2,82.5,6|0|10,1:2|1:2|0:2,0:0:0:0:
315,283,3879,2,0,B|244:274|244:274|225:261|225:261|152:252,1,165,2|0,0:2|1:2,0:0:0:0:
287,188,4358,2,0,L|369:196,1,82.5,10|0,0:2|0:2,0:0:0:0:
207,38,4677,6,0,P|222:70|227:124,2,82.5,2|0|10,1:2|1:2|0:2,0:0:0:0:
104,226,5156,1,2,1:2:0:0:
104,226,5236,6,0,P|108:185|137:100,1,123.75,8|0,0:2|1:2,0:0:0:0:
310,62,5635,2,0,L|392:54,1,82.5,10|0,0:2|0:2,0:0:0:0:
369,196,5954,6,0,L|287:188,2,82.5,2|0|8,1:2|1:2|0:0,0:0:0:0:
304,351,6433,2,0,P|238:340|217:249,1,165,2|0,0:2|1:2,0:0:0:0:
452,155,6912,2,0,P|462:186|448:249,1,82.5,10|0,0:2|0:2,0:0:0:0:
369,196,7231,5,2,1:2:0:0:
360,113,7390,1,2,1:2:0:0:
232,14,7550,5,12,0:0:0:0:
231,105,7709,1,0,1:2:0:0:
231,105,7790,1,0,0:0:0:0:
231,105,7869,6,0,L|223:187,1,82.5,2|2,1:2|1:2,0:0:0:0:
151,54,8188,2,0,L|69:46,1,82.5,14|0,0:2|0:2,0:0:0:0:
312,64,8522,6,0,L|394:72,2,82.5,6|0|10,1:2|1:2|0:2,0:0:0:0:
194,281,8997,2,0,B|270:292|275:238|352:251,1,165,2|0,0:2|1:2,0:0:0:0:
431,302,9473,2,0,L|423:384,1,82.5,10|0,0:2|0:2,0:0:0:0:
209,109,9790,5,2,1:2:0:0:
217,191,9949,2,0,L|209:109,1,82.5,0|10,1:2|0:2,0:0:0:0:
132,55,10268,2,0,P|85:63|49:166,1,165,2|0,1:2|1:2,0:0:0:0:
301,138,10747,2,0,L|383:130,1,82.5,10|0,0:2|0:2,0:0:0:0:
247,284,11066,6,0,L|165:276,1,82.5,6|0,1:2|1:2,0:0:0:0:
462,75,11378,5,10,0:2:0:0:
470,165,11534,1,2,1:2:0:0:
301,138,11691,1,8,0:2:0:0:
309,48,11847,1,0,1:2:0:0:
395,221,12003,5,8,0:2:0:0:
403,311,12164,1,0,1:2:0:0:
320,273,12326,1,0,1:0:0:0:
320,273,12405,1,8,0:0:0:0:
320,273,12485,2,0,L|274:268,1,41.25,8|8,0:0|0:0,0:0:0:0:
229,198,12644,2,0,L|183:202,1,41.25,0|0,1:0|0:0,0:0:0:0:
296,96,12803,2,0,L|300:141,1,41.25,8|8,0:0|0:0,0:0:0:0:
120,309,12962,2,0,L|124:267,1,41.25,8|0,0:2|0:0,0:0:0:0:
68,195,13121,1,8,0:0:0:0:
207,356,13280,5,8,0:0:0:0:
247,360,13360,1,8,0:0:0:0:
285,344,13440,1,8,0:0:0:0:
311,312,13519,1,8,0:0:0:0:
320,273,13599,6,0,B|374:265|378:301|433:293,1,115.49999647522,6|10,1:2|0:2,0:0:0:0:
380,175,14097,1,2,1:2:0:0:
380,175,14176,1,0,1:0:0:0:
380,175,14256,2,0,L|319:182,1,61.875002360344,0|2,1:2|1:2,0:0:0:0:
225,77,14575,2,0,L|317:86,1,92.812503540516,8|0,0:2|0:0,0:0:0:0:
333,88,14894,5,0,1:2:0:0:
422,98,15053,1,0,1:2:0:0:
239,232,15213,2,0,P|225:199|226:157,1,61.875002360344,8|0,0:2|0:0,0:0:0:0:
145,124,15452,1,8,1:2:0:0:
133,125,15532,2,0,L|5:137,1,123.750004720688,2|10,1:2|0:2,0:0:0:0:
85,353,16170,6,0,P|108:298|176:289,1,123.750004720688,2|10,1:2|0:2,0:0:0:0:
253,322,16649,1,0,0:0:0:0:
253,322,16729,1,8,1:2:0:0:
253,322,16808,2,0,L|246:383,1,61.875002360344,0|2,1:2|1:2,0:0:0:0:
326,264,17128,2,0,L|319:202,1,61.875002360344,8|2,0:2|0:2,0:0:0:0:
254,89,17447,6,0,B|247:139|247:139|237:154|237:154|230:208,1,123.750004720688,0|8,1:2|0:2,0:0:0:0:
348,111,17925,1,0,0:0:0:0:
348,111,18005,1,8,1:2:0:0:
348,111,18085,2,0,L|341:49,1,61.875002360344,0|0,1:2|1:2,0:0:0:0:
148,128,18404,2,0,L|141:189,1,61.875002360344,8|0,0:2|0:0,0:0:0:0:
74,251,18723,6,0,P|48:250|5:172,1,123.750004720688,6|8,1:2|0:2,0:0:0:0:
157,282,19202,2,0,L|163:343,1,61.875002360344,2|0,1:2|1:2,0:0:0:0:
228,219,19521,2,0,L|289:212,2,61.875002360344,2|8|0,1:2|0:2|0:0,0:0:0:0:
0,34,20000,6,0,B|31:6|69:18|69:18|85:42|109:48,1,123.750004720688,2|8,1:2|0:2,0:0:0:0:
200,52,20479,1,0,0:0:0:0:
200,52,20558,1,8,0:2:0:0:
200,52,20638,2,0,L|261:45,1,61.875002360344,2|0,1:2|1:2,0:0:0:0:
155,189,20957,2,0,L|148:128,1,61.875002360344,10|0,0:2|1:2,0:0:0:0:
248,144,21276,6,0,L|232:276,1,123.750004720688,2|8,1:2|0:2,0:0:0:0:
338,255,21755,2,0,P|331:225|327:195,1,61.875002360344,2|0,1:2|1:2,0:0:0:0:
131,344,22074,2,0,P|138:314|142:284,1,61.875002360344,2|8,1:2|0:2,0:0:0:0:
268,358,22394,1,0,0:0:0:0:
70,226,22553,6,0,L|9:219,1,61.875002360344,2|0,1:2|1:2,0:0:0:0:
329,104,22872,2,0,L|390:111,1,61.875002360344,8|0,0:2|0:0,0:0:0:0:
200,52,23191,5,0,1:2:0:0:
107,26,23351,1,8,0:2:0:0:
81,119,23511,1,4,0:3:0:0:
182,153,23670,1,8,1:2:0:0:
182,153,23750,1,8,1:2:0:0:
182,153,23830,6,0,L|327:136,1,140.250002675056,6|8,1:2|0:0,0:0:0:0:
402,83,24309,2,0,P|409:35|399:7,1,70.1250013375282,2|0,0:0|1:0,0:0:0:0:
409,180,24628,2,0,P|402:228|412:256,2,70.1250013375282,2|8|2,1:2|0:0|3:2,0:0:0:0:
487,120,25027,5,0,1:0:0:0:
501,118,25106,1,0,1:0:0:0:
304,236,25266,1,0,1:0:0:0:
304,236,25426,2,0,L|312:308,1,70.1250013375282,8|0,0:0|0:0,0:0:0:0:
396,371,25745,2,0,L|403:301,1,70.1250013375282,2|0,1:2|1:0,0:0:0:0:
217,278,26064,2,0,L|147:270,1,70.1250013375282,10|0,0:0|0:0,0:0:0:0:
294,140,26383,6,0,P|335:129|393:199,1,140.250002675056,2|8,1:2|0:0,0:0:0:0:
210,181,26862,2,0,L|202:111,1,70.1250013375282,0|0,0:0|1:0,0:0:0:0:
286,70,27181,2,0,L|293:139,1,70.1250013375282,2|8,1:2|0:0,0:0:0:0:
135,234,27500,5,2,1:2:0:0:
135,234,27580,1,0,1:0:0:0:
135,234,27660,2,0,B|74:241|74:241|58:252|58:252|-3:260,1,140.250002675056,0|8,1:2|0:0,0:0:0:0:
118,328,28138,1,0,0:0:0:0:
118,328,28298,2,0,L|188:336,1,70.1250013375282,0|0,1:0|1:0,0:0:0:0:
26,154,28617,2,0,L|96:146,1,70.1250013375282,8|2,0:0|3:0,0:0:0:0:
179,94,28936,6,0,P|159:39|74:32,1,140.250002675056,2|8,1:2|0:0,0:0:0:0:
225,182,29415,1,2,1:2:0:0:
225,182,29495,1,0,1:0:0:0:
225,182,29575,2,0,P|261:146|307:143,1,70.1250013375282,0|2,1:0|1:2,0:0:0:0:
166,293,29894,2,0,P|147:245|107:222,1,70.1250013375282,8|2,0:0|0:2,0:0:0:0:
262,359,30213,6,0,P|258:307|314:232,1,140.250002675056,0|8,1:0|0:0,0:0:0:0:
387,189,30692,1,0,0:0:0:0:
298,73,30851,2,0,L|306:143,1,70.1250013375282,2|0,1:2|1:0,0:0:0:0:
382,354,31170,2,0,L|390:284,1,70.1250013375282,10|0,0:0|0:0,0:0:0:0:
437,57,31489,6,0,L|295:73,1,140.250002675056,6|10,1:2|0:0,0:0:0:0:
395,154,31968,2,0,L|473:145,1,70.1250013375282,2|0,0:0|1:0,0:0:0:0:
203,88,32287,2,0,L|133:95,1,70.1250013375282,2|8,1:2|0:0,0:0:0:0:
271,167,32606,5,10,0:0:0:0:
271,167,32686,1,8,0:0:0:0:
271,167,32766,2,0,L|278:236,1,70.1250013375282,0|8,1:0|0:0,0:0:0:0:
284,264,33005,1,8,0:0:0:0:
284,264,33085,1,8,0:0:0:0:
297,72,33245,2,0,L|290:3,2,70.1250013375282,8|8|4,0:0|0:0|1:3,0:0:0:0:
176,180,33723,2,0,L|183:249,1,70.1250013375282,4|2,0:0|0:0,0:0:0:0:
359,327,34043,6,0,P|406:327|439:249,2,123.750004720688,4|2|10,0:0|1:2|0:0,0:0:0:0:
284,264,34840,1,0,1:0:0:0:
284,264,35000,2,0,L|291:195,1,61.875002360344,0|0,1:0|1:0,0:0:0:0:
83,103,35319,5,10,0:0:0:0:
172,113,35479,2,0,L|234:120,1,61.875002360344,8|0,0:0|1:0,0:0:0:0:
512,148,35798,1,0,1:0:0:0:
419,139,35957,2,0,L|358:133,1,61.875002360344,10|0,0:0|0:0,0:0:0:0:
194,215,36277,2,0,L|187:276,1,61.875002360344,0|8,1:0|0:0,0:0:0:0:
109,327,36596,6,0,P|72:317|46:242,2,123.750004720688,6|2|10,0:0|1:2|0:0,0:0:0:0:
171,120,37394,2,0,P|112:114|74:160,1,123.750004720688,2|2,1:2|0:0,0:0:0:0:
264,155,37872,5,14,0:0:0:0:
264,155,37952,1,8,0:0:0:0:
264,155,38032,2,0,L|294:151,2,30.937501180172,0|0|0,1:0|0:0|1:0,0:0:0:0:
191,214,38351,1,6,0:0:0:0:
191,214,38431,1,8,0:0:0:0:
191,214,38511,2,0,L|161:210,2,30.937501180172,2|0|0,1:2|0:0|1:0,0:0:0:0:
273,255,38830,2,0,L|269:285,3,30.937501180172,8|8|8|8,0:0|0:0|0:0|0:0,0:0:0:0:
353,204,39149,6,0,P|409:223|424:281,2,123.750004720688,4|2|10,0:0|1:2|0:0,0:0:0:0:
180,310,39947,2,0,L|187:371,1,61.875002360344,0|2,0:0|0:0,0:0:0:0:
95,276,40266,2,0,L|100:231,2,30.937501180172,0|0|2,1:0|1:0|1:2,0:0:0:0:
146,49,40585,2,0,L|160:171,1,123.750004720688,8|0,0:0|1:0,0:0:0:0:
234,230,41064,2,0,L|304:221,1,61.875002360344,8|0,0:0|0:0,0:0:0:0:
66,158,41383,2,0,L|58:96,1,61.875002360344,2|0,1:2|0:0,0:0:0:0:
232,14,41702,6,0,P|275:15|326:90,2,123.750004720688,6|2|10,1:2|1:2|0:0,0:0:0:0:
234,106,42500,2,0,B|251:161|222:172|237:232,1,123.750004720688,0|8,0:0|0:0,0:0:0:0:
391,347,42979,5,4,3:2:0:0:
391,347,43059,1,0,3:0:0:0:
391,347,43138,2,0,L|397:299,3,41.25,0|0|0|0,3:0|3:0|3:0|0:0,0:0:0:0:
324,233,43458,2,0,L|318:273,1,41.25,0|0,1:0|1:0,0:0:0:0:
237,320,43617,1,8,0:0:0:0:
208,324,43696,1,0,0:0:0:0:
180,316,43776,1,8,0:0:0:0:
158,298,43856,1,8,0:0:0:0:
145,272,43936,2,0,L|139:232,3,41.25,8|8|4|4,0:3|0:3|0:3|0:3,0:0:0:0:
78,151,44255,6,0,B|119:113|171:129|171:129|193:161|225:169,1,165,4|10,1:2|0:2,0:0:0:0:
319,34,44734,1,0,0:0:0:0:
319,34,44814,1,0,0:0:0:0:
319,34,44894,2,0,P|296:63|239:76,1,82.5,2|2,1:2|1:2,0:0:0:0:
172,35,45213,1,10,0:2:0:0:
314,156,45372,6,0,L|295:319,1,165,6|2,1:2|1:2,0:0:0:0:
428,359,45851,2,0,L|418:277,1,82.5,10|0,0:2|1:2,0:0:0:0:
211,207,46170,2,0,L|201:288,1,82.5,0|0,1:2|1:2,0:0:0:0:
407,185,46489,2,0,L|397:103,1,82.5,8|0,0:2|0:2,0:0:0:0:
128,344,46809,6,0,P|60:333|44:230,2,165,4|10|2,1:2|0:2|1:2,0:0:0:0:
200,288,47606,2,0,L|190:207,1,82.5,2|10,1:2|0:2,0:0:0:0:
256,63,47926,6,0,B|264:134|264:134|277:153|277:153|286:225,1,165,6|2,1:2|1:2,0:0:0:0:
178,115,48404,2,0,L|97:125,1,82.5,10|0,0:2|1:2,0:0:0:0:
351,90,48723,2,0,L|432:80,1,82.5,0|0,1:2|1:2,0:0:0:0:
178,115,49043,1,8,0:2:0:0:
465,309,49362,6,0,B|424:264|372:277|372:277|353:308|324:316,2,165,4|10|2,1:2|0:2|1:2,0:0:0:0:
285,222,50160,2,0,L|275:141,1,82.5,0|10,1:2|0:2,0:0:0:0:
226,300,50479,6,0,L|40:322,1,165,6|2,1:2|1:2,0:0:0:0:
193,208,50957,2,0,L|112:218,1,82.5,10|0,0:2|0:2,0:0:0:0:
101,127,51277,2,0,L|141:121,3,41.25,8|8|8|8,0:0|0:0|0:0|0:3,0:0:0:0:
227,58,51596,2,0,L|234:116,3,41.25,8|4|4|4,0:3|0:3|0:3|0:3,0:0:0:0:
288,180,51915,6,0,P|329:193|398:95,2,165,6|10|0,1:2|0:2|1:2,0:0:0:0:
135,17,52713,1,0,1:2:0:0:
135,17,52872,1,10,0:2:0:0:
133,309,53192,6,0,P|92:322|23:224,2,165,2|8|0,1:2|0:0|1:2,0:0:0:0:
193,208,53989,1,0,1:2:0:0:
193,208,54149,1,8,0:2:0:0:
447,357,54468,5,14,0:2:0:0:
256,192,54548,12,6,55745,0:0:0:0:
53,132,57021,6,0,B|131:146|137:93|213:106,2,165,6|10|2,1:2|0:2|1:2,0:0:0:0:
161,19,57819,1,0,1:2:0:0:
161,19,57979,2,0,L|80:9,1,82.5,8|0,0:2|0:2,0:0:0:0:
166,211,58298,6,0,L|352:187,1,165,2|8,1:2|0:0,0:0:0:0:
387,114,58777,2,0,L|381:73,2,41.25,0|0|2,1:2|1:2|1:2,0:0:0:0:
411,289,59096,1,0,1:2:0:0:
411,289,59255,2,0,L|421:207,1,82.5,10|0,0:2|0:2,0:0:0:0:
295,100,59575,6,0,B|181:113|181:113|166:88|139:78,2,165,6|8|2,1:2|0:0|1:2,0:0:0:0:
89,242,60372,1,0,1:2:0:0:
89,242,60532,2,0,P|98:198|99:160,1,82.5,10|0,0:2|0:2,0:0:0:0:
23,106,60851,6,0,P|2:204|0:290,1,165,2|8,1:2|0:2,0:0:0:0:
181,256,61330,1,0,1:2:0:0:
181,256,61410,1,0,1:2:0:0:
181,256,61489,2,0,P|190:212|191:174,1,82.5,0|0,1:2|1:2,0:0:0:0:
89,242,61809,2,0,P|90:283|99:323,1,82.5,10|0,0:2|0:2,0:0:0:0:
284,261,62128,6,0,P|278:178|260:98,2,165,6|10|2,1:2|0:2|1:2,0:0:0:0:
367,318,62926,1,0,1:2:0:0:
367,318,63085,2,0,P|376:274|377:236,1,82.5,8|0,0:2|0:2,0:0:0:0:
250,11,63404,6,0,P|198:10|172:113,1,165,2|8,1:2|0:2,0:0:0:0:
342,52,63883,1,0,1:2:0:0:
342,52,63963,1,0,1:2:0:0:
342,52,64043,2,0,L|424:42,1,82.5,2|0,1:2|1:2,0:0:0:0:
260,98,64362,2,0,L|270:180,1,82.5,10|0,0:2|0:2,0:0:0:0:
203,344,64681,6,0,B|212:261|212:261|194:248|187:228,1,123.75,6|0,0:2|0:0,0:0:0:0:
182,211,65000,1,10,0:2:0:0:
305,274,65160,2,0,L|296:339,2,41.25,0|0|2,1:2|1:2|1:2,0:0:0:0:
363,191,65479,1,0,1:2:0:0:
363,191,65638,2,0,L|445:181,1,82.5,10|0,0:2|0:0,0:0:0:0:
174,62,65957,6,0,L|92:52,1,82.5,6|0,3:2|3:0,0:0:0:0:
20,108,66197,1,0,3:0:0:0:
19,118,66277,2,0,L|11:179,2,41.25,0|0|0,1:0|0:0|3:0,0:0:0:0:
133,359,66596,2,0,L|115:213,1,123.75,2|0,1:2|1:0,0:0:0:0:
107,146,66915,2,0,L|148:152,3,41.25,8|0|4|8,0:0|1:0|1:3|1:3,0:0:0:0:
238,127,67234,6,0,B|346:140|346:140|362:166|390:180,2,165,6|10|2,1:2|0:2|1:2,0:0:0:0:
429,93,68032,1,0,1:2:0:0:
429,93,68192,2,0,L|419:12,1,82.5,10|0,0:2|1:2,0:0:0:0:
292,228,68511,6,0,L|302:309,1,82.5,2|0,1:2|1:2,0:0:0:0:
499,313,68830,2,0,L|483:190,1,123.75,8|0,0:2|1:2,0:0:0:0:
481,172,69149,1,2,1:2:0:0:
464,10,69309,1,0,1:2:0:0:
464,10,69468,1,10,0:2:0:0:
238,127,69787,6,0,P|176:121|144:59,1,123.75,6|0,1:2|0:0,0:0:0:0:
127,73,70106,2,0,P|126:23|148:-10,1,82.5,10|0,0:2|0:2,0:0:0:0:
339,21,70426,2,0,P|340:71|318:104,1,82.5,2|0,1:2|1:2,0:0:0:0:
208,305,70745,2,0,L|218:224,1,82.5,10|0,0:2|1:2,0:0:0:0:
305,191,71064,6,0,L|487:213,1,165,2|8,1:2|0:2,0:0:0:0:
139,173,71543,1,0,1:2:0:0:
139,173,71622,1,0,1:2:0:0:
139,173,71702,2,0,L|26:159,1,82.5,0|0,1:2|1:2,0:0:0:0:
240,43,72021,2,0,L|226:155,1,82.5,8|0,0:2|0:0,0:0:0:0:
92,381,72340,6,0,B|77:322|107:311|89:254,1,123.75,6|0,1:2|0:0,0:0:0:0:
186,255,72660,2,0,L|199:367,1,82.5,10|0,0:2|0:2,0:0:0:0:
268,212,72979,2,0,L|349:202,1,82.5,2|0,1:2|0:2,0:0:0:0:
145,80,73298,2,0,L|63:70,1,82.5,10|0,0:2|0:2,0:0:0:0:
375,293,73617,6,0,P|424:290|425:180,1,165,2|8,1:2|0:2,0:0:0:0:
339,120,74096,1,0,1:2:0:0:
339,120,74176,1,0,1:2:0:0:
339,120,74255,2,0,L|349:201,1,82.5,2|0,1:2|1:2,0:0:0:0:
427,97,74575,2,0,L|417:16,1,82.5,10|0,0:2|0:2,0:0:0:0:
281,274,74894,6,0,L|200:284,1,82.5,14|0,0:2|1:2,0:0:0:0:
146,211,75213,2,0,L|227:201,1,82.5,10|0,0:2|1:2,0:0:0:0:
111,293,75532,6,0,L|30:303,1,82.5,10|0,0:2|1:2,0:0:0:0:
314,190,75851,2,0,L|395:180,1,82.5,10|0,0:2|1:2,0:0:0:0:
108,131,76170,6,0,P|58:163|61:223,1,123.75,6|0,1:2|1:0,0:0:0:0:
205,338,76489,6,0,L|196:266,2,44,8|4|4,0:0|0:3|0:3,0:0:0:0:
227,200,76809,6,0,L|236:128,2,44,0|8|8,1:0|0:0|0:3,0:0:0:0:
180,81,77128,6,0,L|171:9,2,44,4|4|4,0:3|0:3|0:3,0:0:0:0:
263,56,77447,5,4,0:0:0:0:
420,289,78723,5,2,0:0:0:0:
139,308,80000,5,2,0:0:0:0:
341,171,81277,5,2,0:0:0:0:
279,297,81915,5,0,0:0:0:0:
200,180,82553,6,0,L|16:157,1,181.500005538941,2|2,0:0|0:0,0:0:0:0:
263,56,83830,6,0,L|446:33,1,181.500005538941,2|2,0:0|0:0,0:0:0:0:
167,72,84787,1,2,0:0:0:0:
419,320,85106,6,0,P|418:278|426:238,1,82.5,2|2,0:0|0:0,0:0:0:0:
341,171,85745,2,0,P|341:212|333:252,1,82.5,2|2,0:0|0:0,0:0:0:0:
421,125,86383,5,2,0:0:0:0:
421,125,86463,2,0,P|418:68|315:86,1,185.624994335175,0|0,0:0|0:2,0:0:0:0:
