osu file format v14

[General]
AudioFilename: audio.mp3
AudioLeadIn: 0
PreviewTime: 56953
Countdown: 0
SampleSet: Soft
StackLeniency: 0.7
Mode: 0
LetterboxInBreaks: 0
WidescreenStoryboard: 0

[Editor]
Bookmarks: 12412,22625,32837,43050,50710,53263,55816,66029
DistanceSpacing: 1
BeatDivisor: 4
GridSize: 32
TimelineZoom: 2.4

[Metadata]
Title:Kessen Spirit (TV Size)
TitleUnicode:決戦スピリット (TV Size)
Artist:CHiCO with HoneyWorks
ArtistUnicode:CHiCO with HoneyWorks
Creator:Haruto
Version:Extreme
Source:ハイキュー!! TO THE TOP
Tags:japanese jpop anime haikyuu season 4 fourth ending shito gom haniwa haruto_aizawa sotarks ipas kalibe tomadoi agatsu hypercyte seolv 10nya stixy a_r_m_i_n armin serizawa haruki newipas [_l_u_k_a_s_] -_t_e_n_n_y_a_- shiinoha kotone tricolor hypercute lukas jack j_a_c_k
BeatmapID:2283333
BeatmapSetID:1092298

[Difficulty]
HPDrainRate:6
CircleSize:3.9
OverallDifficulty:9
ApproachRate:9.3
SliderMultiplier:1.65
SliderTickRate:1

[Events]
//Background and Video events
Video,0,"haikyuu ed.mp4"
0,0,"57509816_p0.jpg",0,0
//Break Periods
//Storyboard Layer 0 (Background)
//Storyboard Layer 1 (Fail)
//Storyboard Layer 2 (Pass)
//Storyboard Layer 3 (Foreground)
//Storyboard Layer 4 (Overlay)
//Storyboard Sound Samples

[TimingPoints]
2140,279.06976744186,4,2,1,50,1,0
2279,319.148936170213,4,2,1,50,1,0
2598,290.556900726392,4,2,1,50,1,0
2888,368.098159509202,4,2,1,60,1,0
3072,329.67032967033,4,2,1,60,1,0
3401,319.148936170213,4,2,1,70,1,0
3401,-95.2380952380952,4,2,1,70,0,0
8188,334.261838440111,4,2,1,70,1,0
8522,317.040951122854,4,2,1,70,1,0
8522,-95.2380952380952,4,2,1,70,0,0
9790,319.148936170213,4,2,1,70,1,0
9790,-95.2380952380952,4,2,1,70,0,0
11066,312.5,4,2,1,70,1,0
11066,-95.2380952380952,4,2,1,70,0,0
11534,-133.333333333333,4,2,1,70,0,0
12003,323.450134770889,4,2,1,70,1,0
12326,318.302387267905,4,2,1,70,1,0
12326,-79.9999999999999,4,2,1,70,0,0
13599,332.409972299169,4,2,1,55,1,0
13599,-117.647058823529,4,2,1,55,0,0
14097,319.148936170213,4,2,1,55,1,0
14256,-133.333333333333,4,2,1,55,0,0
14894,319.148936170213,4,2,1,55,1,0
15213,-105.263157894737,4,2,1,55,0,0
15532,-133.333333333334,4,2,1,55,0,0
16489,-105.263157894737,4,2,1,55,0,0
16809,-133.333333333333,4,2,1,55,0,0
17766,-105.263157894737,4,2,1,55,0,0
18085,-86.9565217391302,4,2,1,55,0,0
18404,-95.2380952380952,4,2,1,55,0,0
18723,-133.333333333333,4,2,1,55,0,0
19681,-105.263157894737,4,2,1,55,0,0
20000,-133.333333333333,4,2,1,55,0,0
20319,-117.647058823529,4,2,1,55,0,0
20638,-133.333333333333,4,2,1,55,0,0
21277,-117.647058823529,4,2,1,55,0,0
21915,-133.333333333333,4,2,1,55,0,0
22234,-105.263157894737,4,2,1,55,0,0
22553,-133.333333333333,4,2,1,55,0,0
23830,-111.111111111111,4,2,1,70,0,0
24787,-90.9090909090909,4,2,1,70,0,0
25106,-111.111111111111,4,2,1,70,0,0
25426,-90.9090909090908,4,2,1,70,0,0
25745,-111.111111111111,4,2,1,70,0,0
26383,-100,4,2,1,70,0,0
26702,-111.111111111111,4,2,1,70,0,0
27660,-90.9090909090909,4,2,1,70,0,0
27979,-111.111111111111,4,2,1,70,0,0
28936,-111.111111111111,4,2,1,70,0,0
29255,-111.111111111111,4,2,1,70,0,0
30213,-90.9090909090909,4,2,1,70,0,0
30372,-83.3333333333333,4,2,1,70,0,0
30532,-76.9230769230769,4,2,1,70,0,0
30692,-71.4285714285714,4,2,1,70,0,0
31170,-111.111111111111,4,2,1,70,0,0
31489,-90.9090909090909,4,2,1,70,0,0
31809,-111.111111111111,4,2,1,70,0,0
32606,-90.9090909090909,4,2,1,70,0,0
32926,-83.3333333333333,4,2,1,70,0,0
33085,-76.9230769230769,4,2,1,70,0,0
33245,-71.4285714285714,4,2,1,70,0,0
33723,-100,4,2,1,70,0,0
34043,-117.647058823529,4,2,1,60,0,0
34362,-133.333333333333,4,2,1,60,0,0
35319,-133.333333333333,4,2,1,60,0,0
36277,-100,4,2,1,60,0,0
36596,-83.3333333333333,4,2,1,60,0,0
36915,-133.333333333333,4,2,1,60,0,0
37872,-90.9090909090909,4,2,1,60,0,0
38830,-71.4285714285714,4,2,1,60,0,0
39149,-133.333333333333,4,2,1,60,0,0
39468,-133.333333333333,4,2,1,60,0,0
40426,-133.333333333333,4,2,1,60,0,0
41223,-80,4,2,1,60,0,0
41702,-95.2380952380952,4,2,1,60,0,0
42021,-133.333333333333,4,2,1,60,0,0
42979,-95.2380952380952,4,2,1,70,0,0
44255,-100,4,2,1,70,0,0
44575,-100,4,2,1,70,0,0
46489,-80,4,2,1,70,0,0
46809,-83.3333333333333,4,2,1,70,0,0
47128,-100,4,2,1,70,0,0
48883,-80,4,2,1,70,0,0
49362,-100,4,2,1,70,0,0
50319,-100,4,2,1,70,0,0
51277,-76.9230769230769,4,2,1,70,0,0
51915,-100,4,2,1,70,0,0
55745,-212.765957446809,4,2,1,70,0,0
57021,-100,4,2,1,70,0,1
58298,-100,4,2,1,70,0,1
59255,-95.2380952380952,4,2,1,70,0,1
59575,-100,4,2,1,70,0,1
60851,-100,4,2,1,70,0,1
61170,-100,4,2,1,70,0,1
63404,-83.3333333333333,4,2,1,70,0,1
63723,-100,4,2,1,70,0,1
64362,-83.3333333333333,4,2,1,70,0,1
64681,-100,4,2,1,70,0,1
65000,-100,4,2,1,70,0,1
66277,-125,4,2,1,70,0,1
66835,-83.3333333333333,4,2,1,70,0,1
67234,-76.9230769230769,4,2,1,70,0,1
67553,-100,4,2,1,70,0,1
69787,-83.3333333333333,4,2,1,70,0,1
70106,-100,4,2,1,70,0,1
72340,-83.3333333333333,4,2,1,70,0,1
72660,-100,4,2,1,70,0,1
76809,-83.3333333333333,4,2,1,70,0,1
77447,-142.857142857143,4,2,1,40,0,0
78404,-111.111111111111,4,2,1,40,0,0
78723,-166.666666666666,4,2,1,40,0,0
79202,-153.846153846153,4,2,1,40,0,0
80000,-181.818181818181,4,2,1,40,0,0
81277,-117.647058823529,4,2,1,40,0,0
81915,-153.846153846153,4,2,1,40,0,0
82553,-133.333333333333,4,2,1,40,0,0
82793,-133.333333333333,4,2,1,40,0,0
82872,-117.647058823529,4,2,1,40,0,0
83192,-133.333333333333,4,2,1,40,0,0
83830,-153.846153846153,4,2,1,40,0,0
86383,-500,4,2,1,40,0,0
86543,-500,4,2,1,20,0,0

[Colours]
Combo1 : 53,154,255
Combo2 : 255,128,64
Combo3 : 149,215,234
Combo4 : 144,144,144

[HitObjects]
168,152,2140,5,4,1:2:0:0:
43,184,2279,6,0,L|110:168,1,41.25,8|8,0:0|0:0,0:0:0:0:
202,27,2438,2,0,L|182:93,1,41.25,8|8,0:0|0:0,0:0:0:0:
259,243,2598,2,0,L|211:192,1,41.25,0|0,1:0|1:0,0:0:0:0:
101,85,2743,5,8,0:0:0:0:
143,242,2888,1,0,1:0:0:0:
138,262,2980,1,0,1:0:0:0:
128,297,3072,1,12,0:0:0:0:
260,126,3401,6,0,L|350:137,1,86.6249973564149,6|0,1:2|1:2,0:0:0:0:
383,368,3720,1,10,0:2:0:0:
416,199,3879,6,0,B|407:273|407:273|394:292|394:292|384:369,1,173.24999471283,2|0,0:2|1:2,0:0:0:0:
500,244,4358,2,0,P|504:197|498:150,1,86.6249973564149,10|0,0:2|0:2,0:0:0:0:
324,225,4677,5,2,1:2:0:0:
480,338,4837,1,0,1:2:0:0:
431,87,4996,1,10,0:2:0:0:
239,255,5156,1,2,1:2:0:0:
239,255,5236,6,0,B|182:243|173:283|114:275,1,129.937496034622,8|0,0:2|1:2,0:0:0:0:
258,164,5635,1,10,0:2:0:0:
179,122,5794,1,0,0:2:0:0:
323,311,5954,6,0,P|318:267|323:224,1,86.6249973564149,2|0,1:2|1:2,0:0:0:0:
439,10,6272,1,10,0:2:0:0:
258,78,6432,6,0,B|296:41|357:57|357:57|380:90|409:98,1,173.24999471283,2|0,0:2|1:2,0:0:0:0:
182,210,6911,2,0,L|96:220,1,86.6249973564149,10|0,0:2|0:2,0:0:0:0:
403,264,7230,5,2,1:2:0:0:
488,274,7389,1,2,1:2:0:0:
332,82,7548,5,14,0:2:0:0:
344,330,7708,1,0,1:2:0:0:
481,120,7868,1,2,1:2:0:0:
246,211,8028,1,2,1:2:0:0:
488,274,8188,1,14,0:2:0:0:
367,187,8355,5,0,0:2:0:0:
136,342,8522,6,0,L|147:252,1,86.6249973564149,6|0,1:2|1:2,0:0:0:0:
187,30,8839,1,10,0:2:0:0:
236,287,8997,6,0,B|227:216|227:216|207:190|207:190|197:121,1,173.24999471283,2|0,0:2|1:2,0:0:0:0:
114,90,9473,2,0,P|67:94|20:88,1,86.6249973564149,10|0,0:2|0:2,0:0:0:0:
271,61,9790,5,2,1:2:0:0:
236,287,9949,1,0,1:2:0:0:
114,90,10109,1,10,0:2:0:0:
330,183,10268,5,2,1:2:0:0:
330,183,10348,2,0,P|387:195|451:147,1,129.937496034622,8|0,0:2|1:2,0:0:0:0:
375,19,10747,2,0,B|362:60|362:60|370:104,1,86.6249973564149,10|0,0:2|0:2,0:0:0:0:
242,317,11066,6,0,B|255:276|255:276|247:232,1,86.6249973564149,6|0,1:2|1:2,0:0:0:0:
219,150,11378,1,10,0:2:0:0:
367,347,11534,1,2,1:2:0:0:
157,224,11691,1,8,0:2:0:0:
369,103,11847,1,0,1:2:0:0:
142,234,12003,1,8,0:2:0:0:
456,64,12164,5,0,1:2:0:0:
456,64,12245,1,0,1:0:0:0:
456,64,12326,2,0,L|462:115,1,51.5625,0|8,1:0|0:0,0:0:0:0:
305,237,12485,2,0,L|311:185,1,51.5625,8|8,0:0|0:0,0:0:0:0:
453,311,12644,2,0,L|459:362,1,51.5625,0|0,1:0|0:0,0:0:0:0:
131,135,12803,5,8,0:0:0:0:
92,119,12883,1,8,0:0:0:0:
68,83,12962,1,8,0:2:0:0:
305,237,13121,1,8,0:0:0:0:
237,7,13280,5,8,0:0:0:0:
232,42,13360,1,8,0:0:0:0:
228,78,13440,1,8,0:0:0:0:
223,114,13519,1,8,0:0:0:0:
219,150,13599,6,0,B|284:160|289:115|356:127,1,140.250002675056,6|10,1:2|0:2,0:0:0:0:
430,72,14097,1,2,1:2:0:0:
430,72,14176,1,0,1:0:0:0:
430,72,14256,2,0,L|419:-18,1,61.875002360344,0|2,1:2|1:2,0:0:0:0:
333,215,14575,2,0,L|340:276,1,61.875002360344,8|2,0:2|0:2,0:0:0:0:
420,191,14894,5,0,1:2:0:0:
507,167,15053,1,0,1:2:0:0:
282,348,15213,6,0,P|241:352|181:288,1,117.562496860743,8|8,0:2|1:2,0:0:0:0:
182,291,15532,2,0,L|120:298,1,61.875002360344,2|0,1:2|1:2,0:0:0:0:
79,202,15851,2,0,L|140:209,1,61.875002360344,10|0,0:2|0:2,0:0:0:0:
24,284,16170,5,2,1:2:0:0:
0,371,16330,1,0,1:2:0:0:
210,146,16489,6,0,L|195:29,1,117.562496860743,10|8,0:2|1:2,0:0:0:0:
194,14,16809,2,0,L|255:6,1,61.875002360344,0|2,1:2|1:2,0:0:0:0:
116,96,17128,2,0,L|54:88,1,61.875002360344,8|2,0:2|0:2,0:0:0:0:
256,231,17447,5,0,1:2:0:0:
343,207,17607,1,0,1:2:0:0:
202,327,17766,6,0,B|148:317|141:355|85:347,1,117.562496860743,8|8,0:2|1:2,0:0:0:0:
12,293,18085,2,0,L|18:239,2,47.4375009047985,0|0|0,1:2|1:2|1:2,0:0:0:0:
87,126,18404,2,0,L|105:292,1,129.937496034622,8|0,0:2|1:2,0:0:0:0:
184,213,18723,6,0,P|181:182|175:148,1,61.875002360344,6|0,1:2|1:2,0:0:0:0:
12,293,19042,1,8,0:2:0:0:
155,66,19202,5,2,1:2:0:0:
155,66,19282,1,0,1:0:0:0:
155,66,19362,2,0,L|238:56,1,61.875002360344,0|2,1:2|1:2,0:0:0:0:
328,218,19681,2,0,B|348:270|319:284|335:339,1,117.562496860743,8|0,0:2|0:0,0:0:0:0:
418,296,20000,6,0,P|423:265|426:234,1,61.875002360344,2|0,1:2|1:2,0:0:0:0:
280,140,20319,2,0,L|147:154,1,105.187502006292,8|8,0:2|0:2,0:0:0:0:
362,71,20638,6,0,P|367:101|370:132,1,61.875002360344,2|0,1:2|1:2,0:0:0:0:
244,368,20957,2,0,P|238:337|235:306,1,61.875002360344,10|0,0:2|1:2,0:0:0:0:
171,245,21277,2,0,P|124:245|79:320,1,140.250002675056,2|8,1:2|0:2,0:0:0:0:
327,315,21755,1,2,1:2:0:0:
327,315,21835,1,0,1:2:0:0:
327,315,21915,6,0,L|396:307,1,61.875002360344,0|2,1:2|1:2,0:0:0:0:
273,102,22234,2,0,L|257:240,1,117.562496860743,8|8,0:2|0:2,0:0:0:0:
183,155,22553,6,0,L|175:85,1,61.875002360344,2|0,1:2|1:2,0:0:0:0:
350,206,22872,2,0,L|357:136,1,61.875002360344,8|0,0:2|0:0,0:0:0:0:
157,363,23191,1,0,1:2:0:0:
445,189,23351,5,8,0:2:0:0:
91,120,23510,1,4,0:3:0:0:
354,55,23670,5,8,1:2:0:0:
354,55,23750,1,8,1:2:0:0:
354,55,23830,2,0,B|413:48|413:48|440:29|440:29|501:22,1,148.49999546814,6|8,1:2|0:0,0:0:0:0:
267,165,24309,2,0,L|170:176,1,74.2499977340699,2|0,0:0|1:0,0:0:0:0:
463,365,24628,1,2,1:2:0:0:
453,275,24787,2,0,L|463:364,1,90.7500027694703,8|2,0:0|3:2,0:0:0:0:
344,258,25026,5,0,1:0:0:0:
346,245,25106,2,0,L|352:185,1,37.1249988670349,0|0,1:0|1:0,0:0:0:0:
332,348,25266,2,0,L|325:407,1,37.1249988670349,0|0,1:0|1:0,0:0:0:0:
259,292,25426,6,0,B|194:280|189:324|125:314,1,136.125004154205,8|0,0:0|0:0,0:0:0:0:
124,200,25745,2,0,P|161:206|197:209,1,74.2499977340699,2|0,1:2|1:0,0:0:0:0:
29,336,26064,2,0,P|35:299|38:263,1,74.2499977340699,10|0,0:0|0:0,0:0:0:0:
184,34,26383,6,0,P|176:81|172:126,1,82.5,2|0,1:2|1:0,0:0:0:0:
429,215,26702,2,0,P|413:169|320:160,1,148.49999546814,8|0,0:0|1:0,0:0:0:0:
346,245,27181,1,2,1:2:0:0:
346,245,27340,2,0,L|355:323,1,74.2499977340699,8|2,0:0|1:2,0:0:0:0:
241,364,27580,1,0,1:0:0:0:
243,353,27660,2,0,L|262:183,1,136.125004154205,0|0,1:2|0:0,0:0:0:0:
166,234,27979,6,0,P|158:273|157:310,1,74.2499977340699,8|0,0:0|0:0,0:0:0:0:
323,157,28298,2,0,P|321:119|313:83,1,74.2499977340699,0|0,1:0|1:0,0:0:0:0:
240,24,28617,1,8,0:0:0:0:
346,245,28776,1,2,3:0:0:0:
451,142,28936,6,0,B|414:106|364:123|364:123|344:152|318:159,1,148.49999546814,2|8,1:2|0:0,0:0:0:0:
437,231,29415,1,2,1:2:0:0:
437,231,29495,1,0,1:0:0:0:
437,231,29574,2,0,L|446:309,1,74.2499977340699,0|2,1:0|1:2,0:0:0:0:
283,78,29893,2,0,L|291:4,1,74.2499977340699,8|2,0:0|0:2,0:0:0:0:
166,234,30213,5,0,1:0:0:0:
322,156,30372,1,0,1:0:0:0:
205,117,30532,1,8,0:0:0:0:
244,195,30691,1,0,0:0:0:0:
283,78,30851,1,2,1:2:0:0:
283,78,31010,1,0,1:0:0:0:
239,281,31170,6,0,L|230:354,1,74.2499977340699,10|0,0:0|0:0,0:0:0:0:
67,285,31489,2,0,P|105:231|171:229,1,136.125004154205,6|0,1:2|0:0,0:0:0:0:
321,329,31808,5,10,0:0:0:0:
321,329,31968,2,0,L|394:320,1,74.2499977340699,2|0,0:0|1:0,0:0:0:0:
170,228,32287,2,0,L|96:219,1,74.2499977340699,2|8,1:2|0:0,0:0:0:0:
410,3,32606,5,10,0:0:0:0:
383,13,32686,1,8,0:0:0:0:
366,35,32766,2,0,L|375:94,1,45.3750013847352,0|0,1:0|0:0,0:0:0:0:
395,213,32926,2,0,L|387:162,1,49.4999984893799,8|8,0:0|0:0,0:0:0:0:
259,149,33085,6,0,L|249:212,1,53.6249975452424,8|0,0:0|0:0,0:0:0:0:
227,339,33245,2,0,L|236:273,1,57.7499982376099,8|8,0:0|0:0,0:0:0:0:
274,62,33404,5,8,0:0:0:0:
297,378,33564,1,4,1:3:0:0:
470,114,33723,1,4,0:0:0:0:
171,229,33883,1,2,0:0:0:0:
485,310,34043,2,0,B|443:314|443:314|423:328|423:328|380:333,1,105.187502006292,4|0,0:0|0:0,0:0:0:0:
305,287,34362,6,0,L|314:213,1,61.875002360344,2|0,1:2|0:0,0:0:0:0:
154,78,34681,2,0,L|161:139,2,61.875002360344,10|0|0,0:0|1:0|1:0,0:0:0:0:
171,229,35159,1,0,1:0:0:0:
31,207,35319,6,0,P|73:201|102:188,1,61.875002360344,10|8,0:0|0:0,0:0:0:0:
185,321,35638,2,0,P|143:315|114:302,1,61.875002360344,0|0,1:0|1:0,0:0:0:0:
240,99,35957,2,0,L|350:85,1,92.812503540516,10|0,0:0|0:0,0:0:0:0:
407,33,36277,6,0,P|417:62|420:114,1,82.5,0|8,1:0|0:0,0:0:0:0:
320,318,36596,2,0,B|328:258|328:258|345:236|345:236|353:174,1,148.49999546814,6|0,0:0|0:0,0:0:0:0:
437,208,36915,6,0,L|447:292,1,61.875002360344,2|0,1:2|0:0,0:0:0:0:
238,259,37234,2,0,L|245:197,1,61.875002360344,10|0,0:0|0:0,0:0:0:0:
413,365,37553,1,2,0:0:0:0:
153,216,37713,1,0,0:0:0:0:
420,113,37872,5,14,0:0:0:0:
420,113,37952,1,8,0:0:0:0:
420,113,38032,2,0,L|481:105,1,45.3750013847352,0|0,1:0|0:0,0:0:0:0:
328,131,38191,1,0,1:0:0:0:
450,19,38350,5,6,0:0:0:0:
450,19,38430,1,8,0:0:0:0:
450,19,38511,2,0,L|388:26,1,45.3750013847352,2|0,1:2|0:0,0:0:0:0:
313,43,38670,1,0,1:0:0:0:
382,257,38830,6,0,P|384:229|390:196,1,57.7499982376099,8|8,0:0|0:0,0:0:0:0:
236,101,38989,2,0,P|241:129|243:158,1,57.7499982376099,8|8,0:0|0:0,0:0:0:0:
188,231,39149,6,0,L|60:247,1,123.750004720688,4|2,0:0|1:2,0:0:0:0:
236,101,39628,1,0,0:0:0:0:
144,82,39787,2,0,P|145:112|151:143,1,61.875002360344,10|0,0:0|0:0,0:0:0:0:
16,30,40106,2,0,P|46:28|77:22,1,61.875002360344,2|0,0:0|1:0,0:0:0:0:
61,114,40346,5,0,1:0:0:0:
59,129,40425,1,2,1:2:0:0:
40,275,40585,2,0,L|48:214,1,61.875002360344,8|2,0:0|1:2,0:0:0:0:
227,8,40904,5,0,1:0:0:0:
236,101,41064,2,0,L|243:162,1,61.875002360344,8|0,0:0|0:0,0:0:0:0:
313,42,41383,1,2,1:2:0:0:
59,129,41542,1,0,0:0:0:0:
356,227,41702,6,0,B|302:233|302:233|283:249|283:249|229:256,1,129.937496034622,6|0,1:2|0:0,0:0:0:0:
176,322,42021,6,0,P|186:351|189:403,1,61.875002360344,2|0,1:2|0:0,0:0:0:0:
435,277,42340,2,0,P|445:248|448:196,1,61.875002360344,10|0,0:0|0:0,0:0:0:0:
243,162,42659,1,2,0:1:0:0:
348,326,42819,1,8,0:0:0:0:
410,63,42979,5,4,3:2:0:0:
408,79,43058,1,0,3:0:0:0:
406,95,43138,2,0,L|399:156,1,43.3124986782074,0|0,3:0|3:0,0:0:0:0:
238,299,43298,2,0,L|233:255,1,43.3124986782074,0|0,3:0|0:0,0:0:0:0:
26,37,43458,6,0,L|69:41,1,43.3124986782074,0|0,1:0|1:0,0:0:0:0:
243,162,43617,2,0,L|199:157,1,43.3124986782074,8|0,0:0|0:0,0:0:0:0:
120,211,43776,5,8,0:0:0:0:
109,182,43856,1,8,0:0:0:0:
108,151,43935,1,8,0:3:0:0:
115,121,44015,1,8,0:3:0:0:
131,95,44095,1,4,0:3:0:0:
153,73,44175,1,4,0:3:0:0:
181,60,44255,6,0,B|244:51|244:51|268:31|268:31|337:23,2,165,4|10|2,1:2|0:2|1:2,0:0:0:0:
388,169,45053,1,2,1:2:0:0:
388,169,45213,1,10,0:2:0:0:
232,89,45372,6,0,P|261:99|313:102,1,82.5,6|0,1:2|0:0,0:0:0:0:
410,75,45691,1,2,1:2:0:0:
223,302,45851,2,0,P|221:260|209:221,1,82.5,10|0,0:2|1:2,0:0:0:0:
135,174,46090,1,0,1:2:0:0:
122,176,46170,2,0,L|34:186,1,82.5,0|0,1:2|1:2,0:0:0:0:
367,263,46489,1,8,0:2:0:0:
236,45,46649,1,0,0:2:0:0:
64,367,46809,6,0,B|101:335|147:349|147:349|165:376|193:384,1,148.49999546814,4|0,1:2|0:0,0:0:0:0:
223,302,47128,2,0,B|216:262|216:262|228:211,1,82.5,10|2,0:2|0:2,0:0:0:0:
136,145,47447,2,0,B|143:185|143:185|131:236,1,82.5,2|2,1:2|1:2,0:0:0:0:
64,367,47766,1,10,0:2:0:0:
50,128,47925,6,0,P|142:120|171:58,1,165,6|2,1:2|1:2,0:0:0:0:
19,0,48404,2,0,L|101:9,1,82.5,10|0,0:2|1:2,0:0:0:0:
224,137,48643,1,0,1:2:0:0:
239,135,48723,2,0,L|327:125,1,82.5,0|0,1:2|1:2,0:0:0:0:
120,378,49043,2,0,B|145:311|111:293|133:224,1,154.6875,8|0,0:2|0:0,0:0:0:0:
223,229,49362,6,0,P|268:246|283:353,1,165,4|10,1:2|0:2,0:0:0:0:
371,237,49840,1,0,0:2:0:0:
196,316,50000,2,0,P|154:310|108:306,1,82.5,2|0,1:2|1:2,0:0:0:0:
204,65,50319,1,10,0:2:0:0:
223,229,50479,6,0,L|201:38,1,165,6|2,1:2|1:2,0:0:0:0:
385,330,50957,1,10,0:2:0:0:
440,178,51117,1,0,0:2:0:0:
196,316,51276,5,8,0:0:0:0:
151,314,51357,1,8,0:0:0:0:
114,289,51436,2,0,P|98:264|92:238,1,53.6249975452424,8|8,0:0|0:3,0:0:0:0:
301,113,51596,2,0,P|317:138|323:164,1,53.6249975452424,8|4,0:3|0:3,0:0:0:0:
121,98,51755,2,0,P|146:81|172:75,1,53.6249975452424,4|4,0:3|0:3,0:0:0:0:
456,268,51915,5,6,1:2:0:0:
371,237,52074,1,0,1:2:0:0:
475,363,52234,1,10,0:2:0:0:
440,178,52393,5,0,1:2:0:0:
440,178,52473,1,0,1:2:0:0:
440,178,52553,1,0,1:2:0:0:
297,299,52713,1,0,1:2:0:0:
414,6,52872,2,0,L|424:98,1,82.5,10|0,0:2|1:2,0:0:0:0:
209,315,53191,6,0,L|116:325,1,82.5,2|0,1:2|1:2,0:0:0:0:
282,204,53510,1,10,0:2:0:0:
359,373,53670,1,0,1:2:0:0:
359,373,53750,1,0,1:2:0:0:
359,373,53830,1,0,1:2:0:0:
193,222,53989,1,0,1:2:0:0:
350,140,54149,1,8,0:2:0:0:
96,95,54308,1,0,1:2:0:0:
267,384,54468,5,14,0:2:0:0:
342,50,54628,1,0,1:2:0:0:
209,315,54787,1,14,0:2:0:0:
142,19,54947,1,0,1:2:0:0:
456,268,55106,1,12,0:2:0:0:
14,129,55266,1,0,1:2:0:0:
422,88,55426,1,14,0:2:0:0:
100,238,55585,1,0,0:0:0:0:
196,89,55745,6,0,B|160:201|245:214|208:314,1,232.649996450043,6|0,0:0|0:0,0:0:0:0:
512,336,57021,6,0,P|458:276|368:303,1,165,6|10,1:2|0:2,0:0:0:0:
431,373,57500,1,0,1:2:0:0:
431,373,57580,1,0,1:0:0:0:
431,373,57659,1,2,1:2:0:0:
293,255,57819,1,0,1:2:0:0:
293,255,57979,2,0,L|302:336,1,82.5,8|0,0:2|0:2,0:0:0:0:
512,150,58298,6,0,B|440:158|440:158|422:171|422:171|352:180,1,165,2|8,1:2|0:2,0:0:0:0:
219,206,58776,1,0,1:2:0:0:
219,206,58856,1,0,1:2:0:0:
219,206,58936,1,2,1:2:0:0:
264,50,59096,1,0,1:2:0:0:
264,50,59255,2,0,L|275:136,1,86.6249973564149,10|0,0:2|0:2,0:0:0:0:
32,312,59574,5,6,1:2:0:0:
120,303,59733,1,0,1:2:0:0:
120,303,59814,1,0,1:2:0:0:
120,303,59893,1,10,0:2:0:0:
42,159,60053,5,0,1:2:0:0:
179,369,60213,1,2,1:2:0:0:
191,121,60372,1,0,1:2:0:0:
32,312,60532,1,10,0:2:0:0:
277,250,60691,1,0,0:2:0:0:
19,78,60851,6,0,L|101:69,1,82.5,2|0,1:2|1:2,0:0:0:0:
360,125,61170,2,0,L|278:134,1,82.5,8|0,0:2|1:2,0:0:0:0:
134,196,61409,1,0,1:2:0:0:
131,206,61489,2,0,P|123:244|121:296,1,82.5,0|0,1:2|1:2,0:0:0:0:
233,340,61808,2,0,P|230:298|222:258,1,82.5,10|0,0:2|0:2,0:0:0:0:
331,33,62128,6,0,P|387:25|447:105,1,165,6|10,1:2|0:2,0:0:0:0:
287,274,62606,1,0,1:2:0:0:
287,274,62686,1,0,1:2:0:0:
287,274,62766,1,2,1:2:0:0:
362,119,62925,1,0,1:2:0:0:
362,120,63085,2,0,L|353:202,1,82.5,8|0,0:2|0:2,0:0:0:0:
428,307,63404,6,0,B|367:299|367:299|345:282|345:282|286:273,1,148.49999546814,2|0,1:2|0:0,0:0:0:0:
300,363,63723,2,0,L|218:372,1,82.5,8|0,0:2|1:2,0:0:0:0:
199,374,63963,1,0,1:2:0:0:
181,376,64042,1,2,1:2:0:0:
441,217,64202,1,0,1:2:0:0:
501,377,64362,1,10,0:2:0:0:
265,183,64521,1,0,0:2:0:0:
412,24,64681,6,0,P|372:30|330:33,1,82.5,6|0,0:2|1:2,0:0:0:0:
341,126,65000,2,0,P|381:120|423:117,1,82.5,10|0,0:2|1:2,0:0:0:0:
492,67,65239,5,0,1:2:0:0:
493,58,65319,1,2,1:2:0:0:
253,89,65479,1,0,1:2:0:0:
409,303,65638,1,10,0:2:0:0:
373,29,65798,1,0,0:0:0:0:
154,198,65957,5,6,3:2:0:0:
113,201,66038,1,0,0:0:0:0:
75,186,66116,1,0,3:0:0:0:
47,156,66196,1,0,3:0:0:0:
35,117,66277,6,0,P|41:77|44:35,1,66,0|0,1:0|3:0,0:0:0:0:
137,39,66596,2,0,P|131:79|128:121,1,66,2|0,1:2|1:0,0:0:0:0:
241,249,66835,5,0,1:0:0:0:
243,235,66915,2,0,P|248:202|251:169,1,49.4999984893799,8|0,0:0|1:0,0:0:0:0:
328,136,67075,2,0,P|360:141|393:144,1,49.4999984893799,4|8,1:3|1:3,0:0:0:0:
177,317,67234,6,0,B|101:303|95:354|21:342,1,160.874992635727,6|0,1:2|0:0,0:0:0:0:
129,233,67553,2,0,P|104:201|67:185,1,82.5,10|0,0:2|0:2,0:0:0:0:
267,343,67872,2,0,P|310:322|331:289,1,82.5,2|0,1:2|1:2,0:0:0:0:
262,6,68191,2,0,L|253:88,1,82.5,10|0,0:2|1:2,0:0:0:0:
343,50,68431,5,0,1:0:0:0:
345,36,68510,1,2,1:2:0:0:
164,80,68670,1,0,1:2:0:0:
409,163,68830,2,0,P|367:156|323:150,1,82.5,8|0,0:2|1:2,0:0:0:0:
242,184,69069,1,0,1:2:0:0:
240,196,69149,2,0,L|227:277,1,82.5,2|0,1:2|1:2,0:0:0:0:
152,353,69468,2,0,L|139:271,1,82.5,10|0,0:2|0:2,0:0:0:0:
105,0,69787,5,6,1:2:0:0:
242,184,69947,1,0,1:2:0:0:
8,209,70106,1,10,0:2:0:0:
232,7,70266,1,0,0:2:0:0:
139,271,70425,1,2,1:2:0:0:
0,42,70585,1,0,1:2:0:0:
329,140,70745,1,10,0:2:0:0:
128,134,70904,1,0,1:2:0:0:
343,50,71064,6,0,L|425:59,1,82.5,2|0,1:2|1:2,0:0:0:0:
242,184,71383,1,8,0:2:0:0:
423,168,71542,5,0,1:2:0:0:
423,168,71622,1,0,1:2:0:0:
423,168,71702,2,0,P|417:208|414:249,1,82.5,0|0,1:2|1:2,0:0:0:0:
334,319,72021,2,0,P|330:277|325:237,1,82.5,8|0,0:2|0:0,0:0:0:0:
246,90,72340,6,0,B|185:82|185:82|166:70|166:70|101:62,1,148.49999546814,6|0,1:2|0:0,0:0:0:0:
51,162,72660,2,0,L|133:153,1,82.5,10|0,0:2|0:2,0:0:0:0:
305,9,72979,2,0,L|223:0,1,82.5,2|0,1:2|0:2,0:0:0:0:
329,140,73298,2,0,L|411:149,1,82.5,10|0,0:2|0:2,0:0:0:0:
244,345,73617,6,0,B|269:276|220:256|242:182,1,165,2|8,1:2|0:2,0:0:0:0:
333,240,74096,1,0,1:2:0:0:
333,240,74175,1,0,1:2:0:0:
333,240,74255,1,2,1:2:0:0:
155,311,74415,1,0,1:2:0:0:
329,140,74574,1,10,0:2:0:0:
390,376,74734,1,0,0:2:0:0:
133,152,74894,5,14,0:2:0:0:
413,191,75053,1,0,1:2:0:0:
89,240,75213,1,10,0:2:0:0:
414,90,75372,1,0,1:2:0:0:
80,77,75532,1,10,0:2:0:0:
498,139,75692,1,0,1:2:0:0:
38,160,75851,1,14,0:2:0:0:
497,40,76011,1,0,0:2:0:0:
244,344,76170,6,0,L|253:262,1,82.5,6|0,1:2|1:0,0:0:0:0:
197,194,76410,1,0,1:0:0:0:
184,190,76489,6,0,P|153:176|132:151,2,55,8|4|4,0:0|0:3|0:3,0:0:0:0:
270,143,76809,6,0,P|300:130|321:105,2,65.9999979858399,0|8|8,1:0|0:0|0:3,0:0:0:0:
199,83,77128,2,0,P|169:69|148:44,2,65.9999979858399,4|4|4,0:3|0:3|0:3,0:0:0:0:
396,157,77447,6,0,L|533:172,1,115.49999647522,4|2,0:0|0:0,0:0:0:0:
339,240,77926,1,0,0:0:0:0:
339,240,78085,2,0,L|332:303,1,57.7499982376099,2|0,0:0|0:0,0:0:0:0:
251,384,78404,2,0,L|238:273,1,111.374996601105,0|0,0:0|0:0,0:0:0:0:
161,233,78723,6,0,B|114:224|110:255|64:248,1,98.9999969787599,2|0,0:0|0:0,0:0:0:0:
252,38,79202,1,0,0:0:0:0:
235,181,79362,6,0,L|242:112,1,53.6249975452424,2|0,0:0|0:0,0:0:0:0:
327,94,79681,2,0,L|395:101,1,53.6249975452424,2|0,0:0|0:0,0:0:0:0:
167,75,80000,6,0,L|63:63,2,90.7500027694703,2|2|2,0:0|0:0|0:0,0:0:0:0:
469,107,80957,1,2,0:0:0:0:
115,244,81277,6,0,B|176:250|176:250|192:261|192:261|252:269,1,140.250002675056,2|0,0:0|0:0,0:0:0:0:
235,181,81755,1,0,0:0:0:0:
132,384,81915,2,0,L|137:330,1,53.6249975452424,0|0,0:0|0:0,0:0:0:0:
240,127,82234,2,0,L|234:180,1,53.6249975452424,2|0,0:0|0:0,0:0:0:0:
320,215,82553,6,0,P|351:215|403:157,1,92.812503540516,2|0,0:0|0:0,0:0:0:0:
412,184,82872,2,0,P|428:147|425:109,1,70.1250013375282,2|0,0:0|0:0,0:0:0:0:
147,147,83192,2,0,B|88:136|83:175|27:168,1,123.750004720688,2|2,0:0|0:0,0:0:0:0:
305,5,83830,6,0,L|310:58,2,53.6249975452424,2|0|0,0:0|0:0|0:0,0:0:0:0:
240,127,84309,1,0,0:0:0:0:
392,29,84468,2,0,L|445:23,1,53.6249975452424,2|0,0:0|0:0,0:0:0:0:
336,208,84787,2,0,L|330:154,1,53.6249975452424,2|0,0:0|0:0,0:0:0:0:
305,5,85106,5,2,0:0:0:0:
318,365,85426,1,2,0:0:0:0:
95,82,85745,1,2,0:0:0:0:
443,180,86064,1,2,0:0:0:0:
104,306,86383,1,2,0:0:0:0:
104,306,86463,6,0,B|152:298|152:298|171:284|171:284|221:278,1,123.75,0|0,0:0|0:2,0:0:0:0:
