osu file format v14

[General]
AudioFilename: audio.mp3
AudioLeadIn: 0
PreviewTime: 57773
Countdown: 0
SampleSet: Normal
StackLeniency: 0
Mode: 1
LetterboxInBreaks: 0
WidescreenStoryboard: 0

[Editor]
Bookmarks: 58080,68293
DistanceSpacing: 1
BeatDivisor: 4
GridSize: 32
TimelineZoom: 1.5

[Metadata]
Title:Kessen Spirit (TV Size)
TitleUnicode:決戦スピリット (TV Size)
Artist:CHiCO with HoneyWorks
ArtistUnicode:CHiCO with HoneyWorks
Creator:Aurorance
Version:Oni
Source:ハイキュー!! TO THE TOP
Tags:j-pop j-rock S4 haikyuu!! jpop pop volleyball sports season 4 part 1 japanese anime boy rock jrock ending short haikyuu freezinganimenz iredi e_s_i_a [-e_s_i_a-] esia [-esia-]
BeatmapID:4210032
BeatmapSetID:2021516

[Difficulty]
HPDrainRate:5
CircleSize:2
OverallDifficulty:6
ApproachRate:5
SliderMultiplier:1.4
SliderTickRate:1

[Events]
//Background and Video events
Video,-330,"haikyuu ed.mp4"
0,0,"cropped-1920-1200-747196.jpg",0,115
//Break Periods
//Storyboard Layer 0 (Background)
//Storyboard Layer 1 (Fail)
//Storyboard Layer 2 (Pass)
//Storyboard Layer 3 (Foreground)
//Storyboard Layer 4 (Overlay)
//Storyboard Sound Samples

[TimingPoints]
410,319.148936170213,4,1,0,60,1,0
2963,-100,4,1,0,70,0,0
3743,319.148936170213,4,1,0,70,1,8
3913,338.983050847458,4,1,0,70,1,8
3913,-94.1495471406783,4,1,0,70,0,8
4239,319.148936170213,4,1,0,80,1,0
14451,-100,4,1,0,60,0,0
24664,-100,4,1,0,70,0,0
57856,-100,4,1,0,80,0,1
78281,-100,4,1,0,60,0,0
85941,-100,4,1,0,50,0,0
87217,-100,4,1,0,40,0,0

[HitObjects]
242,181,2963,5,0,1:0:0:0:
242,181,3122,1,8,1:0:0:0:
242,181,3202,1,8,1:0:0:0:
242,181,3282,1,8,1:0:0:0:
242,181,3362,1,8,1:0:0:0:
242,181,3441,1,0,1:0:0:0:
242,181,3601,1,8,1:0:0:0:
242,181,3743,1,0,1:0:0:0:
242,181,3913,1,8,1:0:0:0:
242,181,4239,5,4,1:0:0:0:
242,181,4398,1,8,1:0:0:0:
242,181,4478,1,8,1:0:0:0:
242,181,4558,1,0,1:0:0:0:
242,181,4717,1,8,1:0:0:0:
242,181,4877,1,8,1:0:0:0:
242,181,4957,1,8,1:0:0:0:
242,181,5036,1,0,1:0:0:0:
242,181,5116,1,0,1:0:0:0:
242,181,5196,1,8,1:0:0:0:
242,181,5356,1,8,1:0:0:0:
242,181,5515,1,0,1:0:0:0:
242,181,5675,1,0,1:0:0:0:
242,181,5834,1,8,1:0:0:0:
242,181,5994,1,0,1:0:0:0:
242,181,6074,1,8,1:0:0:0:
242,181,6153,1,0,1:0:0:0:
242,181,6313,1,0,1:0:0:0:
242,181,6473,1,8,1:0:0:0:
242,181,6792,5,0,1:0:0:0:
242,181,6951,1,8,1:0:0:0:
242,181,7031,1,8,1:0:0:0:
242,181,7111,1,0,1:0:0:0:
242,181,7270,1,0,1:0:0:0:
242,181,7430,1,8,1:0:0:0:
242,181,7510,1,8,1:0:0:0:
242,181,7590,1,0,1:0:0:0:
242,181,7669,1,0,1:0:0:0:
242,181,7749,1,8,1:0:0:0:
242,181,7909,1,0,1:0:0:0:
242,181,8068,1,8,1:0:0:0:
242,181,8228,1,8,1:0:0:0:
242,181,8387,1,0,1:0:0:0:
242,181,8547,1,0,1:0:0:0:
242,181,8627,1,0,1:0:0:0:
242,181,8707,1,8,1:0:0:0:
242,181,8786,1,8,1:0:0:0:
242,181,8866,1,0,1:0:0:0:
242,181,9026,1,8,1:0:0:0:
242,181,9345,5,4,1:0:0:0:
242,181,9504,1,8,1:0:0:0:
242,181,9584,1,8,1:0:0:0:
242,181,9664,1,0,1:0:0:0:
242,181,9824,1,8,1:0:0:0:
242,181,9983,1,0,1:0:0:0:
242,181,10063,1,0,1:0:0:0:
242,181,10143,1,0,1:0:0:0:
242,181,10223,1,0,1:0:0:0:
242,181,10302,1,8,1:0:0:0:
242,181,10462,1,8,1:0:0:0:
242,181,10621,1,0,1:0:0:0:
242,181,10781,1,0,1:0:0:0:
242,181,10941,1,8,1:0:0:0:
242,181,11100,1,0,1:0:0:0:
242,181,11180,1,8,1:0:0:0:
242,181,11260,1,0,1:0:0:0:
242,181,11419,1,0,1:0:0:0:
242,181,11579,1,8,1:0:0:0:
242,181,11898,5,0,1:0:0:0:
242,181,12058,1,0,1:0:0:0:
242,181,12137,1,0,1:0:0:0:
242,181,12217,1,8,1:0:0:0:
242,181,12377,1,0,1:0:0:0:
242,181,12536,1,8,1:0:0:0:
242,181,12616,1,8,1:0:0:0:
242,181,12696,1,0,1:0:0:0:
242,181,12776,1,0,1:0:0:0:
242,181,12856,1,8,1:0:0:0:
242,181,13175,5,0,1:0:0:0:
242,181,13254,1,8,1:0:0:0:
242,181,13334,1,8,1:0:0:0:
242,181,13414,1,8,1:0:0:0:
242,181,13494,1,0,1:0:0:0:
242,181,13653,1,8,1:0:0:0:
242,181,13733,1,8,1:0:0:0:
242,181,13813,1,0,1:0:0:0:
242,181,13973,1,0,1:0:0:0:
242,181,14132,1,8,1:0:0:0:
242,181,14212,1,8,1:0:0:0:
242,181,14292,1,8,1:0:0:0:
242,181,14451,5,4,1:0:0:0:
242,181,14611,1,0,1:0:0:0:
242,181,14770,1,8,1:0:0:0:
242,181,14930,1,0,1:0:0:0:
242,181,15249,1,0,1:0:0:0:
242,181,15409,1,8,1:0:0:0:
242,181,15568,1,8,1:0:0:0:
242,181,15728,1,0,1:0:0:0:
242,181,15887,1,0,1:0:0:0:
242,181,16047,1,8,1:0:0:0:
242,181,16366,5,0,1:0:0:0:
242,181,16526,1,0,1:0:0:0:
242,181,16685,1,8,1:0:0:0:
242,181,17004,1,0,1:0:0:0:
242,181,17164,1,0,1:0:0:0:
242,181,17324,1,8,1:0:0:0:
242,181,17483,1,8,1:0:0:0:
242,181,17802,1,0,1:0:0:0:
242,181,17962,1,0,1:0:0:0:
242,181,18121,1,8,1:0:0:0:
242,181,18281,1,0,1:0:0:0:
242,181,18441,1,0,1:0:0:0:
242,181,18600,1,8,1:0:0:0:
242,181,18919,1,0,1:0:0:0:
242,181,19079,1,0,1:0:0:0:
242,181,19239,1,8,1:0:0:0:
242,181,19558,5,8,1:0:0:0:
242,181,19717,1,8,1:0:0:0:
242,181,19877,1,0,1:0:0:0:
242,181,20036,1,8,1:0:0:0:
242,181,20356,1,0,1:0:0:0:
242,181,20515,1,8,1:0:0:0:
242,181,20675,1,8,1:0:0:0:
242,181,20834,1,0,1:0:0:0:
242,181,20994,1,0,1:0:0:0:
242,181,21153,1,8,1:0:0:0:
242,181,21473,5,0,1:0:0:0:
242,181,21632,1,0,1:0:0:0:
242,181,21792,1,8,1:0:0:0:
242,181,22111,1,8,1:0:0:0:
242,181,22270,1,8,1:0:0:0:
242,181,22430,1,0,1:0:0:0:
242,181,22590,1,8,1:0:0:0:
242,181,22909,1,0,1:0:0:0:
242,181,23068,1,8,1:0:0:0:
242,181,23228,1,0,1:0:0:0:
242,181,23387,1,0,1:0:0:0:
242,181,23547,1,0,1:0:0:0:
242,181,23707,1,8,1:0:0:0:
242,181,24026,1,0,1:0:0:0:
242,181,24185,1,8,1:0:0:0:
242,181,24265,1,8,1:0:0:0:
242,181,24345,1,0,1:0:0:0:
242,181,24425,1,0,1:0:0:0:
242,181,24504,1,8,1:0:0:0:
242,181,24664,5,4,1:0:0:0:
242,181,24824,1,0,1:0:0:0:
242,181,24983,1,8,1:0:0:0:
242,181,25063,1,8,1:0:0:0:
242,181,25143,1,0,1:0:0:0:
242,181,25462,1,0,1:0:0:0:
242,181,25621,1,8,1:0:0:0:
242,181,25781,1,8,1:0:0:0:
242,181,25861,1,8,1:0:0:0:
242,181,25941,1,0,1:0:0:0:
242,181,26100,1,0,1:0:0:0:
242,181,26260,1,8,1:0:0:0:
242,181,26419,1,8,1:0:0:0:
242,181,26579,1,0,1:0:0:0:
242,181,26659,1,0,1:0:0:0:
242,181,26739,1,0,1:0:0:0:
242,181,26898,1,8,1:0:0:0:
242,181,27217,5,8,1:0:0:0:
242,181,27377,1,0,1:0:0:0:
242,181,27536,1,8,1:0:0:0:
242,181,27616,1,0,1:0:0:0:
242,181,27696,1,8,1:0:0:0:
242,181,28015,1,0,1:0:0:0:
242,181,28175,1,8,1:0:0:0:
242,181,28334,1,8,1:0:0:0:
242,181,28414,1,8,1:0:0:0:
242,181,28494,1,0,1:0:0:0:
242,181,28653,1,0,1:0:0:0:
242,181,28813,1,8,1:0:0:0:
242,181,29132,1,8,1:0:0:0:
242,181,29212,1,8,1:0:0:0:
242,181,29292,1,0,1:0:0:0:
242,181,29451,1,8,1:0:0:0:
242,181,29770,5,8,1:0:0:0:
242,181,29930,1,8,1:0:0:0:
242,181,30090,1,0,1:0:0:0:
242,181,30169,1,0,1:0:0:0:
242,181,30249,1,8,1:0:0:0:
242,181,30568,1,0,1:0:0:0:
242,181,30728,1,8,1:0:0:0:
242,181,30887,1,0,1:0:0:0:
242,181,30967,1,0,1:0:0:0:
242,181,31047,1,8,1:0:0:0:
242,181,31207,1,8,1:0:0:0:
242,181,31366,1,0,1:0:0:0:
242,181,31526,1,8,1:0:0:0:
242,181,31685,1,0,1:0:0:0:
242,181,31765,1,0,1:0:0:0:
242,181,31845,1,0,1:0:0:0:
242,181,32004,1,8,1:0:0:0:
242,181,32324,5,8,1:0:0:0:
242,181,32483,1,0,1:0:0:0:
242,181,32643,1,8,1:0:0:0:
242,181,32723,1,0,1:0:0:0:
242,181,32802,1,8,1:0:0:0:
242,181,32962,1,8,1:0:0:0:
242,181,33121,1,0,1:0:0:0:
242,181,33281,1,8,1:0:0:0:
242,181,33441,1,0,1:0:0:0:
242,181,33600,1,0,1:0:0:0:
242,181,33680,1,0,1:0:0:0:
242,181,33760,1,8,1:0:0:0:
242,181,33840,1,8,1:0:0:0:
242,181,33919,1,0,1:0:0:0:
242,181,34079,1,8,1:0:0:0:
242,181,34159,1,8,1:0:0:0:
242,181,34239,1,0,1:0:0:0:
242,181,34398,1,0,1:0:0:0:
242,181,34558,5,12,1:0:0:0:
242,181,34717,1,0,1:0:0:0:
242,181,34877,5,12,1:0:0:0:
242,181,35196,1,0,1:0:0:0:
242,181,35356,1,0,1:0:0:0:
242,181,35515,1,8,1:0:0:0:
242,181,35675,1,0,1:0:0:0:
242,181,35834,1,0,1:0:0:0:
242,181,36153,1,8,1:0:0:0:
242,181,36313,1,8,1:0:0:0:
242,181,36473,1,0,1:0:0:0:
242,181,36632,1,0,1:0:0:0:
242,181,36792,1,8,1:0:0:0:
242,181,36871,1,8,1:0:0:0:
242,181,36951,1,0,1:0:0:0:
242,181,37111,1,12,1:0:0:0:
242,181,37270,1,0,1:0:0:0:
242,181,37430,1,12,1:0:0:0:
242,181,37749,1,0,1:0:0:0:
242,181,37909,1,0,1:0:0:0:
242,181,38068,1,8,1:0:0:0:
242,181,38228,1,8,1:0:0:0:
242,181,38387,1,0,1:0:0:0:
242,181,38707,1,4,1:0:0:0:
242,181,38866,1,8,1:0:0:0:
242,181,39185,1,4,1:0:0:0:
242,181,39345,1,8,1:0:0:0:
242,181,39425,1,8,1:0:0:0:
242,181,39504,1,0,1:0:0:0:
242,181,39664,1,12,1:0:0:0:
242,181,39824,1,0,1:0:0:0:
242,181,39983,1,12,1:0:0:0:
242,181,40302,5,0,1:0:0:0:
242,181,40621,1,8,1:0:0:0:
242,181,40781,1,0,1:0:0:0:
242,181,40941,1,0,1:0:0:0:
242,181,41100,1,8,1:0:0:0:
242,181,41180,1,8,1:0:0:0:
242,181,41260,1,0,1:0:0:0:
242,181,41419,1,8,1:0:0:0:
242,181,41579,1,0,1:0:0:0:
242,181,41898,1,8,1:0:0:0:
242,181,42058,1,0,1:0:0:0:
242,181,42217,1,8,1:0:0:0:
242,181,42377,1,8,1:0:0:0:
242,181,42536,5,4,1:0:0:0:
242,181,42856,1,8,1:0:0:0:
242,181,43175,1,0,1:0:0:0:
242,181,43334,1,8,1:0:0:0:
242,181,43494,1,0,1:0:0:0:
242,181,43574,1,0,1:0:0:0:
242,181,43653,1,8,1:0:0:0:
242,181,43813,1,0,1:0:0:0:
242,181,44132,1,0,1:0:0:0:
242,181,44292,1,0,1:0:0:0:
242,181,44371,1,0,1:0:0:0:
242,181,44451,1,8,1:0:0:0:
242,181,44531,1,8,1:0:0:0:
242,181,44611,1,0,1:0:0:0:
242,181,44770,1,12,1:0:0:0:
242,181,44930,1,0,1:0:0:0:
242,181,45090,1,12,1:0:0:0:
242,181,45409,5,0,1:0:0:0:
242,181,45728,1,8,1:0:0:0:
242,181,45808,1,8,1:0:0:0:
242,181,45887,1,0,1:0:0:0:
242,181,46047,1,8,1:0:0:0:
242,181,46207,1,0,1:0:0:0:
242,181,46526,1,0,1:0:0:0:
242,181,46685,1,8,1:0:0:0:
242,181,46845,1,8,1:0:0:0:
242,181,46925,1,8,1:0:0:0:
242,181,47004,1,0,1:0:0:0:
242,181,47164,1,0,1:0:0:0:
242,181,47324,1,12,1:0:0:0:
242,181,47483,1,0,1:0:0:0:
242,181,47643,1,12,1:0:0:0:
242,181,47962,5,0,1:0:0:0:
242,181,48121,1,0,1:0:0:0:
242,181,48281,1,8,1:0:0:0:
242,181,48361,1,8,1:0:0:0:
242,181,48441,1,0,1:0:0:0:
242,181,48600,1,8,1:0:0:0:
242,181,48760,1,0,1:0:0:0:
242,181,49079,1,8,1:0:0:0:
242,181,49239,1,0,1:0:0:0:
242,181,49398,1,0,1:0:0:0:
242,181,49478,1,0,1:0:0:0:
242,181,49558,1,8,1:0:0:0:
242,181,49717,1,0,1:0:0:0:
242,181,49877,1,12,1:0:0:0:
242,181,50036,1,0,1:0:0:0:
242,181,50196,1,12,1:0:0:0:
242,181,50515,5,0,1:0:0:0:
242,181,50675,1,0,1:0:0:0:
242,181,50754,1,8,1:0:0:0:
242,181,50834,1,0,1:0:0:0:
242,181,50994,1,0,1:0:0:0:
242,181,51153,1,8,1:0:0:0:
242,181,51313,1,0,1:0:0:0:
242,181,51632,1,0,1:0:0:0:
242,181,51792,1,8,1:0:0:0:
242,181,51951,1,0,1:0:0:0:
242,181,52111,1,0,1:0:0:0:
242,181,52191,1,0,1:0:0:0:
242,181,52270,1,8,1:0:0:0:
242,181,52430,1,8,1:0:0:0:
242,181,52510,1,0,1:0:0:0:
242,181,52590,1,8,1:0:0:0:
242,181,52749,5,4,1:0:0:0:
242,181,53068,1,8,1:0:0:0:
242,181,53228,1,0,1:0:0:0:
242,181,53308,1,0,1:0:0:0:
242,181,53387,1,0,1:0:0:0:
242,181,53547,1,0,1:0:0:0:
242,181,53707,1,8,1:0:0:0:
242,181,53866,1,8,1:0:0:0:
242,181,54026,1,0,1:0:0:0:
242,181,54345,1,8,1:0:0:0:
242,181,54504,1,8,1:0:0:0:
242,181,54584,1,8,1:0:0:0:
242,181,54664,1,0,1:0:0:0:
242,181,54824,1,0,1:0:0:0:
242,181,54983,1,8,1:0:0:0:
242,181,55143,1,8,1:0:0:0:
242,181,55302,1,0,1:0:0:0:
242,181,55462,1,0,1:0:0:0:
242,181,55542,1,0,1:0:0:0:
242,181,55621,1,8,1:0:0:0:
242,181,55781,1,0,1:0:0:0:
242,181,55941,1,8,1:0:0:0:
242,181,56100,1,0,1:0:0:0:
242,181,56180,1,0,1:0:0:0:
242,181,56260,1,8,1:0:0:0:
242,181,56340,1,8,1:0:0:0:
242,181,56419,1,0,1:0:0:0:
242,181,56579,1,4,1:0:0:0:
242,181,57856,5,4,1:0:0:0:
242,181,58175,1,8,1:0:0:0:
242,181,58334,1,0,1:0:0:0:
242,181,58494,1,8,1:0:0:0:
242,181,58574,1,8,1:0:0:0:
242,181,58653,1,0,1:0:0:0:
242,181,58733,1,0,1:0:0:0:
242,181,58813,1,8,1:0:0:0:
242,181,58973,1,0,1:0:0:0:
242,181,59132,1,8,1:0:0:0:
242,181,59292,1,0,1:0:0:0:
242,181,59371,1,0,1:0:0:0:
242,181,59451,1,8,1:0:0:0:
242,181,59611,1,0,1:0:0:0:
242,181,59691,1,8,1:0:0:0:
242,181,59770,1,0,1:0:0:0:
242,181,59930,1,0,1:0:0:0:
242,181,60090,1,8,1:0:0:0:
242,181,60409,5,8,1:0:0:0:
242,181,60568,1,0,1:0:0:0:
242,181,60648,1,0,1:0:0:0:
242,181,60728,1,8,1:0:0:0:
242,181,60887,1,0,1:0:0:0:
242,181,60967,1,8,1:0:0:0:
242,181,61047,1,0,1:0:0:0:
242,181,61207,1,0,1:0:0:0:
242,181,61366,1,8,1:0:0:0:
242,181,61526,1,8,1:0:0:0:
242,181,61606,1,8,1:0:0:0:
242,181,61685,1,0,1:0:0:0:
242,181,61845,1,0,1:0:0:0:
242,181,62004,1,8,1:0:0:0:
242,181,62164,1,0,1:0:0:0:
242,181,62244,1,0,1:0:0:0:
242,181,62324,1,8,1:0:0:0:
242,181,62403,1,8,1:0:0:0:
242,181,62483,1,0,1:0:0:0:
242,181,62643,1,8,1:0:0:0:
242,181,62962,5,4,1:0:0:0:
242,181,63121,1,0,1:0:0:0:
242,181,63281,1,8,1:0:0:0:
242,181,63441,1,0,1:0:0:0:
242,181,63600,1,8,1:0:0:0:
242,181,63680,1,8,1:0:0:0:
242,181,63760,1,0,1:0:0:0:
242,181,63840,1,0,1:0:0:0:
242,181,63919,1,8,1:0:0:0:
242,181,64079,1,0,1:0:0:0:
242,181,64239,1,8,1:0:0:0:
242,181,64398,1,0,1:0:0:0:
242,181,64478,1,0,1:0:0:0:
242,181,64558,1,8,1:0:0:0:
242,181,64717,1,0,1:0:0:0:
242,181,64797,1,8,1:0:0:0:
242,181,64877,1,0,1:0:0:0:
242,181,65036,1,0,1:0:0:0:
242,181,65196,1,8,1:0:0:0:
242,181,65515,5,4,1:0:0:0:
242,181,65675,1,0,1:0:0:0:
242,181,65754,1,0,1:0:0:0:
242,181,65834,1,8,1:0:0:0:
242,181,65994,1,8,1:0:0:0:
242,181,66074,1,8,1:0:0:0:
242,181,66153,1,0,1:0:0:0:
242,181,66313,1,0,1:0:0:0:
242,181,66473,1,8,1:0:0:0:
242,181,66632,1,8,1:0:0:0:
242,181,66792,5,0,1:0:0:0:
242,181,66951,1,8,1:0:0:0:
242,181,67031,1,8,1:0:0:0:
242,181,67111,1,0,1:0:0:0:
242,181,67270,1,8,1:0:0:0:
242,181,67430,1,0,1:0:0:0:
242,181,67590,1,8,1:0:0:0:
242,181,67669,1,8,1:0:0:0:
242,181,67749,1,0,1:0:0:0:
242,181,67829,1,0,1:0:0:0:
242,181,67909,1,8,1:0:0:0:
242,181,68068,5,4,1:0:0:0:
242,181,68387,1,8,1:0:0:0:
242,181,68547,1,8,1:0:0:0:
242,181,68707,1,0,1:0:0:0:
242,181,68786,1,0,1:0:0:0:
242,181,68866,1,0,1:0:0:0:
242,181,68946,1,0,1:0:0:0:
242,181,69026,1,8,1:0:0:0:
242,181,69185,1,8,1:0:0:0:
242,181,69345,1,0,1:0:0:0:
242,181,69504,1,0,1:0:0:0:
242,181,69584,1,0,1:0:0:0:
242,181,69664,1,8,1:0:0:0:
242,181,69824,1,0,1:0:0:0:
242,181,69903,1,8,1:0:0:0:
242,181,69983,1,0,1:0:0:0:
242,181,70143,1,0,1:0:0:0:
242,181,70302,1,8,1:0:0:0:
242,181,70621,5,8,1:0:0:0:
242,181,70781,1,0,1:0:0:0:
242,181,70861,1,0,1:0:0:0:
242,181,70941,1,8,1:0:0:0:
242,181,71100,1,8,1:0:0:0:
242,181,71180,1,8,1:0:0:0:
242,181,71260,1,0,1:0:0:0:
242,181,71419,1,0,1:0:0:0:
242,181,71579,1,8,1:0:0:0:
242,181,71739,1,8,1:0:0:0:
242,181,71818,1,8,1:0:0:0:
242,181,71898,1,0,1:0:0:0:
242,181,72058,1,0,1:0:0:0:
242,181,72217,1,8,1:0:0:0:
242,181,72377,1,0,1:0:0:0:
242,181,72457,1,8,1:0:0:0:
242,181,72536,1,8,1:0:0:0:
242,181,72616,1,8,1:0:0:0:
242,181,72696,1,0,1:0:0:0:
242,181,72856,1,8,1:0:0:0:
242,181,73175,5,4,1:0:0:0:
242,181,73334,1,0,1:0:0:0:
242,181,73494,1,8,1:0:0:0:
242,181,73653,1,0,1:0:0:0:
242,181,73813,1,8,1:0:0:0:
242,181,73893,1,0,1:0:0:0:
242,181,73973,1,0,1:0:0:0:
242,181,74052,1,0,1:0:0:0:
242,181,74132,1,8,1:0:0:0:
242,181,74292,1,8,1:0:0:0:
242,181,74451,1,0,1:0:0:0:
242,181,74611,1,0,1:0:0:0:
242,181,74691,1,0,1:0:0:0:
242,181,74770,1,8,1:0:0:0:
242,181,74930,1,8,1:0:0:0:
242,181,75010,1,8,1:0:0:0:
242,181,75090,1,0,1:0:0:0:
242,181,75249,1,0,1:0:0:0:
242,181,75409,1,8,1:0:0:0:
242,181,75728,5,8,1:0:0:0:
242,181,75887,1,0,1:0:0:0:
242,181,75967,1,0,1:0:0:0:
242,181,76047,1,8,1:0:0:0:
242,181,76207,1,0,1:0:0:0:
242,181,76286,1,0,1:0:0:0:
242,181,76366,1,8,1:0:0:0:
242,181,76526,1,0,1:0:0:0:
242,181,76685,1,8,1:0:0:0:
242,181,76845,1,8,1:0:0:0:
242,181,76925,1,8,1:0:0:0:
242,181,77004,5,0,1:0:0:0:
242,181,77164,1,0,1:0:0:0:
242,181,77324,1,8,1:0:0:0:
242,181,77430,1,8,1:0:0:0:
242,181,77536,1,8,1:0:0:0:
242,181,77643,1,0,1:0:0:0:
242,181,77962,1,0,1:0:0:0:
242,181,78068,1,0,1:0:0:0:
242,181,78175,1,0,1:0:0:0:
242,181,78281,5,12,1:0:0:0:
242,181,78600,1,0,1:0:0:0:
242,181,78760,1,0,1:0:0:0:
242,181,78919,1,8,1:0:0:0:
242,181,79239,1,8,1:0:0:0:
242,181,79558,1,0,1:0:0:0:
242,181,79877,1,0,1:0:0:0:
242,181,80036,1,8,1:0:0:0:
242,181,80196,1,0,1:0:0:0:
242,181,80515,1,0,1:0:0:0:
242,181,80834,1,8,1:0:0:0:
242,181,81153,1,0,1:0:0:0:
242,181,81313,1,8,1:0:0:0:
242,181,81473,1,8,1:0:0:0:
242,181,81792,1,0,1:0:0:0:
242,181,82111,1,8,1:0:0:0:
242,181,82430,1,0,1:0:0:0:
242,181,82590,1,8,1:0:0:0:
242,181,82749,1,0,1:0:0:0:
242,181,83068,1,0,1:0:0:0:
242,181,83387,5,8,1:0:0:0:
242,181,83707,1,0,1:0:0:0:
242,181,83866,1,0,1:0:0:0:
242,181,84026,1,8,1:0:0:0:
242,181,84345,1,8,1:0:0:0:
242,181,84664,1,0,1:0:0:0:
242,181,84983,1,0,1:0:0:0:
242,181,85143,1,8,1:0:0:0:
242,181,85302,1,0,1:0:0:0:
242,181,85621,1,0,1:0:0:0:
242,181,85941,1,8,1:0:0:0:
242,181,86260,1,0,1:0:0:0:
242,181,86579,1,0,1:0:0:0:
242,181,86898,1,0,1:0:0:0:
242,181,87217,1,8,1:0:0:0:
