osu file format v14

[General]
AudioFilename: audio.mp3
AudioLeadIn: 0
PreviewTime: 57773
Countdown: 0
SampleSet: Normal
StackLeniency: 0
Mode: 1
LetterboxInBreaks: 0
WidescreenStoryboard: 1

[Editor]
Bookmarks: 58080,68293
DistanceSpacing: 1
BeatDivisor: 4
GridSize: 32
TimelineZoom: 1.499999

[Metadata]
Title:Kessen Spirit (TV Size)
TitleUnicode:決戦スピリット (TV Size)
Artist:CHiCO with HoneyWorks
ArtistUnicode:CHiCO with HoneyWorks
Creator:Aurorance
Version:Muzukashii
Source:ハイキュー!! TO THE TOP
Tags:j-pop j-rock S4 haikyuu!! jpop pop volleyball sports season 4 part 1 japanese anime boy rock jrock ending short haikyuu freezinganimenz iredi e_s_i_a [-e_s_i_a-] esia [-esia-]
BeatmapID:4214253
BeatmapSetID:2021516

[Difficulty]
HPDrainRate:6
CircleSize:2
OverallDifficulty:5
ApproachRate:5
SliderMultiplier:1.4
SliderTickRate:1

[Events]
//Background and Video events
Video,-330,"haikyuu ed.mp4"
0,0,"cropped-1920-1200-747196.jpg",0,115
//Break Periods
//Storyboard Layer 0 (Background)
//Storyboard Layer 1 (Fail)
//Storyboard Layer 2 (Pass)
//Storyboard Layer 3 (Foreground)
//Storyboard Layer 4 (Overlay)
//Storyboard Sound Samples

[TimingPoints]
410,319.148936170213,4,1,0,60,1,0
2963,-100,4,1,0,70,0,0
3743,319.148936170213,4,1,0,70,1,8
3913,338.983050847458,4,1,0,70,1,8
3913,-94.1495471406783,4,1,0,70,0,8
4239,319.148936170213,4,1,0,80,1,0
14451,-100,4,1,0,60,0,0
24664,-100,4,1,0,70,0,0
57856,-100,4,1,0,80,0,1
78281,-100,4,1,0,60,0,0
85941,-100,4,1,0,50,0,0
87217,-100,4,1,0,40,0,0

[HitObjects]
256,192,2963,5,0,1:0:0:0:
256,192,3122,1,8,1:0:0:0:
256,192,3202,1,8,1:0:0:0:
256,192,3282,1,8,1:0:0:0:
256,192,3441,1,0,1:0:0:0:
256,192,3601,1,8,1:0:0:0:
256,192,3913,1,8,1:0:0:0:
256,192,4239,5,4,1:0:0:0:
256,192,4398,1,8,1:0:0:0:
256,192,4478,1,8,1:0:0:0:
256,192,4558,1,8,1:0:0:0:
256,192,4717,1,0,1:0:0:0:
256,192,5036,1,0,1:0:0:0:
256,192,5196,1,8,1:0:0:0:
256,192,5515,1,8,1:0:0:0:
256,192,5675,1,0,1:0:0:0:
256,192,5754,1,0,1:0:0:0:
256,192,5834,1,0,1:0:0:0:
256,192,5994,1,8,1:0:0:0:
256,192,6473,1,8,1:0:0:0:
256,192,6792,1,0,1:0:0:0:
256,192,6951,1,8,1:0:0:0:
256,192,7031,1,8,1:0:0:0:
256,192,7111,1,8,1:0:0:0:
256,192,7270,1,0,1:0:0:0:
256,192,7590,1,0,1:0:0:0:
256,192,7749,1,8,1:0:0:0:
256,192,8068,1,0,1:0:0:0:
256,192,8228,1,8,1:0:0:0:
256,192,8308,1,8,1:0:0:0:
256,192,8387,1,8,1:0:0:0:
256,192,8547,1,8,1:0:0:0:
256,192,8707,1,0,1:0:0:0:
256,192,8866,1,0,1:0:0:0:
256,192,9026,1,8,1:0:0:0:
256,192,9345,5,4,1:0:0:0:
256,192,9504,1,8,1:0:0:0:
256,192,9584,1,8,1:0:0:0:
256,192,9664,1,8,1:0:0:0:
256,192,9824,1,8,1:0:0:0:
256,192,10143,1,8,1:0:0:0:
256,192,10302,1,0,1:0:0:0:
256,192,10621,1,8,1:0:0:0:
256,192,10781,1,0,1:0:0:0:
256,192,10861,1,0,1:0:0:0:
256,192,10941,1,0,1:0:0:0:
256,192,11100,1,8,1:0:0:0:
256,192,11579,1,8,1:0:0:0:
256,192,11898,1,0,1:0:0:0:
256,192,12058,1,0,1:0:0:0:
256,192,12217,1,8,1:0:0:0:
256,192,12377,1,0,1:0:0:0:
256,192,12536,1,8,1:0:0:0:
256,192,12696,1,0,1:0:0:0:
256,192,12856,1,8,1:0:0:0:
256,192,13175,1,0,1:0:0:0:
256,192,13334,1,8,1:0:0:0:
256,192,13414,1,8,1:0:0:0:
256,192,13494,1,8,1:0:0:0:
256,192,13653,1,0,1:0:0:0:
256,192,13813,1,0,1:0:0:0:
256,192,13973,1,8,1:0:0:0:
256,192,14132,1,8,1:0:0:0:
256,192,14451,5,4,1:0:0:0:
256,192,14770,1,8,1:0:0:0:
256,192,14930,1,0,1:0:0:0:
256,192,15249,1,0,1:0:0:0:
256,192,15568,1,8,1:0:0:0:
256,192,15728,1,0,1:0:0:0:
256,192,15887,1,0,1:0:0:0:
256,192,16047,1,8,1:0:0:0:
256,192,16366,1,0,1:0:0:0:
256,192,16685,1,8,1:0:0:0:
256,192,17004,5,0,1:0:0:0:
256,192,17324,1,8,1:0:0:0:
256,192,17483,1,8,1:0:0:0:
256,192,17802,1,0,1:0:0:0:
256,192,18121,1,8,1:0:0:0:
256,192,18281,1,0,1:0:0:0:
256,192,18441,1,0,1:0:0:0:
256,192,18600,1,8,1:0:0:0:
256,192,18919,1,0,1:0:0:0:
256,192,19079,1,0,1:0:0:0:
256,192,19239,1,8,1:0:0:0:
256,192,19558,5,0,1:0:0:0:
256,192,19877,1,8,1:0:0:0:
256,192,20036,1,0,1:0:0:0:
256,192,20356,1,8,1:0:0:0:
256,192,20675,1,0,1:0:0:0:
256,192,20834,1,0,1:0:0:0:
256,192,20994,1,0,1:0:0:0:
256,192,21153,1,8,1:0:0:0:
256,192,21473,1,0,1:0:0:0:
256,192,21792,1,8,1:0:0:0:
256,192,22111,5,0,1:0:0:0:
256,192,22430,1,8,1:0:0:0:
256,192,22590,1,0,1:0:0:0:
256,192,22909,1,0,1:0:0:0:
256,192,23228,1,8,1:0:0:0:
256,192,23387,1,0,1:0:0:0:
256,192,23547,1,0,1:0:0:0:
256,192,23707,1,8,1:0:0:0:
256,192,24026,1,0,1:0:0:0:
256,192,24185,1,0,1:0:0:0:
256,192,24345,1,8,1:0:0:0:
256,192,24425,1,8,1:0:0:0:
256,192,24504,1,8,1:0:0:0:
256,192,24664,5,4,1:0:0:0:
256,192,24983,1,8,1:0:0:0:
256,192,25143,1,0,1:0:0:0:
256,192,25462,1,0,1:0:0:0:
256,192,25621,1,0,1:0:0:0:
256,192,25781,1,8,1:0:0:0:
256,192,25941,1,0,1:0:0:0:
256,192,26100,1,8,1:0:0:0:
256,192,26260,1,8,1:0:0:0:
256,192,26579,1,0,1:0:0:0:
256,192,26898,1,8,1:0:0:0:
256,192,27217,5,0,1:0:0:0:
256,192,27536,1,8,1:0:0:0:
256,192,27696,1,8,1:0:0:0:
256,192,28015,1,0,1:0:0:0:
256,192,28175,1,0,1:0:0:0:
256,192,28334,1,8,1:0:0:0:
256,192,28494,1,0,1:0:0:0:
256,192,28653,1,0,1:0:0:0:
256,192,28813,1,8,1:0:0:0:
256,192,29132,1,8,1:0:0:0:
256,192,29292,1,0,1:0:0:0:
256,192,29451,1,8,1:0:0:0:
256,192,29770,5,8,1:0:0:0:
256,192,30090,1,0,1:0:0:0:
256,192,30249,1,8,1:0:0:0:
256,192,30568,1,0,1:0:0:0:
256,192,30728,1,8,1:0:0:0:
256,192,30887,1,0,1:0:0:0:
256,192,31047,1,8,1:0:0:0:
256,192,31207,1,8,1:0:0:0:
256,192,31366,1,0,1:0:0:0:
256,192,31685,1,0,1:0:0:0:
256,192,32004,1,8,1:0:0:0:
256,192,32324,5,0,1:0:0:0:
256,192,32643,1,8,1:0:0:0:
256,192,32802,1,0,1:0:0:0:
256,192,33121,1,8,1:0:0:0:
256,192,33441,1,0,1:0:0:0:
256,192,33600,1,0,1:0:0:0:
256,192,33760,1,8,1:0:0:0:
256,192,33919,1,0,1:0:0:0:
256,192,34079,1,8,1:0:0:0:
256,192,34159,1,8,1:0:0:0:
256,192,34239,1,8,1:0:0:0:
256,192,34398,1,0,1:0:0:0:
256,192,34558,1,12,1:0:0:0:
256,192,34877,1,12,1:0:0:0:
256,192,35196,5,0,1:0:0:0:
256,192,35515,1,8,1:0:0:0:
256,192,35675,1,0,1:0:0:0:
256,192,35834,1,8,1:0:0:0:
256,192,36153,1,8,1:0:0:0:
256,192,36313,1,8,1:0:0:0:
256,192,36473,1,0,1:0:0:0:
256,192,36632,1,0,1:0:0:0:
256,192,36792,1,0,1:0:0:0:
256,192,37111,1,12,1:0:0:0:
256,192,37430,1,12,1:0:0:0:
256,192,37749,1,0,1:0:0:0:
256,192,37909,1,0,1:0:0:0:
256,192,38068,1,8,1:0:0:0:
256,192,38387,1,0,1:0:0:0:
256,192,38707,1,8,1:0:0:0:
256,192,38866,1,0,1:0:0:0:
256,192,39185,1,8,1:0:0:0:
256,192,39345,1,0,1:0:0:0:
256,192,39664,1,12,1:0:0:0:
256,192,39983,1,12,1:0:0:0:
256,192,40302,1,0,1:0:0:0:
256,192,40621,1,8,1:0:0:0:
256,192,40941,1,0,1:0:0:0:
256,192,41100,1,0,1:0:0:0:
256,192,41260,1,8,1:0:0:0:
256,192,41419,1,8,1:0:0:0:
256,192,41579,1,0,1:0:0:0:
256,192,41898,1,8,1:0:0:0:
256,192,42217,1,8,1:0:0:0:
256,192,42377,1,0,1:0:0:0:
256,192,42536,1,12,1:0:0:0:
256,192,42856,1,0,1:0:0:0:
256,192,43175,1,8,1:0:0:0:
256,192,43494,1,0,1:0:0:0:
256,192,43653,1,0,1:0:0:0:
256,192,43813,1,8,1:0:0:0:
256,192,44132,1,0,1:0:0:0:
256,192,44451,1,0,1:0:0:0:
256,192,44611,1,0,1:0:0:0:
256,192,44770,1,12,1:0:0:0:
256,192,45090,1,12,1:0:0:0:
256,192,45409,5,0,1:0:0:0:
256,192,45728,1,0,1:0:0:0:
256,192,45887,1,0,1:0:0:0:
256,192,45967,1,0,1:0:0:0:
256,192,46047,1,0,1:0:0:0:
256,192,46207,1,8,1:0:0:0:
256,192,46526,1,8,1:0:0:0:
256,192,46685,1,8,1:0:0:0:
256,192,46845,1,0,1:0:0:0:
256,192,47004,1,0,1:0:0:0:
256,192,47324,1,12,1:0:0:0:
256,192,47643,1,12,1:0:0:0:
256,192,47962,1,0,1:0:0:0:
256,192,48121,1,0,1:0:0:0:
256,192,48201,1,0,1:0:0:0:
256,192,48281,1,0,1:0:0:0:
256,192,48441,1,8,1:0:0:0:
256,192,48600,1,0,1:0:0:0:
256,192,48760,1,8,1:0:0:0:
256,192,49079,1,8,1:0:0:0:
256,192,49239,1,0,1:0:0:0:
256,192,49398,1,0,1:0:0:0:
256,192,49558,1,0,1:0:0:0:
256,192,49877,1,12,1:0:0:0:
256,192,50196,1,12,1:0:0:0:
256,192,50515,5,0,1:0:0:0:
256,192,50834,1,0,1:0:0:0:
256,192,50994,1,0,1:0:0:0:
256,192,51153,1,8,1:0:0:0:
256,192,51313,1,8,1:0:0:0:
256,192,51632,1,0,1:0:0:0:
256,192,51792,1,8,1:0:0:0:
256,192,52111,1,0,1:0:0:0:
256,192,52191,1,0,1:0:0:0:
256,192,52270,1,0,1:0:0:0:
256,192,52430,1,8,1:0:0:0:
256,192,52749,1,12,1:0:0:0:
256,192,53068,1,0,1:0:0:0:
256,192,53387,1,0,1:0:0:0:
256,192,53547,1,0,1:0:0:0:
256,192,53707,1,8,1:0:0:0:
256,192,54026,1,8,1:0:0:0:
256,192,54345,1,0,1:0:0:0:
256,192,54664,1,0,1:0:0:0:
256,192,54824,1,0,1:0:0:0:
256,192,54983,1,8,1:0:0:0:
256,192,55302,1,8,1:0:0:0:
256,192,55621,1,0,1:0:0:0:
256,192,55781,1,8,1:0:0:0:
256,192,55861,1,8,1:0:0:0:
256,192,55941,1,8,1:0:0:0:
256,192,56100,1,0,1:0:0:0:
256,192,56260,1,8,1:0:0:0:
256,192,56579,1,4,1:0:0:0:
256,192,57856,5,12,1:0:0:0:
256,192,58175,1,0,1:0:0:0:
256,192,58334,1,0,1:0:0:0:
256,192,58494,1,8,1:0:0:0:
256,192,58653,1,0,1:0:0:0:
256,192,58813,1,8,1:0:0:0:
256,192,59132,1,8,1:0:0:0:
256,192,59292,1,0,1:0:0:0:
256,192,59451,1,8,1:0:0:0:
256,192,59531,1,8,1:0:0:0:
256,192,59611,1,8,1:0:0:0:
256,192,59770,1,0,1:0:0:0:
256,192,59930,1,0,1:0:0:0:
256,192,60090,1,8,1:0:0:0:
256,192,60409,1,8,1:0:0:0:
256,192,60728,1,8,1:0:0:0:
256,192,61047,1,0,1:0:0:0:
256,192,61207,1,0,1:0:0:0:
256,192,61366,1,8,1:0:0:0:
256,192,61685,1,0,1:0:0:0:
256,192,61845,1,0,1:0:0:0:
256,192,62004,1,8,1:0:0:0:
256,192,62164,1,0,1:0:0:0:
256,192,62244,1,0,1:0:0:0:
256,192,62324,1,0,1:0:0:0:
256,192,62483,1,0,1:0:0:0:
256,192,62643,1,8,1:0:0:0:
256,192,62962,5,4,1:0:0:0:
256,192,63281,1,8,1:0:0:0:
256,192,63441,1,8,1:0:0:0:
256,192,63600,1,0,1:0:0:0:
256,192,63760,1,0,1:0:0:0:
256,192,63919,1,8,1:0:0:0:
256,192,64239,1,0,1:0:0:0:
256,192,64398,1,0,1:0:0:0:
256,192,64558,1,8,1:0:0:0:
256,192,64637,1,8,1:0:0:0:
256,192,64717,1,8,1:0:0:0:
256,192,64877,1,0,1:0:0:0:
256,192,65036,1,0,1:0:0:0:
256,192,65196,1,8,1:0:0:0:
256,192,65515,1,8,1:0:0:0:
256,192,65834,1,0,1:0:0:0:
256,192,66153,1,0,1:0:0:0:
256,192,66313,1,0,1:0:0:0:
256,192,66473,1,8,1:0:0:0:
256,192,66792,1,0,1:0:0:0:
256,192,66951,1,8,1:0:0:0:
256,192,67031,1,8,1:0:0:0:
256,192,67111,1,8,1:0:0:0:
256,192,67270,1,0,1:0:0:0:
256,192,67430,1,0,1:0:0:0:
256,192,67590,1,8,1:0:0:0:
256,192,67669,1,8,1:0:0:0:
256,192,67749,1,8,1:0:0:0:
256,192,68068,5,12,1:0:0:0:
256,192,68387,1,0,1:0:0:0:
256,192,68547,1,0,1:0:0:0:
256,192,68707,1,8,1:0:0:0:
256,192,68866,1,0,1:0:0:0:
256,192,69026,1,8,1:0:0:0:
256,192,69345,1,8,1:0:0:0:
256,192,69504,1,0,1:0:0:0:
256,192,69664,1,8,1:0:0:0:
256,192,69744,1,8,1:0:0:0:
256,192,69824,1,8,1:0:0:0:
256,192,69983,1,0,1:0:0:0:
256,192,70143,1,0,1:0:0:0:
256,192,70302,1,8,1:0:0:0:
256,192,70621,1,0,1:0:0:0:
256,192,70941,1,8,1:0:0:0:
256,192,71260,1,8,1:0:0:0:
256,192,71419,1,0,1:0:0:0:
256,192,71579,1,8,1:0:0:0:
256,192,71898,1,0,1:0:0:0:
256,192,72058,1,0,1:0:0:0:
256,192,72217,1,8,1:0:0:0:
256,192,72377,1,8,1:0:0:0:
256,192,72536,1,0,1:0:0:0:
256,192,72616,1,0,1:0:0:0:
256,192,72696,1,0,1:0:0:0:
256,192,72856,1,8,1:0:0:0:
256,192,73175,5,12,1:0:0:0:
256,192,73494,1,0,1:0:0:0:
256,192,73653,1,0,1:0:0:0:
256,192,73813,1,8,1:0:0:0:
256,192,73973,1,8,1:0:0:0:
256,192,74132,1,0,1:0:0:0:
256,192,74451,1,0,1:0:0:0:
256,192,74611,1,0,1:0:0:0:
256,192,74770,1,8,1:0:0:0:
256,192,74850,1,8,1:0:0:0:
256,192,74930,1,8,1:0:0:0:
256,192,75090,1,0,1:0:0:0:
256,192,75249,1,0,1:0:0:0:
256,192,75409,1,8,1:0:0:0:
256,192,75728,1,8,1:0:0:0:
256,192,76047,1,8,1:0:0:0:
256,192,76207,1,0,1:0:0:0:
256,192,76366,1,8,1:0:0:0:
256,192,76526,1,0,1:0:0:0:
256,192,76685,1,8,1:0:0:0:
256,192,77004,5,0,1:0:0:0:
256,192,77324,1,8,1:0:0:0:
256,192,77430,1,8,1:0:0:0:
256,192,77536,1,8,1:0:0:0:
256,192,77643,1,8,1:0:0:0:
256,192,77962,1,0,1:0:0:0:
256,192,78281,5,12,1:0:0:0:
256,192,78600,1,0,1:0:0:0:
256,192,78919,1,8,1:0:0:0:
256,192,79558,1,8,1:0:0:0:
256,192,80196,1,0,1:0:0:0:
256,192,80515,1,0,1:0:0:0:
256,192,80834,1,8,1:0:0:0:
256,192,81153,1,0,1:0:0:0:
256,192,81473,1,8,1:0:0:0:
256,192,81792,1,8,1:0:0:0:
256,192,82111,1,8,1:0:0:0:
256,192,83068,1,0,1:0:0:0:
256,192,83387,1,8,1:0:0:0:
256,192,83707,1,0,1:0:0:0:
256,192,84026,1,8,1:0:0:0:
256,192,84345,1,8,1:0:0:0:
256,192,84664,1,0,1:0:0:0:
256,192,85302,1,0,1:0:0:0:
256,192,85621,1,0,1:0:0:0:
256,192,85941,1,8,1:0:0:0:
256,192,86260,1,8,1:0:0:0:
256,192,86579,1,0,1:0:0:0:
256,192,86898,1,0,1:0:0:0:
256,192,87217,1,8,1:0:0:0:
