osu file format v14

[General]
AudioFilename: audio.mp3
AudioLeadIn: 0
PreviewTime: 57813
Countdown: 0
SampleSet: Soft
StackLeniency: 0.7
Mode: 2
LetterboxInBreaks: 0
WidescreenStoryboard: 1

[Editor]
DistanceSpacing: 2.5
BeatDivisor: 4
GridSize: 4
TimelineZoom: 2.2

[Metadata]
Title:Kessen Spirit (TV Size)
TitleUnicode:決戦スピリット (TV Size)
Artist:CHiCO with HoneyWorks
ArtistUnicode:CHiCO with HoneyWorks
Creator:4rcheR-
Version:Overdose
Source:ハイキュー!! TO THE TOP
Tags:archer Japanese anime chiko haniwa haikyu!! haikyuu!! Ed ending Sports Volleyball fourth season 4 バレーボール female vocal miya twins atsumu osamu 宮侑 宮治 Kita Shinsuke 北 信介 Hinata Shoyou 日向翔陽 Kageyama Tobio 影山飛雄 Kozume Kenma 孤爪研磨 Kuroo Tetsurou 黒尾鉄朗 ねこま Bokuto Koutarou 木兎 光太郎 梟谷 Hoshiumi Korai 星海光来 Tsukishima Kei 月島 蛍 block Wing Spiker middle blocker opposite setter libero pop jpop j-pop nekoma Karasuno inarzaki Kamomedai high Fukuroudani Academy 稲荷崎 烏野 音駒 鴎台 高校 梟谷学園
BeatmapID:3199416
BeatmapSetID:1566926

[Difficulty]
HPDrainRate:6
CircleSize:4.3
OverallDifficulty:9.3
ApproachRate:9.3
SliderMultiplier:2
SliderTickRate:2

[Events]
//Background and Video events
0,0,"bg5.jpg",0,0
Video,-255,"haikyuu to the top ed1.mp4"
//Break Periods
//Storyboard Layer 0 (Background)
//Storyboard Layer 1 (Fail)
//Storyboard Layer 2 (Pass)
//Storyboard Layer 3 (Foreground)
//Storyboard Layer 4 (Overlay)
//Storyboard Sound Samples

[TimingPoints]
407,319.148936170213,4,2,22,25,1,0
726,-100,4,2,22,25,0,0
1045,-100,4,2,22,30,0,0
1364,-100,4,2,22,35,0,0
1683,-100,4,2,22,40,0,0
2002,-100,4,2,22,45,0,0
2321,-100,4,2,22,50,0,0
2641,-100,4,2,22,55,0,0
2960,-100,4,2,22,60,0,0
3740,319.148936170213,4,2,22,60,1,0
3910,338.983050847458,4,2,22,60,1,0
4164,-100,4,2,22,5,0,0
4236,319.148936170213,4,2,22,80,1,0
14448,-100,4,2,22,60,0,0
24661,-100,4,2,22,65,0,0
32241,-100,4,2,22,5,0,0
32321,-100,4,2,22,65,0,0
34873,-100,4,2,22,70,0,0
40220,-100,4,2,22,5,0,0
40299,-100,4,2,22,70,0,0
40539,-100,4,2,22,5,0,0
40618,-100,4,2,22,70,0,0
42454,-100,4,2,22,5,0,0
42533,-100,4,2,22,70,0,0
42773,-100,4,2,22,5,0,0
42853,-100,4,2,22,70,0,0
43092,-100,4,2,22,5,0,0
43172,-100,4,2,22,70,0,0
45086,-100,4,2,22,65,0,0
47560,-100,4,2,22,5,0,0
47640,-100,4,2,22,65,0,0
50113,-100,4,2,22,5,0,0
50193,-100,4,2,22,65,0,0
55299,-100,4,2,22,70,0,0
56496,-100,4,2,22,5,0,0
56576,-100,4,2,22,75,0,0
57853,-100,4,2,22,80,0,1
60645,-100,4,2,22,5,0,1
60725,-100,4,2,22,80,0,1
62879,-100,4,2,22,5,0,1
62959,-100,4,2,22,80,0,1
65432,-100,4,2,22,5,0,1
65512,-100,4,2,22,80,0,1
68065,-100,4,2,22,80,0,1
70858,-100,4,2,22,5,0,1
70938,-100,4,2,22,80,0,1
73092,-100,4,2,22,5,0,1
73172,-100,4,2,22,80,0,1
76922,-100,4,2,22,5,0,1
77001,-100,4,2,22,80,0,1
78278,-100,4,2,22,60,0,0
85938,-100,4,2,22,50,0,0
87214,-133.333333333333,4,2,22,40,0,0
88491,-100,4,2,22,30,0,0
88570,-100,4,2,22,20,0,0

[Colours]
Combo1 : 87,87,87
Combo2 : 191,191,191
Combo3 : 252,213,27

[HitObjects]
256,192,726,12,2,2960,1:2:0:0:
172,192,3119,6,0,L|248:180,1,50,8|8,0:0|0:0,0:0:0:0:
384,152,3279,2,0,L|448:140,1,50,8|8,0:0|0:0,0:0:0:0:
432,144,3438,2,0,L|360:160,1,50,0|0,1:0|1:0,0:0:0:0:
208,136,3598,1,8,1:2:0:0:
304,80,3740,2,0,L|370:79,1,50,0|0,1:0|1:0,0:0:0:0:
152,100,3910,2,0,P|100:156|144:196,1,150,12|0,0:0|0:0,0:0:0:0:
320,184,4236,6,0,L|192:184,1,100,6|0,1:2|1:0,0:0:0:0:
372,184,4555,1,10,0:0:0:0:
140,192,4714,2,0,P|80:140|170:82,1,200,2|0,1:2|1:0,0:0:0:0:
300,72,5193,2,0,L|164:72,1,100,10|2,0:0|0:0,0:0:0:0:
452,192,5512,6,0,L|452:312,1,100,2|0,1:2|1:0,0:0:0:0:
304,192,5831,1,10,0:0:0:0:
72,200,5991,2,0,L|16:216,1,50,2|8,1:2|1:2,0:0:0:0:
80,148,6150,2,0,L|196:124,1,100,0|0,1:0|1:0,0:0:0:0:
328,124,6470,2,0,L|212:148,1,100,10|0,0:0|0:0,0:0:0:0:
480,264,6789,6,0,L|480:144,1,100,2|0,1:2|1:0,0:0:0:0:
328,156,7108,1,10,0:0:0:0:
96,156,7267,2,0,L|304:56,1,200,2|0,1:2|1:0,0:0:0:0:
128,84,7746,2,0,L|128:200,1,100,10|0,0:0|0:0,0:0:0:0:
380,104,8065,5,2,1:2:0:0:
228,104,8225,1,0,1:0:0:0:
476,104,8384,2,0,L|476:240,1,100,14|0,0:0|0:0,0:0:0:0:
236,280,8704,1,2,1:2:0:0:
388,280,8864,1,0,1:0:0:0:
124,280,9023,2,0,L|124:144,1,100,14|2,0:0|0:0,0:0:0:0:
408,176,9342,6,0,L|280:176,1,100,6|0,1:2|1:0,0:0:0:0:
456,176,9661,1,10,0:0:0:0:
224,180,9821,2,0,P|164:128|236:64,1,200,2|0,1:2|1:0,0:0:0:0:
384,76,10299,2,0,L|384:192,1,100,10|0,0:0|0:0,0:0:0:0:
132,176,10618,6,0,L|132:292,1,100,2|0,1:2|1:0,0:0:0:0:
284,280,10938,1,10,0:0:0:0:
52,280,11097,2,0,L|52:224,1,50,2|8,1:2|1:2,0:0:0:0:
108,236,11257,2,0,L|240:236,1,100,0|0,1:0|1:0,0:0:0:0:
360,236,11576,2,0,L|360:104,1,100,10|0,0:0|0:0,0:0:0:0:
108,164,11895,6,0,L|108:32,1,100,2|0,1:2|1:0,0:0:0:0:
340,64,12214,2,0,L|232:64,1,100,10|2,0:0|1:2,0:0:0:0:
472,64,12533,2,0,L|356:64,1,100,8|0,0:0|1:0,0:0:0:0:
88,60,12853,2,0,L|200:60,1,100,14|0,0:0|1:0,0:0:0:0:
436,164,13172,5,8,1:2:0:0:
492,212,13251,1,8,0:0:0:0:
482,281,13331,1,8,0:0:0:0:
418,304,13411,1,8,0:0:0:0:
252,304,13491,2,0,L|177:304,1,50,8|0,1:2|1:0,0:0:0:0:
256,304,13650,1,8,0:0:0:0:
312,304,13730,1,8,0:0:0:0:
148,304,13810,2,0,L|149:243,1,50,8|0,1:2|1:0,0:0:0:0:
316,252,13970,2,0,L|390:252,1,50,8|0,0:0|1:0,0:0:0:0:
200,240,14129,1,8,0:0:0:0:
164,200,14209,1,8,0:0:0:0:
184,148,14289,1,8,0:0:0:0:
236,128,14368,1,8,0:0:0:0:
436,184,14448,6,0,P|488:140|420:32,1,200,6|10,1:2|0:0,0:0:0:0:
332,32,14927,2,0,L|208:32,1,100,2|0,1:2|1:0,0:0:0:0:
384,32,15246,2,0,L|488:32,1,100,2|8,1:2|0:0,0:0:0:0:
232,32,15565,6,0,P|176:112|252:168,1,200,2|0,0:0|1:0,0:0:0:0:
386,138,16044,2,0,L|382:254,1,100,8|0,0:0|1:0,0:0:0:0:
328,236,16283,1,8,1:2:0:0:
272,236,16363,2,0,L|166:235,1,100,2|0,1:2|1:0,0:0:0:0:
322,237,16682,2,0,L|324:128,1,100,10|0,0:0|0:0,0:0:0:0:
44,360,17001,6,0,P|80:280|208:240,1,200,2|10,1:2|0:0,0:0:0:0:
288,236,17480,2,0,L|288:124,1,100,2|0,1:2|1:0,0:0:0:0:
140,160,17799,2,0,L|140:40,1,100,2|8,1:2|0:0,0:0:0:0:
292,64,18118,1,2,0:0:0:0:
40,68,18278,6,0,L|40:192,1,100,0|0,1:0|1:0,0:0:0:0:
192,176,18597,2,0,L|332:228,1,150,10|8,0:0|1:2,0:0:0:0:
376,192,18916,1,0,1:0:0:0:
376,136,18996,1,8,1:2:0:0:
328,112,19076,1,0,1:0:0:0:
176,120,19236,2,0,L|176:240,1,100,8|0,0:0|0:0,0:0:0:0:
456,232,19555,6,0,L|240:228,1,200,6|10,1:2|0:0,0:0:0:0:
142,128,20033,2,0,L|142:235,1,100,2|0,1:2|1:0,0:0:0:0:
292,228,20353,2,0,L|410:229,1,100,2|8,1:2|0:0,0:0:0:0:
140,228,20672,6,0,P|80:166|154:113,1,200,2|0,0:0|1:0,0:0:0:0:
304,120,21150,2,0,L|156:120,1,100,8|0,0:0|1:0,0:0:0:0:
316,172,21470,2,0,L|317:57,1,100,2|0,1:2|1:0,0:0:0:0:
168,64,21789,2,0,L|60:64,1,100,10|0,0:0|0:0,0:0:0:0:
320,56,22108,6,0,P|392:112|328:168,1,200,2|10,1:2|0:0,0:0:0:0:
220,180,22587,2,0,L|220:292,1,100,2|0,0:0|1:0,0:0:0:0:
372,280,22906,2,0,L|372:160,1,100,2|8,1:2|0:0,0:0:0:0:
224,208,23225,2,0,L|167:241,1,50,2|0,0:0|0:0,0:0:0:0:
356,276,23384,6,0,L|464:224,1,100,0|0,1:0|1:0,0:0:0:0:
192,172,23704,1,12,0:0:0:0:
300,172,23863,1,0,0:0:0:0:
68,172,24023,1,0,1:0:0:0:
176,172,24182,1,8,0:0:0:0:
408,168,24342,1,8,0:0:0:0:
180,176,24501,2,0,L|120:176,1,50,8|8,0:0|0:0,0:0:0:0:
324,172,24661,6,0,P|400:128|324:48,1,200,6|10,1:2|0:0,0:0:0:0:
244,64,25140,2,0,L|116:64,1,100,2|0,0:0|1:0,0:0:0:0:
296,64,25459,2,0,L|168:64,1,100,2|8,1:2|0:0,0:0:0:0:
428,68,25778,1,2,0:0:0:0:
128,64,25938,6,0,L|124:176,1,100,0|0,1:0|1:0,0:0:0:0:
356,156,26257,2,0,L|356:272,1,100,8|0,0:0|0:0,0:0:0:0:
204,260,26576,2,0,L|88:260,1,100,2|0,1:2|1:0,0:0:0:0:
336,264,26895,2,0,L|436:264,1,100,10|0,0:0|0:0,0:0:0:0:
184,264,27214,6,0,P|128:184|196:120,1,200,2|10,1:2|0:0,0:0:0:0:
300,120,27693,2,0,L|300:240,1,100,2|0,0:0|1:0,0:0:0:0:
148,212,28012,2,0,L|144:332,1,100,2|8,1:2|0:0,0:0:0:0:
296,312,28331,1,2,0:0:0:0:
44,311,28491,6,0,L|44:192,1,100,0|0,1:0|1:0,0:0:0:0:
192,196,28810,2,0,L|80:196,1,100,8|0,0:0|0:0,0:0:0:0:
324,196,29129,2,0,L|328:80,1,100,0|0,1:0|1:0,0:0:0:0:
176,72,29448,2,0,L|64:72,1,100,8|0,0:0|0:0,0:0:0:0:
356,168,29767,6,0,P|416:116|344:40,1,200,2|10,1:2|0:0,0:0:0:0:
120,56,30246,2,0,L|116:184,1,100,2|0,0:0|1:0,0:0:0:0:
268,172,30565,2,0,L|268:296,1,100,2|8,1:2|0:0,0:0:0:0:
120,256,30884,1,2,0:0:0:0:
372,264,31044,6,0,L|372:156,1,100,0|0,1:0|1:0,0:0:0:0:
140,256,31363,2,0,L|136:140,1,100,8|0,0:0|0:0,0:0:0:0:
248,156,31682,1,2,1:2:0:0:
360,156,31842,1,0,1:0:0:0:
132,160,32001,2,0,P|100:96|148:32,1,150,10|0,0:0|0:0,0:0:0:0:
332,32,32321,6,0,P|388:112|320:172,1,200,6|10,1:2|0:0,0:0:0:0:
216,172,32799,2,0,L|216:288,1,100,2|0,0:0|1:0,0:0:0:0:
368,276,33118,2,0,L|240:276,1,100,2|8,1:2|0:0,0:0:0:0:
420,276,33438,1,2,0:0:0:0:
140,336,33597,6,0,L|80:336,1,50,4|8,1:2|0:0,0:0:0:0:
256,336,33757,2,0,L|313:334,1,50,8|8,0:0|0:0,0:0:0:0:
140,336,33916,2,0,L|80:336,1,50,2|0,1:2|0:0,0:0:0:0:
90,336,34076,2,0,L|148:336,1,50,10|8,0:0|0:0,0:0:0:0:
305,334,34236,2,0,L|304:208,1,100,2|2,1:2|1:2,0:0:0:0:
152,228,34555,2,0,L|24:228,1,100,2|2,1:2|1:2,0:0:0:0:
332,220,34874,6,0,P|398:168|314:136,1,200,6|2,1:2|1:2,0:0:0:0:
212,124,35353,1,2,0:0:0:0:
360,128,35512,2,0,L|360:240,1,100,10|2,0:0|1:2,0:0:0:0:
208,224,35831,2,0,L|312:224,1,100,2|10,1:2|0:0,0:0:0:0:
364,224,36071,1,0,0:0:0:0:
188,188,36150,6,0,L|88:188,1,100,2|10,1:2|0:0,0:0:0:0:
248,184,36470,2,0,L|148:184,1,100,2|2,1:2|1:2,0:0:0:0:
380,172,36789,2,0,L|380:280,1,100,10|0,0:0|1:0,0:0:0:0:
324,272,37028,1,0,1:0:0:0:
268,272,37108,1,2,1:2:0:0:
500,280,37267,1,8,0:0:0:0:
220,280,37427,6,0,P|156:244|232:176,1,200,6|2,1:2|1:2,0:0:0:0:
332,176,37906,1,2,0:0:0:0:
184,176,38065,2,0,L|180:56,1,100,10|0,0:0|1:0,0:0:0:0:
332,76,38384,2,0,L|444:52,1,100,2|2,1:2|1:2,0:0:0:0:
148,192,38704,5,14,1:2:0:0:
281,192,38863,2,0,L|417:192,1,100,2|0,1:2|1:0,0:0:0:0:
148,192,39182,1,14,1:2:0:0:
380,208,39342,2,0,P|440:160|364:80,1,200,2|10,0:0|0:0,0:0:0:0:
324,80,39741,1,8,0:0:0:0:
148,84,39821,2,0,L|232:80,1,50,8|8,0:0|0:0,0:0:0:0:
388,80,39980,6,0,P|440:120|380:148,1,150,6|0,1:2|0:0,0:0:0:0:
224,172,40299,2,0,P|188:248|224:312,1,150,2|0,1:2|0:0,0:0:0:0:
376,316,40618,2,0,L|480:316,1,100,10|0,0:0|1:0,0:0:0:0:
324,316,40938,1,2,1:2:0:0:
216,320,41097,1,10,0:0:0:0:
468,316,41257,6,0,L|468:204,1,100,2|10,1:2|0:0,0:0:0:0:
316,212,41576,2,0,L|204:176,1,100,2|2,1:2|1:2,0:0:0:0:
372,164,41895,1,8,0:0:0:0:
372,164,42055,1,0,1:0:0:0:
140,252,42214,2,0,P|100:208|160:144,1,150,2|0,1:2|0:0,0:0:0:0:
336,148,42533,6,0,L|172:188,1,150,6|0,1:2|0:0,0:0:0:0:
360,188,42853,2,0,P|408:152|348:88,1,150,2|0,1:2|0:0,0:0:0:0:
192,92,43172,2,0,L|72:92,1,100,14|0,0:0|1:0,0:0:0:0:
244,92,43491,1,2,1:2:0:0:
352,92,43650,1,8,0:0:0:0:
72,100,43810,6,0,L|248:168,2,150,6|0|0,1:2|1:0|1:0,0:0:0:0:
324,176,44448,2,0,P|352:136|311:81,1,100,10|8,0:0|0:0,0:0:0:0:
280,76,44688,1,8,0:0:0:0:
116,80,44767,2,0,L|180:80,1,50,2|8,1:2|0:0,0:0:0:0:
332,80,44927,2,0,L|396:80,1,50,8|8,0:0|0:0,0:0:0:0:
188,288,45087,6,0,P|120:248|200:188,1,200,6|10,1:2|0:0,0:0:0:0:
296,180,45565,1,0,0:0:0:0:
404,168,45725,2,0,L|404:56,1,100,2|2,1:2|1:2,0:0:0:0:
180,196,46044,1,10,0:0:0:0:
464,192,46204,6,0,L|256:192,1,200,6|2,1:2|1:2,0:0:0:0:
32,196,46682,2,0,L|32:308,1,100,10|0,0:0|0:0,0:0:0:0:
184,296,47001,2,0,L|60:296,1,100,0|0,1:0|1:0,0:0:0:0:
316,196,47321,2,0,P|360:140|300:80,1,150,10|0,0:0|0:0,0:0:0:0:
128,72,47640,6,0,L|240:72,1,100,6|0,1:2|1:0,0:0:0:0:
380,72,47959,2,0,L|380:184,1,100,10|2,0:0|1:2,0:0:0:0:
324,168,48198,1,8,1:2:0:0:
268,172,48278,2,0,L|152:172,1,100,2|2,1:2|1:2,0:0:0:0:
400,172,48597,1,10,0:0:0:0:
120,88,48757,6,0,P|52:156|120:208,1,200,6|2,1:2|1:2,0:0:0:0:
344,212,49236,2,0,L|220:212,1,100,10|0,0:0|0:0,0:0:0:0:
132,212,49555,2,0,L|132:100,1,100,0|0,1:0|1:0,0:0:0:0:
364,108,49874,2,0,P|408:176|364:220,1,150,10|0,0:0|0:0,0:0:0:0:
180,216,50193,6,0,L|64:212,1,100,6|0,1:2|1:0,0:0:0:0:
232,220,50512,2,0,L|232:104,1,100,10|2,0:0|1:2,0:0:0:0:
168,120,50751,1,8,0:0:0:0:
104,120,50831,2,0,L|104:16,1,100,2|0,1:2|1:0,0:0:0:0:
336,36,51150,1,10,0:0:0:0:
56,40,51310,6,0,L|256:40,1,200,6|2,1:2|1:2,0:0:0:0:
108,60,51789,2,0,L|108:168,1,100,10|0,0:0|0:0,0:0:0:0:
340,164,52108,2,0,L|416:164,1,50,8|8,0:0|0:0,0:0:0:0:
164,164,52267,2,0,L|92:164,1,50,8|8,0:0|0:0,0:0:0:0:
344,208,52427,2,0,L|399:208,1,50,2|0,1:2|1:0,0:0:0:0:
320,264,52587,2,0,L|260:264,1,50,0|0,1:0|1:0,0:0:0:0:
460,204,52746,6,0,L|460:304,1,100,6|0,1:2|1:0,0:0:0:0:
228,308,53065,2,0,L|348:308,1,100,10|0,0:0|1:0,0:0:0:0:
380,308,53305,1,0,1:0:0:0:
328,308,53384,2,0,L|212:308,1,100,0|0,1:0|1:0,0:0:0:0:
460,308,53704,2,0,L|460:192,1,100,10|0,0:0|1:0,0:0:0:0:
408,208,53943,1,0,0:0:0:0:
232,200,54023,6,0,L|232:92,1,100,2|0,1:2|1:0,0:0:0:0:
464,108,54342,2,0,L|332:108,1,100,10|0,0:0|1:0,0:0:0:0:
312,108,54581,1,0,1:0:0:0:
364,108,54661,2,0,L|504:104,1,100,0|0,1:0|1:0,0:0:0:0:
228,108,54980,2,0,L|124:108,1,100,10|0,0:0|0:0,0:0:0:0:
408,108,55299,6,0,L|408:224,1,100,14|0,0:0|1:0,0:0:0:0:
256,212,55618,2,0,L|140:212,1,100,14|0,0:0|1:0,0:0:0:0:
408,224,55938,2,0,L|408:112,1,100,12|0,0:0|1:0,0:0:0:0:
156,108,56257,2,0,P|116:152|160:232,1,150,14|0,0:0|0:0,0:0:0:0:
344,240,56576,6,0,P|400:188|324:100,1,200,6|2,0:0|0:0,0:0:0:0:
88,340,57214,2,0,P|12:284|80:208,1,200,2|2,0:0|0:0,0:0:0:0:
460,192,57853,6,0,L|458:82,1,100,6|0,1:2|0:0,0:0:0:0:
298,92,58172,2,0,L|407:91,1,100,10|0,0:0|0:0,0:0:0:0:
140,188,58491,2,0,P|136:128|272:72,1,200,2|8,1:2|0:0,0:0:0:0:
364,64,58970,1,0,0:0:0:0:
84,56,59129,6,0,L|85:189,1,100,2|0,1:2|1:0,0:0:0:0:
336,160,59448,1,10,0:0:0:0:
212,164,59608,2,0,L|148:164,1,50,0|0,1:0|1:0,0:0:0:0:
372,164,59767,2,0,L|448:252,1,100,2|0,1:2|1:0,0:0:0:0:
184,248,60087,2,0,L|79:247,1,100,10|0,0:0|0:0,0:0:0:0:
364,252,60406,6,0,P|412:204|356:144,1,150,2|0,1:2|0:0,0:0:0:0:
148,144,60725,2,0,L|257:144,1,100,10|0,0:0|0:0,0:0:0:0:
400,144,61044,2,0,L|296:144,1,100,2|0,1:2|1:0,0:0:0:0:
48,144,61363,2,0,L|168:144,1,100,10|0,0:0|0:0,0:0:0:0:
428,144,61682,6,0,L|308:144,1,100,2|0,1:2|1:0,0:0:0:0:
472,144,62001,1,8,0:0:0:0:
332,144,62161,2,0,L|248:144,1,50,0|8,1:0|0:0,0:0:0:0:
69,144,62321,2,0,L|69:256,1,100,2|0,1:2|1:0,0:0:0:0:
321,244,62640,2,0,L|169:244,1,150,10|0,0:0|0:0,0:0:0:0:
372,244,62959,6,0,L|372:136,1,100,6|0,1:2|1:0,0:0:0:0:
212,152,63278,2,0,L|91:153,1,100,10|0,0:0|0:0,0:0:0:0:
364,48,63597,2,0,P|368:144|276:200,1,200,2|8,1:2|0:0,0:0:0:0:
168,184,64076,1,0,0:0:0:0:
448,188,64236,6,0,L|332:188,1,100,2|0,1:2|1:0,0:0:0:0:
96,188,64555,2,0,L|96:80,1,100,8|0,0:0|1:0,0:0:0:0:
153,88,64794,1,8,1:2:0:0:
214,88,64874,2,0,L|106:88,1,100,2|0,1:2|1:0,0:0:0:0:
364,88,65193,2,0,P|388:144|312:200,1,150,10|0,0:0|0:0,0:0:0:0:
132,196,65512,6,0,L|24:196,1,100,6|0,1:2|1:0,0:0:0:0:
284,200,65831,2,0,L|409:200,1,100,10|0,0:0|0:0,0:0:0:0:
232,196,66150,2,0,L|232:84,1,100,2|0,1:2|1:0,0:0:0:0:
484,196,66470,2,0,L|366:200,1,100,10|0,0:0|0:0,0:0:0:0:
84,200,66789,6,0,L|72:80,1,100,6|0,1:2|1:0,0:0:0:0:
324,100,67108,2,0,L|436:100,1,100,8|8,0:0|0:0,0:0:0:0:
172,44,67427,2,0,P|148:96|180:144,1,100,2|8,1:2|0:0,0:0:0:0:
224,136,67666,1,8,0:0:0:0:
400,132,67746,2,0,L|400:218,1,50,8|8,0:0|0:0,0:0:0:0:
232,196,67906,2,0,L|139:198,1,50,8|8,0:0|0:0,0:0:0:0:
384,200,68065,6,0,L|384:76,1,100,6|0,1:2|1:0,0:0:0:0:
224,88,68384,2,0,L|111:42,1,100,10|0,0:0|0:0,0:0:0:0:
384,64,68704,2,0,L|384:172,1,100,2|0,1:2|1:0,0:0:0:0:
132,168,69023,2,0,L|136:288,1,100,10|0,0:0|0:0,0:0:0:0:
416,116,69342,6,0,P|472:144|416:236,1,200,2|8,1:2|0:0,0:0:0:0:
256,216,69821,2,0,L|336:216,1,50,0|0,1:0|1:0,0:0:0:0:
480,216,69980,2,0,L|480:116,1,100,2|0,1:2|1:0,0:0:0:0:
228,124,70299,2,0,L|88:124,1,100,10|0,0:0|0:0,0:0:0:0:
408,124,70618,6,0,P|444:184|404:248,1,150,2|0,1:2|0:0,0:0:0:0:
228,236,70938,2,0,L|112:236,1,100,10|0,0:0|0:0,0:0:0:0:
288,236,71257,2,0,L|288:120,1,100,2|0,1:2|1:0,0:0:0:0:
36,140,71576,2,0,L|32:4,1,100,10|0,0:0|0:0,0:0:0:0:
312,32,71895,6,0,L|452:32,2,100,2|0|8,1:2|1:0|0:0,0:0:0:0:
156,224,72374,2,0,L|224:224,1,50,0|0,1:0|1:0,0:0:0:0:
384,220,72533,2,0,L|388:92,1,100,2|0,1:2|1:0,0:0:0:0:
136,132,72853,2,0,P|80:96|144:48,1,150,10|0,0:0|0:0,0:0:0:0:
320,68,73172,6,0,L|440:68,1,100,6|0,1:2|1:0,0:0:0:0:
160,60,73491,2,0,L|156:164,1,100,10|0,0:0|0:0,0:0:0:0:
316,160,73810,2,0,L|440:160,1,100,2|0,1:2|1:0,0:0:0:0:
164,160,74129,2,0,L|48:160,1,100,10|0,0:0|0:0,0:0:0:0:
344,164,74448,6,0,L|464:164,1,100,2|0,1:2|1:0,0:0:0:0:
192,164,74767,2,0,L|192:272,1,100,8|0,0:0|1:0,0:0:0:0:
252,260,75007,1,8,1:2:0:0:
428,256,75087,2,0,L|308:256,1,100,2|0,1:2|1:0,0:0:0:0:
76,260,75406,2,0,L|72:144,1,100,10|0,0:0|1:0,0:0:0:0:
371,132,75725,6,0,L|370:29,1,100,14|0,0:0|1:0,0:0:0:0:
119,32,76044,2,0,L|4:32,1,100,10|0,0:0|1:0,0:0:0:0:
269,32,76363,2,0,L|152:33,1,100,10|0,0:0|1:0,0:0:0:0:
452,116,76682,2,0,P|492:172|432:232,1,150,14|0,0:0|0:0,0:0:0:0:
248,224,77001,6,0,L|176:224,1,50,2|0,1:2|1:0,0:0:0:0:
264,224,77161,2,0,L|324:224,1,50,0|0,1:0|1:0,0:0:0:0:
120,224,77321,1,8,0:0:0:0:
40,220,77427,1,8,0:0:0:0:
120,212,77533,1,8,0:0:0:0:
336,208,77640,1,0,1:0:0:0:
256,192,77746,1,8,0:0:0:0:
180,176,77852,1,0,1:0:0:0:
396,172,77959,2,0,L|456:172,1,50,0|0,1:0|1:0,0:0:0:0:
272,224,78118,2,0,L|200:226,1,50,0|0,1:0|1:0,0:0:0:0:
424,160,78278,6,0,P|464:216|400:340,1,200,6|2,0:0|0:0,0:0:0:0:
204,300,78916,2,0,L|392:368,1,200,2|0,0:0|0:0,0:0:0:0:
132,356,79555,6,0,P|96:284|192:212,1,200,2|2,0:0|0:0,0:0:0:0:
260,204,80033,1,2,0:0:0:0:
352,204,80193,2,0,P|416:168|348:72,1,200,2|2,0:0|0:0,0:0:0:0:
112,68,80831,6,0,P|56:120|128:208,1,200,2|2,0:0|0:0,0:0:0:0:
336,192,81470,2,0,P|396:268|328:336,1,200,2|0,0:0|0:0,0:0:0:0:
80,336,82108,6,0,L|292:336,1,200,2|2,0:0|0:0,0:0:0:0:
188,336,82587,1,2,0:0:0:0:
100,340,82746,2,0,P|48:292|156:216,1,200,2|2,0:0|0:0,0:0:0:0:
372,196,83384,6,0,L|176:144,1,200,2|2,0:0|0:0,0:0:0:0:
400,148,84023,2,0,L|400:248,1,100,2|0,0:0|0:0,0:0:0:0:
308,248,84342,2,0,L|176:248,1,100,2|0,0:0|0:0,0:0:0:0:
440,248,84661,6,0,P|484:188|412:100,1,200,2|2,0:0|0:0,0:0:0:0:
328,100,85140,1,0,0:0:0:0:
240,100,85299,2,0,L|240:228,1,100,2|0,0:0|0:0,0:0:0:0:
332,200,85618,2,0,L|456:200,1,100,2|0,0:0|0:0,0:0:0:0:
196,328,85938,6,0,P|144:280|216:192,1,200,2|2,0:0|0:0,0:0:0:0:
428,192,86576,2,0,P|488:140|408:68,1,200,2|2,0:0|0:0,0:0:0:0:
228,336,87214,6,0,B|204:269|239:200|301:236|339:213|355:167|358:80|358:80|433:142|463:243|422:322|316:349,1,637.500024318696,2|0,0:0|0:0,0:0:0:0:
