osu file format v14

[General]
AudioFilename: audio.mp3
AudioLeadIn: 0
PreviewTime: 57813
Countdown: 0
SampleSet: Soft
StackLeniency: 0.7
Mode: 2
LetterboxInBreaks: 0
WidescreenStoryboard: 1

[Editor]
DistanceSpacing: 1.1
BeatDivisor: 4
GridSize: 4
TimelineZoom: 2.2

[Metadata]
Title:Kessen Spirit (TV Size)
TitleUnicode:決戦スピリット (TV Size)
Artist:CHiCO with HoneyWorks
ArtistUnicode:CHiCO with HoneyWorks
Creator:4rcheR-
Version:Cup
Source:ハイキュー!! TO THE TOP
Tags:archer Japanese anime chiko haniwa haikyu!! haikyuu!! Ed ending Sports Volleyball fourth season 4 バレーボール female vocal miya twins atsumu osamu 宮侑 宮治 Kita Shinsuke 北 信介 Hinata Shoyou 日向翔陽 Kageyama Tobio 影山飛雄 Kozume Kenma 孤爪研磨 Kuroo Tetsurou 黒尾鉄朗 ねこま Bokuto Koutarou 木兎 光太郎 梟谷 Hoshiumi Korai 星海光来 Tsukishima Kei 月島 蛍 block Wing Spiker middle blocker opposite setter libero pop jpop j-pop nekoma Karasuno inarzaki Kamomedai high Fukuroudani Academy 稲荷崎 烏野 音駒 鴎台 高校 梟谷学園
BeatmapID:3200850
BeatmapSetID:1566926

[Difficulty]
HPDrainRate:2
CircleSize:2.5
OverallDifficulty:6
ApproachRate:6
SliderMultiplier:1.2
SliderTickRate:1

[Events]
//Background and Video events
0,0,"bg3.jpg",0,0
Video,-255,"haikyuu to the top ed1.mp4"
//Break Periods
//Storyboard Layer 0 (Background)
//Storyboard Layer 1 (Fail)
//Storyboard Layer 2 (Pass)
//Storyboard Layer 3 (Foreground)
//Storyboard Layer 4 (Overlay)
//Storyboard Sound Samples

[TimingPoints]
407,319.148936170213,4,2,22,25,1,0
726,-100,4,2,22,25,0,0
1045,-100,4,2,22,30,0,0
1364,-100,4,2,22,35,0,0
1683,-100,4,2,22,40,0,0
2002,-100,4,2,22,45,0,0
2321,-100,4,2,22,50,0,0
2641,-100,4,2,22,55,0,0
2960,-100,4,2,22,60,0,0
3740,319.148936170213,4,2,22,60,1,0
3910,338.983050847458,4,2,22,60,1,0
4236,319.148936170213,4,2,22,80,1,0
14448,-100,4,2,22,60,0,0
24661,-100,4,2,22,65,0,0
34873,-100,4,2,22,70,0,0
45086,-100,4,2,22,65,0,0
55299,-100,4,2,22,70,0,0
56576,-100,4,2,22,75,0,0
57853,-100,4,2,22,80,0,1
78278,-100,4,2,22,60,0,0
85938,-100,4,2,22,50,0,0
87214,-133.333333333333,4,2,22,40,0,0
88491,-100,4,2,22,30,0,0
88570,-100,4,2,22,20,0,0

[Colours]
Combo1 : 0,128,255
Combo2 : 191,191,191

[HitObjects]
256,192,726,12,12,3910,0:0:0:0:
220,200,4236,6,0,L|348:152,1,120,6|10,1:2|0:0,0:0:0:0:
273,152,4714,2,0,L|129:152,1,120,2|0,1:2|1:0,0:0:0:0:
93,152,5193,1,10,0:0:0:0:
248,176,5512,6,0,B|304:156|304:156|248:132,1,120,2|10,1:2|0:0,0:0:0:0:
188,144,5991,2,0,P|148:112|204:80,1,120,2|0,1:2|1:0,0:0:0:0:
244,88,6470,1,10,0:0:0:0:
400,88,6789,6,0,L|300:176,1,120,2|10,1:2|0:0,0:0:0:0:
252,156,7267,2,0,L|352:240,1,120,2|0,1:2|1:0,0:0:0:0:
404,224,7746,1,10,0:0:0:0:
248,224,8065,5,2,1:2:0:0:
188,228,8225,1,0,1:0:0:0:
128,228,8384,1,14,0:0:0:0:
248,164,8704,1,2,1:2:0:0:
308,164,8863,1,0,1:0:0:0:
368,164,9023,1,14,0:0:0:0:
212,164,9342,6,0,B|140:164|140:164|140:88,1,120,6|10,1:2|0:0,0:0:0:0:
200,116,9821,2,0,B|352:116,1,120,2|0,1:2|1:0,0:0:0:0:
380,116,10299,1,10,0:0:0:0:
224,116,10618,6,0,B|168:116|168:116|232:152,1,120,2|10,1:2|0:0,0:0:0:0:
280,128,11097,2,0,P|320:184|264:228,1,120,2|0,1:2|1:0,0:0:0:0:
236,224,11576,1,10,0:0:0:0:
80,228,11895,6,0,L|232:152,1,120,2|10,1:2|0:0,0:0:0:0:
308,164,12533,2,0,L|415:217,1,120,8|14,0:0|0:0,0:0:0:0:
260,212,13172,6,0,L|112:304,1,120,8|8,1:2|1:2,0:0:0:0:
280,276,13810,2,0,L|352:312,2,60,8|8|8,1:2|0:0|0:0,0:0:0:0:
128,304,14448,6,0,P|91:262|152:215,1,120,6|10,1:2|0:0,0:0:0:0:
176,208,14927,2,0,L|328:208,1,120,2|2,1:2|1:2,0:0:0:0:
188,208,15565,6,0,P|131:183|200:111,1,180,2|8,0:0|0:0,0:0:0:0:
292,208,16363,2,0,L|152:161,1,120,2|10,1:2|0:0,0:0:0:0:
332,136,17001,6,0,P|364:96|324:48,1,120,2|10,1:2|0:0,0:0:0:0:
272,56,17480,2,0,L|164:132,1,120,2|2,1:2|1:2,0:0:0:0:
68,140,18118,6,0,P|28:216|104:256,1,180,2|10,0:0|0:0,0:0:0:0:
204,260,18916,2,0,L|339:259,1,120,0|8,1:0|0:0,0:0:0:0:
168,324,19555,6,0,L|23:323,1,120,6|10,1:2|0:0,0:0:0:0:
101,323,20033,2,0,L|250:320,1,120,2|2,1:2|1:2,0:0:0:0:
112,204,20672,6,0,P|88:155|188:88,1,180,2|8,0:0|0:0,0:0:0:0:
276,80,21470,2,0,L|436:80,1,120,2|10,1:2|0:0,0:0:0:0:
240,84,22108,6,0,L|116:161,1,120,2|10,1:2|0:0,0:0:0:0:
192,160,22587,2,0,L|340:160,1,120,2|2,0:0|1:2,0:0:0:0:
204,168,23225,6,0,P|142:239|207:280,1,180,2|12,0:0|0:0,0:0:0:0:
300,272,24023,2,0,L|368:216,2,60,0|8|8,1:0|0:0|0:0,0:0:0:0:
144,272,24661,6,0,P|164:212|236:180,1,120,6|10,1:2|0:0,0:0:0:0:
268,176,25140,2,0,P|332:164|340:100,2,120,2|2|2,0:0|1:2|0:0,0:0:0:0:
208,176,25938,5,0,1:0:0:0:
168,148,26097,1,0,1:0:0:0:
208,124,26257,1,8,0:0:0:0:
330,128,26576,2,0,P|370:176|322:224,1,120,2|10,1:2|0:0,0:0:0:0:
188,228,27214,6,0,L|340:228,1,120,2|10,1:2|0:0,0:0:0:0:
248,228,27693,2,0,L|113:229,2,120,2|2|2,0:0|1:2|0:0,0:0:0:0:
308,228,28491,6,0,L|308:132,1,60,0|0,1:0|1:0,0:0:0:0:
248,168,28810,1,8,0:0:0:0:
128,168,29129,2,0,P|92:128|140:76,1,120,0|8,1:0|0:0,0:0:0:0:
280,84,29767,6,0,L|406:32,1,120,2|10,1:2|0:0,0:0:0:0:
332,44,30246,2,0,L|165:98,1,120,2|2,0:0|1:2,0:0:0:0:
336,88,30884,1,2,0:0:0:0:
396,92,31044,6,0,L|396:172,1,60,0|0,1:0|1:0,0:0:0:0:
336,148,31363,1,8,0:0:0:0:
216,148,31682,2,0,P|178:184|224:240,1,120,2|10,1:2|0:0,0:0:0:0:
360,240,32321,6,0,P|386:315|352:348,1,120,6|10,1:2|0:0,0:0:0:0:
304,344,32799,2,0,L|188:280,2,120,2|2|2,0:0|1:2|0:0,0:0:0:0:
384,340,33597,6,0,P|396:284|364:208,1,120,4|2,1:2|1:2,0:0:0:0:
316,224,34076,1,10,0:0:0:0:
256,224,34236,1,2,1:2:0:0:
136,224,34555,1,2,1:2:0:0:
292,224,34874,6,0,P|352:208|348:120,1,120,6|2,1:2|1:2,0:0:0:0:
248,176,35512,1,10,0:0:0:0:
192,180,35672,2,0,P|136:164|116:104,1,120,2|10,1:2|0:0,0:0:0:0:
176,72,36150,5,2,1:2:0:0:
296,72,36470,2,0,L|298:153,1,60,2|2,1:2|1:2,0:0:0:0:
236,130,36789,2,0,L|80:134,1,120,10|2,0:0|1:2,0:0:0:0:
272,164,37427,6,0,P|308:200|252:256,1,120,6|2,1:2|1:2,0:0:0:0:
160,244,38065,2,0,L|288:244,1,120,10|2,0:0|1:2,0:0:0:0:
220,244,38544,1,2,1:2:0:0:
144,248,38704,6,0,L|144:188,1,60,14|2,1:2|1:2,0:0:0:0:
264,188,39182,2,0,L|316:136,1,60,14|2,1:2|0:0,0:0:0:0:
182,143,39661,1,10,0:0:0:0:
336,144,39980,5,6,1:2:0:0:
216,144,40299,2,0,P|148:132|124:72,2,120,2|10|2,1:2|0:0|1:2,0:0:0:0:
336,172,41257,5,2,1:2:0:0:
380,132,41416,1,10,0:0:0:0:
328,128,41576,2,0,L|183:126,1,120,2|8,1:2|0:0,0:0:0:0:
88,124,42214,1,2,1:2:0:0:
244,120,42533,6,0,P|276:160|232:200,1,120,6|2,1:2|1:2,0:0:0:0:
112,204,43172,2,0,P|64:256|80:320,1,120,14|2,0:0|1:2,0:0:0:0:
224,288,43810,6,0,L|460:200,1,240,6|10,1:2|0:0,0:0:0:0:
328,344,44767,1,2,1:2:0:0:
172,344,45087,6,0,P|136:304|174:248,1,120,6|10,1:2|0:0,0:0:0:0:
284,248,45725,2,0,P|320:205|283:155,1,120,2|10,1:2|0:0,0:0:0:0:
212,160,46204,6,0,P|144:136|140:72,1,120,6|2,1:2|1:2,0:0:0:0:
192,84,46682,2,0,L|380:179,1,180,10|0,0:0|1:0,0:0:0:0:
292,152,47321,1,10,0:0:0:0:
136,44,47640,6,0,P|93:83|141:134,1,120,6|10,1:2|0:0,0:0:0:0:
240,124,48278,2,0,P|276:174|229:215,1,120,2|10,1:2|0:0,0:0:0:0:
168,208,48757,6,0,P|142:158|186:106,1,120,6|2,1:2|1:2,0:0:0:0:
234,110,49236,2,0,L|58:54,1,180,10|0,0:0|1:0,0:0:0:0:
124,56,49874,1,10,0:0:0:0:
278,161,50193,5,6,1:2:0:0:
398,161,50512,2,0,P|440:140|464:68,1,120,10|2,0:0|1:2,0:0:0:0:
344,52,51150,1,10,0:0:0:0:
264,56,51310,6,0,P|232:108|288:152,1,120,6|2,1:2|1:2,0:0:0:0:
324,152,51789,2,0,L|474:151,1,120,10|8,0:0|0:0,0:0:0:0:
444,76,52427,1,2,1:2:0:0:
288,76,52746,6,0,P|252:140|300:188,1,120,6|10,1:2|0:0,0:0:0:0:
404,180,53384,2,0,L|403:253,1,60,0|0,1:0|1:0,0:0:0:0:
344,240,53704,1,10,0:0:0:0:
188,136,54023,6,0,P|156:196|200:232,1,120,2|10,1:2|0:0,0:0:0:0:
304,232,54661,2,0,L|379:232,1,60,0|0,1:0|1:0,0:0:0:0:
424,232,54980,1,10,0:0:0:0:
268,232,55299,6,0,P|220:192|284:168,1,120,14|14,0:0|0:0,0:0:0:0:
364,164,55938,2,0,P|400:116|348:76,1,120,12|14,0:0|0:0,0:0:0:0:
212,232,56576,6,0,P|176:180|232:151,1,120,6|2,0:0|0:0,0:0:0:0:
328,144,57214,2,0,P|360:108|312:52,1,120,2|2,0:0|0:0,0:0:0:0:
158,55,57853,6,0,P|132:120|164:160,1,120,6|10,1:2|0:0,0:0:0:0:
288,172,58491,2,0,P|396:148|440:84,1,180,2|0,1:2|0:0,0:0:0:0:
356,88,59129,6,0,P|284:116|260:172,1,120,2|10,1:2|0:0,0:0:0:0:
396,324,59767,2,0,P|432:288|380:228,1,120,2|10,1:2|0:0,0:0:0:0:
248,216,60406,6,0,L|112:152,1,120,2|10,1:2|0:0,0:0:0:0:
272,168,61044,2,0,P|312:140|296:64,1,120,2|10,1:2|0:0,0:0:0:0:
152,112,61682,6,0,P|116:156|156:204,1,120,2|8,1:2|0:0,0:0:0:0:
284,196,62321,2,0,L|284:128,1,60,2|0,1:2|1:0,0:0:0:0:
216,140,62640,1,10,0:0:0:0:
60,250,62959,6,0,L|188:310,1,120,6|10,1:2|0:0,0:0:0:0:
300,88,63597,2,0,P|340:160|276:216,1,180,2|0,1:2|0:0,0:0:0:0:
200,256,64236,6,0,P|164:208|204:168,1,120,2|8,1:2|0:0,0:0:0:0:
328,234,64874,2,0,L|464:232,1,120,2|10,1:2|0:0,0:0:0:0:
292,104,65512,6,0,P|252:144|304:180,1,120,6|10,1:2|0:0,0:0:0:0:
420,44,66150,2,0,P|452:80|392:140,1,120,2|10,1:2|0:0,0:0:0:0:
268,164,66789,6,0,P|184:204|176:268,1,120,6|8,1:2|0:0,0:0:0:0:
240,224,67267,1,8,0:0:0:0:
308,220,67427,2,0,P|400:200|424:104,1,180,2|8,1:2|0:0,0:0:0:0:
344,348,68065,6,0,L|208:348,1,120,6|10,1:2|0:0,0:0:0:0:
356,348,68704,2,0,P|384:292|352:240,1,120,2|10,1:2|0:0,0:0:0:0:
204,244,69342,6,0,L|84:164,1,120,2|8,1:2|0:0,0:0:0:0:
236,176,69980,2,0,P|272:144|232:96,1,120,2|10,1:2|0:0,0:0:0:0:
80,56,70618,6,0,P|48:120|84:164,1,120,2|10,1:2|0:0,0:0:0:0:
204,220,71257,2,0,P|244:168|212:128,1,120,2|10,1:2|0:0,0:0:0:0:
64,320,71895,6,0,L|192:324,1,120,2|8,1:2|0:0,0:0:0:0:
316,300,72533,2,0,L|360:340,2,60,2|0|10,1:2|1:0|0:0,0:0:0:0:
160,300,73172,6,0,P|116:256|171:203,1,120,6|10,1:2|0:0,0:0:0:0:
280,204,73810,2,0,P|334:203|382:135,1,120,2|10,1:2|0:0,0:0:0:0:
222,143,74448,6,0,P|190:95|226:55,1,120,2|8,1:2|0:0,0:0:0:0:
358,59,75087,2,0,L|238:103,1,120,2|10,1:2|0:0,0:0:0:0:
92,116,75725,5,14,0:0:0:0:
224,116,76044,1,10,0:0:0:0:
360,112,76363,1,10,0:0:0:0:
224,116,76682,1,14,0:0:0:0:
380,116,77001,5,2,1:2:0:0:
248,116,77321,2,0,L|360:184,2,120,8|0|0,0:0|1:0|1:0,0:0:0:0:
92,116,78278,6,0,P|60:168|100:200,1,120,6|2,0:0|0:0,0:0:0:0:
204,200,78916,2,0,L|336:196,1,120,2|0,0:0|0:0,0:0:0:0:
168,188,79555,6,0,P|137:257|182:291,1,120,2|2,0:0|0:0,0:0:0:0:
220,284,80033,1,2,0:0:0:0:
279,282,80193,2,0,P|332:280|336:192,1,120,2|2,0:0|0:0,0:0:0:0:
200,220,80831,6,0,P|124:212|112:136,1,120,2|2,0:0|0:0,0:0:0:0:
228,184,81470,2,0,L|340:112,1,120,2|0,0:0|0:0,0:0:0:0:
172,192,82108,6,0,P|160:147|227:105,1,120,2|2,0:0|0:0,0:0:0:0:
272,104,82587,1,2,0:0:0:0:
332,104,82746,2,0,P|387:86|394:17,1,120,2|2,0:0|0:0,0:0:0:0:
244,28,83384,6,0,L|115:78,1,120,2|2,0:0|0:0,0:0:0:0:
252,72,84023,2,0,L|368:132,1,120,2|2,0:0|0:0,0:0:0:0:
204,128,84661,6,0,P|164:176|220:208,1,120,2|2,0:0|0:0,0:0:0:0:
256,208,85140,1,0,0:0:0:0:
316,208,85299,2,0,P|352:256|284:288,1,120,2|2,0:0|0:0,0:0:0:0:
160,292,85938,6,0,L|277:233,1,120,2|2,0:0|0:0,0:0:0:0:
388,236,86576,2,0,L|271:295,1,120,2|2,0:0|0:0,0:0:0:0:
136,292,87214,6,0,B|248:295|308:368|308:368|336:292|460:248,1,382.500014591218,2|0,0:0|0:0,0:0:0:0:
