osu file format v14

[General]
AudioFilename: audio.mp3
AudioLeadIn: 0
PreviewTime: 38610
Countdown: 1
SampleSet: Normal
StackLeniency: 0.3
Mode: 0
LetterboxInBreaks: 0
WidescreenStoryboard: 0

[Editor]
Bookmarks: 63229
DistanceSpacing: 1
BeatDivisor: 4
GridSize: 32
TimelineZoom: 3.899998

[Metadata]
Title:Historia
TitleUnicode:ヒストリア
Artist:CHiCO with HoneyWorks
ArtistUnicode:CHiCO with HoneyWorks
Creator:RebellioNlol
Version:Historia
Source:aef
Tags:awafeaff
BeatmapID:1134476
BeatmapSetID:535641

[Difficulty]
HPDrainRate:7
CircleSize:4
OverallDifficulty:8
ApproachRate:9.3
SliderMultiplier:1.8
SliderTickRate:1

[Events]
//Background and Video events
0,0,"osuafe.png",0,0
//Break Periods
//Storyboard Layer 0 (Background)
//Storyboard Layer 1 (Fail)
//Storyboard Layer 2 (Pass)
//Storyboard Layer 3 (Foreground)
//Storyboard Sound Samples

[TimingPoints]
295,326.086956521739,4,1,1,63,1,0
5512,-142.857142857143,4,1,1,63,0,0
15947,-100,4,1,1,63,0,0
34208,-200,4,1,1,63,0,0
39425,-100,4,1,1,63,0,1
49860,-100,4,1,1,63,0,0
60294,-100,4,1,1,100,0,1
65512,-142.857142857143,4,1,1,63,0,0
75947,-100,4,1,1,63,0,0
86381,-1000,4,1,1,63,0,0
93555,-333.333333333333,4,1,1,63,0,0
94208,-200,4,1,1,63,0,0
96164,-250,4,1,1,63,0,0
96816,-200,4,1,1,63,0,0
107251,-100,4,1,1,63,0,0
117686,-333.333333333333,4,1,1,63,0,0
138555,-100,4,1,1,63,0,0
151599,-100,4,1,1,63,0,1
172468,-100,4,1,1,63,0,0
173610,-142.857142857143,4,1,1,63,0,0
174099,-100,4,1,1,63,0,0
176218,-142.857142857143,4,1,1,63,0,0
176708,-100,4,1,1,63,0,0
176952,-142.857142857143,4,1,1,63,0,0
178827,-142.857142857143,4,1,1,63,0,0
179316,-100,4,1,1,63,0,0
181436,-142.857142857143,4,1,1,63,0,0
181925,-100,4,1,1,63,0,0
182903,-100,4,1,1,63,0,1
198637,-100,4,1,1,63,0,0
203773,-100,4,1,1,63,0,0

[HitObjects]
256,192,295,12,0,4860,0:0:0:0:
210,276,5512,5,0,0:0:0:0:
220,67,5675,2,0,L|293:65,1,62.9999980773926,0|0,0:0|0:0,0:0:0:0:
220,163,6001,2,0,P|180:197|97:202,1,125.999996154785,0|0,0:0|0:0,0:0:0:0:
25,157,6490,2,0,P|12:201|22:244,1,62.9999980773926,0|0,0:0|0:0,0:0:0:0:
108,205,6816,1,0,0:0:0:0:
137,116,6979,2,0,B|107:50|32:40,1,125.999996154785,0|0,0:0|0:0,0:0:0:0:
13,218,7468,2,0,P|23:261|53:293,2,62.9999980773926,0|0|0,0:0|0:0|0:0,0:0:0:0:
66,139,7958,1,0,0:0:0:0:
66,139,8121,6,0,P|98:108|111:66,1,62.9999980773926,0|0,0:0|0:0,0:0:0:0:
251,38,8447,2,0,L|189:43,1,62.9999980773926,0|0,0:0|0:0,0:0:0:0:
16,63,8773,2,0,L|128:99,1,94.499997116089,0|0,0:0|0:0,0:0:0:0:
138,102,9099,2,0,P|111:133|102:173,1,62.9999980773926,0|0,0:0|0:0,0:0:0:0:
128,244,9425,5,0,0:0:0:0:
195,176,9588,1,0,0:0:0:0:
78,60,9751,5,0,0:0:0:0:
103,153,9914,1,0,0:0:0:0:
232,92,10077,2,0,L|170:85,1,62.9999980773926,0|0,0:0|0:0,0:0:0:0:
287,199,10403,2,0,L|349:191,1,62.9999980773926,0|0,0:0|0:0,0:0:0:0:
259,106,10729,5,0,0:0:0:0:
199,297,10892,2,0,P|230:291|261:298,1,62.9999980773926,0|0,0:0|0:0,0:0:0:0:
390,263,11218,2,0,P|341:309|334:370,1,125.999996154785,0|0,0:0|0:0,0:0:0:0:
437,348,11708,1,0,0:0:0:0:
437,348,11871,2,0,P|468:347|498:337,1,62.9999980773926,0|0,0:0|0:0,0:0:0:0:
390,263,12197,2,0,B|354:261|354:261|287:272|287:272|244:267,1,125.999996154785,0|0,0:0|0:0,0:0:0:0:
198,337,12686,6,0,L|135:330,2,62.9999980773926,0|0|0,0:0|0:0|0:0,0:0:0:0:
66,255,13175,1,0,0:0:0:0:
66,255,13338,2,0,L|3:261,1,62.9999980773926,0|0,0:0|0:0,0:0:0:0:
135,187,13664,2,0,L|197:192,1,62.9999980773926,0|0,0:0|0:0,0:0:0:0:
370,212,13990,2,0,L|258:248,1,94.499997116089,0|0,0:0|0:0,0:0:0:0:
248,251,14316,2,0,P|275:282|284:322,1,62.9999980773926,0|0,0:0|0:0,0:0:0:0:
166,232,14642,5,0,0:0:0:0:
191,325,14805,1,0,0:0:0:0:
346,232,14968,5,0,0:0:0:0:
321,325,15131,1,0,0:0:0:0:
165,232,15294,2,0,P|127:247|112:272,1,62.9999980773926,0|0,0:0|0:0,0:0:0:0:
99,348,15621,1,0,0:0:0:0:
32,231,15784,1,0,0:0:0:0:
165,232,15947,6,0,L|286:239,1,90,0|0,0:0|0:0,0:0:0:0:
438,327,16273,2,0,L|348:332,1,90,0|0,0:0|0:0,0:0:0:0:
165,232,16599,1,0,0:0:0:0:
232,349,16762,1,0,0:0:0:0:
324,140,16925,1,0,0:0:0:0:
257,257,17088,1,0,0:0:0:0:
373,323,17251,6,0,L|366:222,1,90,0|0,0:0|0:0,0:0:0:0:
139,61,17577,2,0,L|132:162,1,90,0|0,0:0|0:0,0:0:0:0:
126,195,17822,1,0,0:0:0:0:
126,195,17903,1,0,0:0:0:0:
248,139,18066,1,0,0:0:0:0:
17,117,18229,1,0,0:0:0:0:
113,328,18392,1,0,0:0:0:0:
126,195,18555,6,0,L|5:201,1,90,0|0,0:0|0:0,0:0:0:0:
229,339,18881,2,0,L|318:334,1,90,0|0,0:0|0:0,0:0:0:0:
242,206,19208,2,0,P|159:230|130:308,1,135,0|0,0:0|0:0,0:0:0:0:
112,307,19534,2,0,L|106:194,1,90,0|0,0:0|0:0,0:0:0:0:
77,122,19860,1,0,0:0:0:0:
1,233,20023,1,0,0:0:0:0:
187,197,20186,2,0,L|180:96,1,90,0|0,0:0|0:0,0:0:0:0:
77,122,20512,5,0,0:0:0:0:
113,308,20675,1,0,0:0:0:0:
186,196,20838,1,0,0:0:0:0:
1,233,21001,1,0,0:0:0:0:
126,375,21164,6,0,L|226:370,1,90,0|0,0:0|0:0,0:0:0:0:
275,200,21490,2,0,L|185:195,1,90,0|0,0:0|0:0,0:0:0:0:
294,301,21816,2,0,B|360:283|360:283|427:298|431:333,1,135,0|0,0:0|0:0,0:0:0:0:
445,347,22142,2,0,P|440:315|449:247,1,90,0|0,0:0|0:0,0:0:0:0:
275,110,22468,6,0,P|280:142|271:210,1,90,0|0,0:0|0:0,0:0:0:0:
294,301,22794,1,0,0:0:0:0:
450,190,22958,1,0,0:0:0:0:
229,211,23121,2,0,L|109:226,1,90,0|0,0:0|0:0,0:0:0:0:
403,290,23447,2,0,L|492:301,1,90,0|0,0:0|0:0,0:0:0:0:
339,200,23773,5,0,0:0:0:0:
329,383,23936,1,0,0:0:0:0:
492,301,24099,1,0,0:0:0:0:
281,288,24262,1,0,0:0:0:0:
432,384,24425,2,0,L|425:295,1,90,0|0,0:0|0:0,0:0:0:0:
339,200,24751,1,0,0:0:0:0:
207,308,24914,6,0,L|390:293,1,180,0|0,0:0|0:0,0:0:0:0:
408,289,25322,1,0,0:0:0:0:
408,289,25403,2,0,P|393:342|418:400,1,90,0|0,0:0|0:0,0:0:0:0:
496,219,25729,5,0,0:0:0:0:
493,179,25892,5,0,0:0:0:0:
491,140,26055,6,0,L|456:139,7,22.5,0|0|0|0|0|0|0|0,0:0|0:0|0:0|0:0|0:0|0:0|0:0|0:0,0:0:0:0:
487,101,26381,6,0,L|384:96,1,90,0|0,0:0|0:0,0:0:0:0:
333,226,26871,2,0,L|335:283,1,45,0|0,0:0|0:0,0:0:0:0:
408,289,27034,2,0,B|358:280|358:280|261:292|261:292|220:287,1,180,0|0,0:0|0:0,0:0:0:0:
154,343,27523,1,0,0:0:0:0:
98,265,27686,6,0,L|110:176,1,90,0|0,0:0|0:0,0:0:0:0:
233,65,28012,2,0,L|244:154,1,90,0|0,0:0|0:0,0:0:0:0:
62,74,28338,1,0,0:0:0:0:
233,65,28664,1,0,0:0:0:0:
144,208,28990,6,0,L|149:94,1,90,0|0,0:0|0:0,0:0:0:0:
308,128,29479,2,0,L|306:83,1,45,0|0,0:0|0:0,0:0:0:0:
233,65,29642,2,0,B|283:74|283:74|380:62|380:62|421:67,1,180,0|0,0:0|0:0,0:0:0:0:
467,143,30131,1,0,0:0:0:0:
467,143,30294,6,0,L|455:232,1,90,0|0,0:0|0:0,0:0:0:0:
332,343,30621,2,0,L|321:254,1,90,0|0,0:0|0:0,0:0:0:0:
467,143,30947,1,0,0:0:0:0:
458,314,31273,1,0,0:0:0:0:
324,232,31599,6,0,L|438:227,1,90,0|0,0:0|0:0,0:0:0:0:
449,69,32088,1,0,0:0:0:0:
449,69,32169,1,0,0:0:0:0:
449,69,32251,2,0,B|386:77|386:77|269:64,1,180,0|0,0:0|0:0,0:0:0:0:
260,235,32740,1,0,0:0:0:0:
200,146,32903,6,0,L|111:152,1,90,0|0,0:0|0:0,0:0:0:0:
359,62,33229,2,0,L|448:68,1,90,0|0,0:0|0:0,0:0:0:0:
312,160,33555,1,0,0:0:0:0:
157,54,33881,2,0,L|247:48,1,90,0|0,0:0|0:0,0:0:0:0:
200,145,34208,6,0,L|110:151,1,90,0|0,0:0|0:0,0:0:0:0:
157,54,34697,1,0,0:0:0:0:
243,238,34860,5,0,0:0:0:0:
360,72,35186,1,0,0:0:0:0:
200,146,35512,1,0,0:0:0:0:
434,232,35838,5,0,0:0:0:0:
144,147,36001,1,0,0:0:0:0:
274,306,36327,5,0,0:0:0:0:
450,129,36490,1,0,0:0:0:0:
209,66,36816,5,0,0:0:0:0:
194,242,36979,1,0,0:0:0:0:
360,72,37142,1,0,0:0:0:0:
144,147,37305,1,0,0:0:0:0:
316,296,37468,5,0,0:0:0:0:
360,72,37631,1,0,0:0:0:0:
434,232,37794,1,0,0:0:0:0:
466,26,37958,1,0,0:0:0:0:
271,101,38121,5,0,0:0:0:0:
392,298,38284,1,0,0:0:0:0:
397,152,38447,1,0,0:0:0:0:
200,273,38610,1,0,0:0:0:0:
194,42,38773,5,0,0:0:0:0:
333,269,38936,1,0,0:0:0:0:
327,38,39099,1,0,0:0:0:0:
130,159,39262,1,0,0:0:0:0:
397,152,39425,6,0,L|498:155,1,90,0|0,0:0|0:0,0:0:0:0:
200,273,39751,2,0,L|110:275,1,90,0|0,0:0|0:0,0:0:0:0:
238,114,40077,1,0,0:0:0:0:
359,311,40240,1,0,0:0:0:0:
485,153,40403,6,0,P|485:92|472:48,1,90,0|0,0:0|0:0,0:0:0:0:
241,247,40729,2,0,P|240:308|254:352,1,90,0|0,0:0|0:0,0:0:0:0:
470,240,41055,1,0,0:0:0:0:
238,114,41218,1,0,0:0:0:0:
359,311,41381,1,0,0:0:0:0:
485,153,41544,1,0,0:0:0:0:
241,247,41707,1,0,0:0:0:0:
122,51,41871,1,0,0:0:0:0:
122,51,41952,1,0,0:0:0:0:
122,51,42034,6,0,P|184:40|240:56,1,90,0|0,0:0|0:0,0:0:0:0:
108,250,42360,2,0,P|63:254|19:243,1,90,0|0,0:0|0:0,0:0:0:0:
238,114,42686,1,0,0:0:0:0:
304,335,42849,1,0,0:0:0:0:
110,152,43012,1,0,0:0:0:0:
366,76,43175,1,0,0:0:0:0:
206,243,43338,5,0,0:0:0:0:
142,23,43501,1,0,0:0:0:0:
334,205,43664,1,0,0:0:0:0:
81,281,43827,1,0,0:0:0:0:
81,281,43909,1,0,0:0:0:0:
81,281,43990,1,0,0:0:0:0:
186,170,44153,5,0,0:0:0:0:
188,193,44235,1,0,0:0:0:0:
190,216,44316,1,0,0:0:0:0:
192,239,44398,1,0,0:0:0:0:
194,262,44479,1,0,0:0:0:0:
196,285,44561,1,0,0:0:0:0:
198,308,44642,1,0,0:0:0:0:
334,205,44805,1,0,0:0:0:0:
81,281,44968,6,0,P|68:241|81:174,1,90,0|0,0:0|0:0,0:0:0:0:
325,117,45294,2,0,P|337:156|325:224,1,90,0|0,0:0|0:0,0:0:0:0:
198,308,45621,1,0,0:0:0:0:
260,51,45784,1,0,0:0:0:0:
452,234,45947,1,0,0:0:0:0:
154,161,46110,1,0,0:0:0:0:
346,344,46273,6,0,P|422:352|449:343,1,90,0|0,0:0|0:0,0:0:0:0:
409,87,46599,1,0,0:0:0:0:
207,323,46762,1,0,0:0:0:0:
104,30,46925,1,0,0:0:0:0:
327,122,47088,1,0,0:0:0:0:
327,122,47169,1,0,0:0:0:0:
327,122,47251,6,0,L|207:145,1,90,0|0,0:0|0:0,0:0:0:0:
35,271,47577,2,0,L|123:287,1,90,0|0,0:0|0:0,0:0:0:0:
415,105,47903,2,0,L|295:128,1,90,0|0,0:0|0:0,0:0:0:0:
161,179,48229,1,0,0:0:0:0:
353,362,48392,1,0,0:0:0:0:
415,105,48555,5,0,0:0:0:0:
413,128,48637,1,0,0:0:0:0:
404,148,48718,1,0,0:0:0:0:
391,167,48800,1,0,0:0:0:0:
374,181,48881,1,0,0:0:0:0:
353,191,48963,1,0,0:0:0:0:
331,195,49045,1,0,0:0:0:0:
309,193,49126,1,0,0:0:0:0:
270,171,49208,5,0,0:0:0:0:
225,166,49290,1,0,0:0:0:0:
183,180,49371,1,0,0:0:0:0:
149,210,49453,1,0,0:0:0:0:
131,251,49534,2,0,L|135:295,1,45,0|0,0:0|0:0,0:0:0:0:
269,331,49697,2,0,L|273:287,1,45,0|0,0:0|0:0,0:0:0:0:
270,171,49860,6,0,L|155:168,1,90,0|0,0:0|0:0,0:0:0:0:
41,253,50186,6,0,L|130:250,1,90,0|0,0:0|0:0,0:0:0:0:
151,272,50403,2,0,L|150:323,2,30,0|0|0,0:0|0:0|0:0,0:0:0:0:
270,171,50675,1,0,0:0:0:0:
298,325,50838,1,0,0:0:0:0:
436,45,51001,2,0,L|414:243,1,180
298,325,51490,2,0,L|287:226,1,90,0|0,0:0|0:0,0:0:0:0:
268,56,51816,6,0,L|287:234,1,180,0|0,0:0|0:0,0:0:0:0:
298,325,52305,2,0,L|292:275,1,45,0|0,0:0|0:0,0:0:0:0:
415,222,52468,1,0,0:0:0:0:
415,222,52631,1,0,0:0:0:0:
446,375,52794,6,0,L|357:362,1,90,0|0,0:0|0:0,0:0:0:0:
340,337,53011,2,0,L|349:286,2,30,0|0|0,0:0|0:0|0:0,0:0:0:0:
230,226,53284,1,0,0:0:0:0:
188,376,53447,1,0,0:0:0:0:
58,86,53610,2,0,L|77:264,1,180,0|0,0:0|0:0,0:0:0:0:
188,376,54099,2,0,L|197:286,1,90,0|0,0:0|0:0,0:0:0:0:
67,174,54425,2,0,L|77:264,1,90,0|0,0:0|0:0,0:0:0:0:
230,226,54751,1,0,0:0:0:0:
67,174,55077,5,0,0:0:0:0:
67,174,55240,1,0,0:0:0:0:
217,315,55403,6,0,L|229:226,1,90,0|0,0:0|0:0,0:0:0:0:
254,209,55620,2,0,L|304:218,2,30,0|0|0,0:0|0:0|0:0,0:0:0:0:
168,69,55892,1,0,0:0:0:0:
97,209,56055,1,0,0:0:0:0:
168,69,56218,2,0,L|346:88,1,180,0|0,0:0|0:0,0:0:0:0:
448,208,56707,2,0,L|359:218,1,90,0|0,0:0|0:0,0:0:0:0:
180,237,57034,6,0,L|358:217,1,180,0|0,0:0|0:0,0:0:0:0:
448,208,57523,2,0,L|398:214,1,45,0|0,0:0|0:0,0:0:0:0:
345,91,57686,1,0,0:0:0:0:
345,91,57849,1,0,0:0:0:0:
498,60,58012,2,0,L|485:149,1,90,0|0,0:0|0:0,0:0:0:0:
460,166,58229,2,0,L|409:157,2,30,0|0|0,0:0|0:0|0:0,0:0:0:0:
349,276,58501,1,0,0:0:0:0:
499,318,58664,5,0,0:0:0:0:
460,166,58827,2,0,L|282:185,1,180,0|0,0:0|0:0,0:0:0:0:
170,296,59316,2,0,L|260:305,1,90,0|0,0:0|0:0,0:0:0:0:
372,175,59642,2,0,L|282:185,1,90,0|0,0:0|0:0,0:0:0:0:
40,132,59968,2,0,L|130:142,1,90,0|0,0:0|0:0,0:0:0:0:
461,165,60294,6,0,L|371:175,1,90,0|0,0:0|0:0,0:0:0:0:
262,41,60621,1,0,0:0:0:0:
238,274,60784,1,0,0:0:0:0:
471,298,60947,2,0,L|462:199,1,90,0|0,0:0|0:0,0:0:0:0:
182,150,61273,5,0,0:0:0:0:
396,55,61436,1,0,0:0:0:0:
238,274,61599,1,0,0:0:0:0:
262,41,61762,1,0,0:0:0:0:
49,137,61925,1,0,0:0:0:0:
317,164,62088,1,0,0:0:0:0:
127,27,62251,1,0,0:0:0:0:
103,259,62414,1,0,0:0:0:0:
371,174,62577,5,0,0:0:0:0:
379,152,62659,1,0,0:0:0:0:
384,130,62740,1,0,0:0:0:0:
382,107,62822,1,0,0:0:0:0:
378,84,62903,6,0,P|325:70|258:89,1,90,0|0,0:0|0:0,0:0:0:0:
13,182,63229,2,0,P|57:195|101:191,1,90,0|0,0:0|0:0,0:0:0:0:
297,296,63555,2,0,P|323:333|332:376,1,90,0|0,0:0|0:0,0:0:0:0:
75,302,63881,1,0,0:0:0:0:
182,107,64044,1,0,0:0:0:0:
377,214,64208,5,0,0:0:0:0:
187,330,64371,1,0,0:0:0:0:
310,104,64534,1,0,0:0:0:0:
315,326,64697,1,0,0:0:0:0:
119,220,64860,5,0,0:0:0:0:
422,131,65023,1,0,0:0:0:0:
187,330,65186,1,0,0:0:0:0:
182,306,65267,1,0,0:0:0:0:
178,283,65349,1,0,0:0:0:0:
174,260,65430,1,0,0:0:0:0:
170,237,65512,5,0,0:0:0:0:
381,254,65675,2,0,L|383:327,1,62.9999980773926,0|0,0:0|0:0,0:0:0:0:
285,254,66001,2,0,P|251:214|246:131,1,125.999996154785
291,59,66490,2,0,P|247:46|204:56,1,62.9999980773926,0|0,0:0|0:0,0:0:0:0:
243,142,66816,6,0,P|225:159|214:189,3,31.4999990386963,0|0|0|0,0:0|0:0|0:0|0:0,0:0:0:0:
325,190,67142,2,0,P|342:208|372:219,3,31.4999990386963,0|0|0|0,0:0|0:0|0:0|0:0,0:0:0:0:
373,108,67468,2,0,P|391:90|402:60,3,31.4999990386963,0|0|0|0,0:0|0:0|0:0|0:0,0:0:0:0:
291,59,67794,2,0,P|274:41|244:30,3,31.4999990386963,0|0|0|0,0:0|0:0|0:0|0:0,0:0:0:0:
384,47,68121,6,0,P|384:78|373:108,1,62.9999980773926
254,202,68447,2,0,P|243:173|243:142,1,62.9999980773926,0|0,0:0|0:0,0:0:0:0:
372,108,68773,2,0,L|396:222,1,94.499997116089,0|0,0:0|0:0,0:0:0:0:
399,233,69099,2,0,P|353:224|312:239,1,62.9999980773926,0|0,0:0|0:0,0:0:0:0:
445,358,69425,6,0,L|495:381,3,31.4999990386963,0|0|0|0,0:0|0:0|0:0|0:0,0:0:0:0:
358,318,69751,2,0,L|344:346,3,31.4999990386963,0|0|0|0,0:0|0:0|0:0|0:0,0:0:0:0:
399,233,70077,2,0,L|370:219,3,31.4999990386963,0|0|0|0,0:0|0:0|0:0|0:0,0:0:0:0:
484,273,70403,2,0,L|497:244,3,31.4999990386963,0|0|0|0,0:0|0:0|0:0|0:0,0:0:0:0:
358,318,70730,5,0,0:0:0:0:
445,358,70893,5,0,0:0:0:0:
484,273,71055,5,0,0:0:0:0:
399,233,71218,5,0,0:0:0:0:
357,319,71544,5,0,0:0:0:0:
484,273,71708,2,0,L|479:194,1,62.9999980773926,0|0,0:0|0:0,0:0:0:0:
399,233,72034,6,0,P|373:241|367:263,3,31.4999990386963,0|0|0|0,0:0|0:0|0:0|0:0,0:0:0:0:
356,146,72360,2,0,P|340:144|328:134,3,31.4999990386963,0|0|0|0,0:0|0:0|0:0|0:0,0:0:0:0:
386,54,72686,2,0,P|385:38|375:26,3,31.4999990386963,0|0|0|0,0:0|0:0|0:0|0:0,0:0:0:0:
473,10,73012,2,0,P|474:25|484:37,3,31.4999990386963,0|0|0|0,0:0|0:0|0:0|0:0,0:0:0:0:
448,129,73338,6,0,L|462:213,1,62.9999980773926,0|0,0:0|0:0,0:0:0:0:
385,54,73664,2,0,L|294:50,1,62.9999980773926,0|0,0:0|0:0,0:0:0:0:
351,147,73990,2,0,L|233:150,1,94.499997116089,0|0,0:0|0:0,0:0:0:0:
221,149,74316,2,0,P|238:186|236:227,1,62.9999980773926,0|0,0:0|0:0,0:0:0:0:
141,224,74642,5,0,0:0:0:0:
116,131,74805,1,0,0:0:0:0:
221,149,74968,1,0,0:0:0:0:
141,224,75131,1,0,0:0:0:0:
47,199,75294,5,0,0:0:0:0:
73,293,75458,1,0,0:0:0:0:
141,224,75621,1,0,0:0:0:0:
47,199,75784,1,0,0:0:0:0:
141,224,75947,6,0,P|169:285|160:337,1,90,0|0,0:0|0:0,0:0:0:0:
73,293,76273,1,0,0:0:0:0:
116,131,76436,2,0,L|188:139,1,45,0|0,0:0|0:0,0:0:0:0:
234,249,76599,1,0,0:0:0:0:
234,249,76680,1,0,0:0:0:0:
234,249,76762,1,0,0:0:0:0:
47,199,76925,1,0,0:0:0:0:
209,156,77088,1,0,0:0:0:0:
166,317,77251,6,0,L|62:321,1,90,0|0,0:0|0:0,0:0:0:0:
116,131,77577,1,0,0:0:0:0:
234,249,77740,2,0,L|305:240,1,45,0|0,0:0|0:0,0:0:0:0:
396,134,77903,2,0,L|351:129,1,45,0|0,0:0|0:0,0:0:0:0:
372,272,78066,1,0,0:0:0:0:
396,134,78229,1,0,0:0:0:0:
511,296,78392,1,0,0:0:0:0:
285,295,78555,6,0,L|372:272,1,90,0|0,0:0|0:0,0:0:0:0:
482,157,78881,1,0,0:0:0:0:
327,119,79044,2,0,L|331:184,1,45,0|0,0:0|0:0,0:0:0:0:
502,81,79208,1,0,0:0:0:0:
502,81,79289,1,0,0:0:0:0:
502,81,79371,1,0,0:0:0:0:
447,250,79534,1,0,0:0:0:0:
403,49,79697,1,0,0:0:0:0:
350,219,79860,6,0,P|347:279|369:318,1,90,0|0,0:0|0:0,0:0:0:0:
184,259,80186,1,0,0:0:0:0:
233,96,80349,2,0,P|180:68|171:46,1,45,0|0,0:0|0:0,0:0:0:0:
116,220,80512,1,0,0:0:0:0:
116,220,80593,1,0,0:0:0:0:
116,220,80675,1,0,0:0:0:0:
156,52,80838,2,0,L|67:56,1,90,0|0,0:0|0:0,0:0:0:0:
210,191,81164,5,0,0:0:0:0:
295,0,81327,1,0,0:0:0:0:
348,137,81490,1,0,0:0:0:0:
192,71,81653,2,0,L|187:27,1,45,0|0,0:0|0:0,0:0:0:0:
307,144,81816,2,0,L|302:189,1,45,0|0,0:0|0:0,0:0:0:0:
164,165,81979,1,0,0:0:0:0:
320,232,82142,1,0,0:0:0:0:
183,333,82305,1,0,0:0:0:0:
362,226,82468,6,0,P|376:268|373:318,1,90,0|0,0:0|0:0,0:0:0:0:
272,279,82794,1,0,0:0:0:0:
373,96,82958,1,0,0:0:0:0:
373,96,83039,1,0,0:0:0:0:
373,96,83121,2,0,L|442:100,1,45,0|0,0:0|0:0,0:0:0:0:
481,275,83284,1,0,0:0:0:0:
269,158,83448,1,0,0:0:0:0:
478,154,83610,1,0,0:0:0:0:
377,337,83773,6,0,L|270:319,1,90,0|0,0:0|0:0,0:0:0:0:
180,172,84099,2,0,L|268:157,1,90,0|0,0:0|0:0,0:0:0:0:
478,154,84425,1,0,0:0:0:0:
268,38,84588,1,0,0:0:0:0:
374,216,84751,1,0,0:0:0:0:
196,322,84914,6,0,L|188:141,1,180
187,119,85322,1,0,0:0:0:0:
187,119,85403,1,0,0:0:0:0:
373,215,85566,1,0,0:0:0:0:
196,322,85729,6,0,L|188:277,1,45,0|0,0:0|0:0,0:0:0:0:
373,215,85892,2,0,L|381:260,1,45
262,209,86055,2,0,L|248:121,1,90
352,90,86381,6,0,L|373:218,1,126
372,214,88990,6,0,B|394:280|394:280|383:338,1,126
383,335,91599,6,0,L|282:320,1,99
285,320,93555,6,0,P|282:271|317:233,1,94.4999971160889
309,237,94208,6,0,B|47:223,1,247.5
61,223,95186,6,0,P|47:261|58:306,1,67.5
138,343,95512,2,0,L|219:330,1,67.5,0|0,0:0|0:0,0:0:0:0:
258,255,95838,2,0,P|291:253|322:266,1,67.5,0|0,0:0|0:0,0:0:0:0:
204,332,96164,6,0,B|138:343|138:343|155:306,1,108
165,247,96816,5,0,0:0:0:0:
160,224,96979,1,0,0:0:0:0:
155,201,97142,1,0,0:0:0:0:
150,178,97305,1,0,0:0:0:0:
289,85,97631,2,0,L|290:107,1,22.5,0|0,0:0|0:0,0:0:0:0:
145,155,97794,6,0,L|422:133,1,270,0|0,0:0|0:0,0:0:0:0:
145,155,99099,5,0,0:0:0:0:
414,134,99425,5,0,0:0:0:0:
419,157,99588,1,0,0:0:0:0:
424,180,99751,1,0,0:0:0:0:
429,203,99914,1,0,0:0:0:0:
290,296,100240,2,0,L|288:273,1,22.5,0|0,0:0|0:0,0:0:0:0:
434,226,100403,6,0,L|244:240,1,180,0|0,0:0|0:0,0:0:0:0:
433,225,101381,2,0,P|440:247|443:269,1,45,0|0,0:0|0:0,0:0:0:0:
245,282,101708,2,0,P|246:259|253:238,1,45,0|0,0:0|0:0,0:0:0:0:
290,89,102034,5,0,0:0:0:0:
267,84,102197,1,0,0:0:0:0:
244,79,102360,1,0,0:0:0:0:
221,74,102523,1,0,0:0:0:0:
128,213,102849,2,0,L|150:214,1,22.5,0|0,0:0|0:0,0:0:0:0:
198,69,103012,6,0,L|176:346,1,270,0|0,0:0|0:0,0:0:0:0:
198,69,104317,5,0,0:0:0:0:
177,338,104642,5,0,0:0:0:0:
200,342,104805,1,0,0:0:0:0:
223,347,104968,1,0,0:0:0:0:
246,352,105131,1,0,0:0:0:0:
339,213,105457,2,0,L|317:211,1,22.5,0|0,0:0|0:0,0:0:0:0:
268,357,105621,5,0,0:0:0:0:
180,224,105947,2,0,L|91:216,1,90,0|0,0:0|0:0,0:0:0:0:
269,357,106599,2,0,L|313:353,1,45,0|0,0:0|0:0,0:0:0:0:
427,283,106925,2,0,L|383:279,1,45
287,261,107251,6,0,L|152:263,1,135,0|0,0:0|0:0,0:0:0:0:
59,294,107577,2,0,P|108:288|44:268,1,180,0|0,0:0|0:0,0:0:0:0:
133,360,108066,1,0,0:0:0:0:
171,164,108229,2,0,L|163:36,1,90,0|0,0:0|0:0,0:0:0:0:
76,194,108555,5,0,0:0:0:0:
299,303,108718,1,0,0:0:0:0:
133,360,108881,1,0,0:0:0:0:
171,164,109044,1,0,0:0:0:0:
171,164,109126,1,0,0:0:0:0:
171,164,109208,5,0,0:0:0:0:
322,295,109371,1,0,0:0:0:0:
95,250,109534,1,0,0:0:0:0:
249,384,109860,6,0,L|354:375,1,90,0|0,0:0|0:0,0:0:0:0:
377,231,110186,1,0,0:0:0:0:
222,205,110349,2,0,L|249:384,1,180,0|0,0:0|0:0,0:0:0:0:
377,231,110838,1,0,0:0:0:0:
222,205,111001,1,0,0:0:0:0:
392,233,111164,1,0,0:0:0:0:
207,203,111327,1,0,0:0:0:0:
273,378,111490,5,0,0:0:0:0:
308,164,111653,1,0,0:0:0:0:
308,164,111735,1,0,0:0:0:0:
308,164,111816,5,0,0:0:0:0:
189,309,111979,1,0,0:0:0:0:
189,309,112061,1,0,0:0:0:0:
189,309,112142,1,0,0:0:0:0:
124,135,112305,1,0,0:0:0:0:
14,374,112468,5,0,0:0:0:0:
189,309,112713,5,0,0:0:0:0:
364,244,112958,5,0,0:0:0:0:
124,135,113284,1,0,0:0:0:0:
124,135,113365,1,0,0:0:0:0:
124,135,113447,2,0,L|188:141,1,45,0|0,0:0|0:0,0:0:0:0:
189,309,113610,1,0,0:0:0:0:
364,244,113773,5,0,0:0:0:0:
189,309,114018,5,0,0:0:0:0:
14,374,114263,5,0,0:0:0:0:
77,6,114588,1,0,0:0:0:0:
189,309,114751,5,0,0:0:0:0:
232,292,114833,1,0,0:0:0:0:
275,275,114914,1,0,0:0:0:0:
318,258,114996,1,0,0:0:0:0:
364,244,115077,1,0,0:0:0:0:
221,125,115240,1,0,0:0:0:0:
189,309,115403,5,0,0:0:0:0:
364,244,115566,2,0,B|432:200|432:200|329:189,1,180,0|0,0:0|0:0,0:0:0:0:
189,309,116055,1,0,0:0:0:0:
364,373,116218,1,0,0:0:0:0:
333,189,116381,5,0,0:0:0:0:
286,182,116462,1,0,0:0:0:0:
244,196,116544,1,0,0:0:0:0:
209,224,116625,1,0,0:0:0:0:
191,264,116708,2,0,L|189:321,1,45,0|0,0:0|0:0,0:0:0:0:
333,189,116871,5,0,0:0:0:0:
315,144,116952,1,0,0:0:0:0:
282,115,117034,1,0,0:0:0:0:
240,99,117115,1,0,0:0:0:0:
197,103,117198,2,0,L|146:129,1,45,0|0,0:0|0:0,0:0:0:0:
333,189,117360,5,0,0:0:0:0:
339,28,117523,1,0,0:0:0:0:
339,28,117604,1,0,0:0:0:0:
339,28,117686,6,0,L|456:27,1,107.999996704102,0|0,0:0|0:0,0:0:0:0:
333,189,118990,2,0,P|322:143|333:83,1,107.999996704102,0|0,0:0|0:0,0:0:0:0:
470,164,120294,6,0,P|480:216|469:268,1,107.999996704102,0|0,0:0|0:0,0:0:0:0:
333,189,121273,1,0,0:0:0:0:
286,319,121599,1,0,0:0:0:0:
286,319,122577,5,0,0:0:0:0:
197,214,122903,2,0,P|167:244|150:308,1,107.999996704102,0|0,0:0|0:0,0:0:0:0:
13,109,124208,2,0,P|43:139|60:203,1,107.999996704102,0|0,0:0|0:0,0:0:0:0:
150,85,125512,5,0,0:0:0:0:
150,85,126490,5,0,0:0:0:0:
198,216,126816,1,0,0:0:0:0:
281,37,127142,1,0,0:0:0:0:
150,85,127468,1,0,0:0:0:0:
198,216,127794,1,0,0:0:0:0:
329,168,128121,6,0,P|311:129|256:91,1,107.999996704102,0|0,0:0|0:0,0:0:0:0:
490,31,129426,2,0,P|451:48|385:43,1,107.999996704102,0|0,0:0|0:0,0:0:0:0:
465,167,130729,5,0,0:0:0:0:
465,167,131708,5,0,0:0:0:0:
325,167,132034,1,0,0:0:0:0:
325,167,133012,5,0,0:0:0:0:
465,306,133338,2,0,P|464:246|438:205,1,107.999996704102,0|0,0:0|0:0,0:0:0:0:
343,376,134642,2,0,P|343:316|370:275,1,107.999996704102,0|0,0:0|0:0,0:0:0:0:
465,306,135947,5,0,0:0:0:0:
343,376,136925,6,0,L|282:373,1,53.9999983520508,0|0,0:0|0:0,0:0:0:0:
256,192,137577,12,0,138392,0:0:0:0:
100,182,138555,5,0,0:0:0:0:
193,206,138718,1,0,0:0:0:0:
193,206,139045,2,0,L|195:263,1,45,0|0,0:0|0:0,0:0:0:0:
268,269,139208,2,0,P|190:264|125:364,1,180,0|0,0:0|0:0,0:0:0:0:
293,176,139697,5,0,0:0:0:0:
219,352,139860,2,0,L|319:350,1,90,0|0,0:0|0:0,0:0:0:0:
382,177,140186,2,0,L|292:175,1,90,0|0,0:0|0:0,0:0:0:0:
308,350,140512,1,0,0:0:0:0:
382,177,140838,1,0,0:0:0:0:
196,201,141164,5,0,0:0:0:0:
289,225,141327,1,0,0:0:0:0:
289,225,141653,2,0,L|287:168,1,45,0|0,0:0|0:0,0:0:0:0:
214,162,141816,2,0,P|292:166|357:66,1,180,0|0,0:0|0:0,0:0:0:0:
189,255,142305,5,0,0:0:0:0:
263,79,142468,2,0,L|163:81,1,90,0|0,0:0|0:0,0:0:0:0:
100,254,142794,2,0,L|190:256,1,90,0|0,0:0|0:0,0:0:0:0:
174,81,143120,1,0,0:0:0:0:
100,254,143446,1,0,0:0:0:0:
286,230,143772,5,0,0:0:0:0:
211,167,143936,1,0,0:0:0:0:
211,167,144262,2,0,L|154:169,1,45,0|0,0:0|0:0,0:0:0:0:
148,242,144425,2,0,P|153:164|53:99,1,180,0|0,0:0|0:0,0:0:0:0:
65,193,144914,1,0,0:0:0:0:
211,167,145077,2,0,L|300:173,1,90,0|0,0:0|0:0,0:0:0:0:
160,306,145403,2,0,L|70:312,1,90,0|0,0:0|0:0,0:0:0:0:
211,167,145729,5,0,0:0:0:0:
307,281,145892,1,0,0:0:0:0:
325,71,146055,1,0,0:0:0:0:
211,167,146218,1,0,0:0:0:0:
211,167,146300,1,0,0:0:0:0:
211,167,146381,1,0,0:0:0:0:
421,185,146871,5,0,0:0:0:0:
211,167,147034,1,0,0:0:0:0:
307,281,147360,5,0,0:0:0:0:
325,71,147523,1,0,0:0:0:0:
325,71,147604,1,0,0:0:0:0:
325,71,147686,6,0,L|434:79,1,90,0|0,0:0|0:0,0:0:0:0:
135,161,148012,1,0,0:0:0:0:
395,191,148175,2,0,P|427:234|431:298,1,90,0|0,0:0|0:0,0:0:0:0:
307,281,148501,1,0,0:0:0:0:
325,71,148664,5,0,0:0:0:0:
256,192,148990,12,0,151273,0:0:0:0:
164,127,151599,5,0,0:0:0:0:
285,324,151762,1,0,0:0:0:0:
395,120,151925,2,0,L|276:102,1,90,0|0,0:0|0:0,0:0:0:0:
78,273,152250,2,0,L|167:260,1,90,0|0,0:0|0:0,0:0:0:0:
105,95,152577,1,0,0:0:0:0:
281,190,152740,1,0,0:0:0:0:
66,253,152903,6,0,P|59:298|64:342,1,90,0|0,0:0|0:0,0:0:0:0:
205,328,153229,1,0,0:0:0:0:
142,114,153392,1,0,0:0:0:0:
66,253,153555,1,0,0:0:0:0:
281,189,153718,1,0,0:0:0:0:
119,35,153881,1,0,0:0:0:0:
192,283,154044,1,0,0:0:0:0:
192,283,154126,1,0,0:0:0:0:
192,283,154208,5,0,0:0:0:0:
244,65,154370,1,0,0:0:0:0:
29,129,154534,2,0,L|41:253,1,90,0|0,0:0|0:0,0:0:0:0:
318,313,154860,2,0,L|329:189,1,90,0|0,0:0|0:0,0:0:0:0:
119,35,155186,2,0,L|130:158,1,90,0|0,0:0|0:0,0:0:0:0:
407,218,155512,5,0,0:0:0:0:
245,65,155675,1,0,0:0:0:0:
318,313,155838,1,0,0:0:0:0:
370,95,156001,1,0,0:0:0:0:
192,282,156164,5,0,0:0:0:0:
245,65,156327,1,0,0:0:0:0:
66,251,156490,1,0,0:0:0:0:
120,35,156653,1,0,0:0:0:0:
120,35,156735,1,0,0:0:0:0:
120,35,156816,1,0,0:0:0:0:
192,282,156979,1,0,0:0:0:0:
370,95,157142,6,0,L|280:100,1,90,0|0,0:0|0:0,0:0:0:0:
66,251,157468,2,0,L|155:256,1,90,0|0,0:0|0:0,0:0:0:0:
361,265,157794,1,0,0:0:0:0:
145,126,157958,1,0,0:0:0:0:
281,384,158121,6,0,L|387:376,1,90,0|0,0:0|0:0,0:0:0:0:
293,133,158447,1,0,0:0:0:0:
66,251,158610,1,0,0:0:0:0:
361,265,158773,2,0,L|467:257,1,90,0|0,0:0|0:0,0:0:0:0:
145,126,159099,1,0,0:0:0:0:
133,383,159262,1,0,0:0:0:0:
133,383,159343,1,0,0:0:0:0:
133,383,159425,5,0,0:0:0:0:
293,133,159588,1,0,0:0:0:0:
65,251,159751,1,0,0:0:0:0:
225,1,159914,1,0,0:0:0:0:
213,258,160077,1,0,0:0:0:0:
225,1,160240,1,0,0:0:0:0:
234,268,160403,1,0,0:0:0:0:
204,11,160566,1,0,0:0:0:0:
442,114,160729,5,0,0:0:0:0:
432,135,160811,1,0,0:0:0:0:
415,149,160893,1,0,0:0:0:0:
395,159,160974,1,0,0:0:0:0:
373,165,161056,1,0,0:0:0:0:
350,165,161137,1,0,0:0:0:0:
329,160,161219,1,0,0:0:0:0:
309,149,161300,1,0,0:0:0:0:
293,133,161382,5,0,0:0:0:0:
253,112,161463,1,0,0:0:0:0:
209,105,161545,1,0,0:0:0:0:
164,112,161626,1,0,0:0:0:0:
124,133,161708,1,0,0:0:0:0:
92,165,161789,1,0,0:0:0:0:
72,205,161871,1,0,0:0:0:0:
65,249,161952,1,0,0:0:0:0:
72,293,162034,5,0,0:0:0:0:
182,76,162197,1,0,0:0:0:0:
196,348,162360,2,0,L|303:339,1,90,0|0,0:0|0:0,0:0:0:0:
292,132,162686,1,0,0:0:0:0:
57,157,162849,1,0,0:0:0:0:
307,268,163012,2,0,L|413:258,1,90,0|0,0:0|0:0,0:0:0:0:
182,76,163338,6,0,L|92:67,1,90,0|0,0:0|0:0,0:0:0:0:
142,242,163664,1,0,0:0:0:0:
333,103,163827,1,0,0:0:0:0:
123,13,163990,2,0,P|95:59|99:122,1,90,0|0,0:0|0:0,0:0:0:0:
278,227,164316,1,0,0:0:0:0:
62,131,164479,1,0,0:0:0:0:
62,131,164561,1,0,0:0:0:0:
62,131,164642,5,0,0:0:0:0:
333,103,164805,1,0,0:0:0:0:
142,242,164968,2,0,P|89:255|38:239,1,90,0|0,0:0|0:0,0:0:0:0:
412,212,165294,1,0,0:0:0:0:
197,118,165458,1,0,0:0:0:0:
357,336,165621,2,0,P|401:343|443:329,1,90,0|0,0:0|0:0,0:0:0:0:
142,242,165947,6,0,L|36:234,1,90,0|0,0:0|0:0,0:0:0:0:
333,103,166273,1,0,0:0:0:0:
357,336,166436,1,0,0:0:0:0:
357,336,166517,1,0,0:0:0:0:
357,336,166599,2,0,L|224:328,1,90,0|0,0:0|0:0,0:0:0:0:
412,212,166843,1,0,0:0:0:0:
412,212,166925,2,0,L|479:207,1,45,0|0,0:0|0:0,0:0:0:0:
357,336,167088,2,0,L|312:333,1,45,0|0,0:0|0:0,0:0:0:0:
277,226,167251,5,0,0:0:0:0:
492,322,167414,1,0,0:0:0:0:
468,88,167577,2,0,P|416:74|363:87,1,90,0|0,0:0|0:0,0:0:0:0:
357,336,167903,1,0,0:0:0:0:
357,336,168066,1,0,0:0:0:0:
189,217,168229,6,0,P|233:212|276:225,1,90,0|0,0:0|0:0,0:0:0:0:
134,343,168555,1,0,0:0:0:0:
134,343,168718,1,0,0:0:0:0:
134,91,168881,2,0,P|89:86|46:99,1,90,0|0,0:0|0:0,0:0:0:0:
79,217,169208,1,0,0:0:0:0:
79,217,169371,1,0,0:0:0:0:
244,91,169534,2,0,P|288:86|331:99,1,90,0|0,0:0|0:0,0:0:0:0:
270,296,169860,6,0,L|180:301,1,90,0|0,0:0|0:0,0:0:0:0:
164,343,170104,1,0,0:0:0:0:
164,343,170186,1,0,0:0:0:0:
257,193,170349,1,0,0:0:0:0:
401,296,170512,2,0,L|515:289,1,90,0|0,0:0|0:0,0:0:0:0:
507,249,170756,1,0,0:0:0:0:
507,249,170838,1,0,0:0:0:0:
257,193,171001,1,0,0:0:0:0:
507,249,171164,5,0,0:0:0:0:
511,226,171245,1,0,0:0:0:0:
507,204,171327,1,0,0:0:0:0:
493,186,171408,1,0,0:0:0:0:
474,175,171490,1,0,0:0:0:0:
451,173,171571,1,0,0:0:0:0:
430,180,171653,1,0,0:0:0:0:
413,195,171734,1,0,0:0:0:0:
404,215,171816,5,0,0:0:0:0:
383,255,171898,1,0,0:0:0:0:
351,286,171979,1,0,0:0:0:0:
311,307,172061,1,0,0:0:0:0:
267,314,172142,1,0,0:0:0:0:
222,307,172224,1,0,0:0:0:0:
182,286,172305,1,0,0:0:0:0:
150,255,172387,1,0,0:0:0:0:
130,214,172468,6,0,L|136:159,1,45,0|0,0:0|0:0,0:0:0:0:
335,96,172631,2,0,L|339:140,1,45,0|0,0:0|0:0,0:0:0:0:
296,351,172794,6,0,L|291:261,1,90
289,215,173040,2,0,L|318:220,2,30
177,322,173284,1,0,0:0:0:0:
289,215,173447,1,0,0:0:0:0:
296,351,173610,2,0,B|245:340|245:340|148:353,1,125.999996154785
289,215,174099,6,0,L|389:209,1,90
296,351,174425,1,0,0:0:0:0:
289,215,174751,1,0,0:0:0:0:
296,351,174914,2,0,L|348:344,1,45
428,291,175077,1,0,0:0:0:0:
428,291,175240,1,0,0:0:0:0:
285,162,175403,6,0,L|177:168,1,90
149,169,175648,2,0,L|154:140,2,30
224,284,175892,1,0,0:0:0:0:
286,161,176055,1,0,0:0:0:0:
149,169,176218,6,0,L|19:176,1,125.999996154785
224,284,176708,1,0,0:0:0:0:
224,284,176871,1,0,0:0:0:0:
286,161,177034,6,0,L|156:168,1,125.999996154785
224,284,177523,2,0,L|221:239,1,45
149,169,177686,1,0,0:0:0:0:
149,169,177849,1,0,0:0:0:0:
87,292,178012,6,0,L|194:280,1,90
224,284,178257,2,0,L|219:313,2,30
87,292,178501,1,0,0:0:0:0:
224,284,178664,1,0,0:0:0:0:
149,169,178827,2,0,L|23:177,1,125.999996154785
157,327,179316,2,0,L|270:334,1,90
219,204,179642,5,0,0:0:0:0:
82,212,179968,1,0,0:0:0:0:
157,327,180131,2,0,L|162:268,1,45
219,204,180294,1,0,0:0:0:0:
219,204,180457,1,0,0:0:0:0:
157,327,180621,6,0,L|49:333,1,90,0|0,0:0|0:0,0:0:0:0:
21,334,180866,2,0,L|26:305,2,30,0|0|0,0:0|0:0|0:0,0:0:0:0:
157,327,181110,1,0,0:0:0:0:
21,334,181273,1,0,0:0:0:0:
82,212,181436,2,0,L|207:218,1,125.999996154785
235,335,181925,6,0,L|146:340,1,90
313,219,182251,1,0,0:0:0:0:
430,297,182414,1,0,0:0:0:0:
235,335,182577,1,0,0:0:0:0:
357,102,182740,1,0,0:0:0:0:
357,102,182822,1,0,0:0:0:0:
357,102,182903,5,0,0:0:0:0:
430,297,183066,1,0,0:0:0:0:
256,92,183229,1,0,0:0:0:0:
329,307,183392,1,0,0:0:0:0:
163,133,183555,5,0,0:0:0:0:
236,353,183718,1,0,0:0:0:0:
70,87,183881,1,0,0:0:0:0:
143,307,184044,1,0,0:0:0:0:
163,133,184208,5,0,0:0:0:0:
29,366,184371,1,0,0:0:0:0:
9,74,184534,1,0,0:0:0:0:
143,307,184697,1,0,0:0:0:0:
169,5,184860,5,0,0:0:0:0:
35,238,185023,1,0,0:0:0:0:
210,190,185186,5,0,0:0:0:0:
200,146,185267,1,0,0:0:0:0:
172,109,185349,1,0,0:0:0:0:
134,83,185430,1,0,0:0:0:0:
88,78,185512,5,0,0:0:0:0:
108,351,185675,1,0,0:0:0:0:
287,202,185838,1,0,0:0:0:0:
22,249,186001,1,0,0:0:0:0:
241,328,186164,5,0,0:0:0:0:
67,122,186327,1,0,0:0:0:0:
373,304,186490,1,0,0:0:0:0:
200,99,186653,1,0,0:0:0:0:
108,351,186816,5,0,0:0:0:0:
419,178,186979,1,0,0:0:0:0:
67,122,187142,1,0,0:0:0:0:
332,75,187305,1,0,0:0:0:0:
12,0,187468,5,0,0:0:0:0:
108,315,187631,1,0,0:0:0:0:
332,75,187794,5,0,0:0:0:0:
293,50,187875,1,0,0:0:0:0:
247,44,187957,1,0,0:0:0:0:
202,53,188038,1,0,0:0:0:0:
166,82,188120,5,0,0:0:0:0:
288,341,188284,1,0,0:0:0:0:
494,168,188447,2,0,L|485:73,1,90,0|0,0:0|0:0,0:0:0:0:
247,44,188773,1,0,0:0:0:0:
288,341,188936,2,0,P|371:347|402:327,1,90,0|0,0:0|0:0,0:0:0:0:
494,168,189262,1,0,0:0:0:0:
188,222,189425,6,0,L|178:344,1,90,0|0,0:0|0:0,0:0:0:0:
440,314,189751,1,0,0:0:0:0:
394,48,189914,1,0,0:0:0:0:
288,341,190077,2,0,L|187:332,1,90,0|0,0:0|0:0,0:0:0:0:
304,56,190403,2,0,L|393:48,1,90,0|0,0:0|0:0,0:0:0:0:
188,222,190729,5,0,0:0:0:0:
97,13,190892,1,0,0:0:0:0:
97,13,191055,2,0,L|88:103,1,90,0|0,0:0|0:0,0:0:0:0:
125,278,191382,1,0,0:0:0:0:
125,278,191544,2,0,L|115:367,2,90,0|0|0,0:0|0:0|0:0,0:0:0:0:
172,18,192034,6,0,L|182:108,1,90,0|0,0:0|0:0,0:0:0:0:
219,273,192360,2,0,L|209:362,1,90,0|0,0:0|0:0,0:0:0:0:
266,23,192686,6,0,L|276:113,1,90,0|0,0:0|0:0,0:0:0:0:
313,268,193012,2,0,L|303:357,1,90,0|0,0:0|0:0,0:0:0:0:
303,357,193256,1,0,0:0:0:0:
303,357,193338,1,0,0:0:0:0:
369,117,193501,1,0,0:0:0:0:
303,357,193664,6,0,L|187:348,1,90,0|0,0:0|0:0,0:0:0:0:
129,181,193990,1,0,0:0:0:0:
369,117,194153,2,0,P|402:154|417:228,1,90,0|0,0:0|0:0,0:0:0:0:
165,319,194479,1,0,0:0:0:0:
230,79,194642,1,0,0:0:0:0:
405,255,194805,1,0,0:0:0:0:
165,319,194968,6,0,L|75:313,1,90,0|0,0:0|0:0,0:0:0:0:
369,117,195294,2,0,L|458:111,1,90,0|0,0:0|0:0,0:0:0:0:
365,333,195620,1,0,0:0:0:0:
230,79,195784,1,0,0:0:0:0:
230,79,195865,1,0,0:0:0:0:
230,79,195947,1,0,0:0:0:0:
78,323,196110,1,0,0:0:0:0:
370,168,196273,6,0,L|369:70,1,90,0|0,0:0|0:0,0:0:0:0:
89,157,196599,1,0,0:0:0:0:
365,333,196762,2,0,P|426:333|460:319,1,90
370,168,197088,1,0,0:0:0:0:
89,344,197251,5,0,0:0:0:0:
55,314,197333,1,0,0:0:0:0:
37,273,197414,1,0,0:0:0:0:
37,228,197496,1,0,0:0:0:0:
55,187,197577,1,0,0:0:0:0:
89,157,197659,1,0,0:0:0:0:
131,143,197740,1,0,0:0:0:0:
176,148,197822,1,0,0:0:0:0:
215,170,197903,5,0,0:0:0:0:
237,209,197984,1,0,0:0:0:0:
274,236,198066,1,0,0:0:0:0:
318,244,198147,1,0,0:0:0:0:
362,235,198229,1,0,0:0:0:0:
398,209,198310,1,0,0:0:0:0:
420,170,198392,1,0,0:0:0:0:
426,125,198473,1,0,0:0:0:0:
412,83,198555,5,0,0:0:0:0:
256,192,198637,12,0,203773,0:0:0:0:
