osu file format v14

[General]
AudioFilename: audio.mp3
AudioLeadIn: 0
PreviewTime: 38995
Countdown: 0
SampleSet: None
StackLeniency: 0.7
Mode: 0
LetterboxInBreaks: 1
WidescreenStoryboard: 0

[Editor]
DistanceSpacing: 1
BeatDivisor: 4
GridSize: 32
TimelineZoom: 2.8

[Metadata]
Title:Historia
TitleUnicode:ヒストリア
Artist:CHiCO with HoneyWorks
ArtistUnicode:CHiCO with HoneyWorks
Creator:Emychi
Version:Extra
Source:
Tags:
BeatmapID:1860987
BeatmapSetID:890266

[Difficulty]
HPDrainRate:5.2
CircleSize:4
OverallDifficulty:8.7
ApproachRate:9.2
SliderMultiplier:1.8
SliderTickRate:1

[Events]
//Background and Video events
0,0,"BG.jpg",0,0
//Break Periods
2,6061,10219
2,11278,15436
//Storyboard Layer 0 (Background)
//Storyboard Layer 1 (Fail)
//Storyboard Layer 2 (Pass)
//Storyboard Layer 3 (Foreground)
//Storyboard Sound Samples

[TimingPoints]
5572,326.086956521739,4,2,1,80,1,0
16006,-100,4,2,1,60,0,0
17229,-100,4,2,1,5,0,0
17311,-100,4,2,1,60,0,0
19838,-100,4,2,1,5,0,0
19919,-100,4,2,1,60,0,0
22446,-100,4,2,1,5,0,0
22528,-100,4,2,1,60,0,0
24077,-100,4,2,1,5,0,0
24158,-100,4,2,1,60,0,0
24974,-100,4,2,1,70,0,0
31577,-100,4,2,1,5,0,0
31658,-100,4,2,1,70,0,0
34512,-100,4,2,1,5,0,0
34593,-100,4,2,1,70,0,0
35898,-100,4,2,1,80,0,0
38995,-100,4,2,1,5,0,0
39158,-250.000000000001,4,2,1,70,0,0
39444,-250,4,2,1,5,0,0
39485,-90.9090909090909,4,2,1,90,0,1
39729,-90.9090909090909,4,2,1,5,0,1
39811,-90.9090909090909,4,2,1,90,0,1
42338,-90.9090909090909,4,2,1,5,0,1
42419,-90.9090909090909,4,2,1,90,0,1
44946,-90.9090909090909,4,2,1,5,0,1
45028,-90.9090909090909,4,2,1,90,0,1
47555,-90.9090909090909,4,2,1,5,0,1
47637,-90.9090909090909,4,2,1,90,0,1
49919,-100,4,2,1,80,0,0
60354,-90.9090909090909,4,2,1,90,0,1
65245,-90.9090909090909,4,2,1,90,0,0
65571,-90.9090909090909,4,2,1,90,0,1
70463,-90.9090909090909,4,2,1,90,0,0
70789,-90.9090909090909,4,2,1,90,0,1
76006,-244.798041615667,4,2,1,70,0,0
81061,-244.798041615667,4,2,1,5,0,0

[Colours]
Combo1 : 255,192,0
Combo2 : 0,202,0
Combo3 : 18,124,255
Combo4 : 242,24,57

[HitObjects]
143,214,5572,5,8,0:0:0:0:
346,125,5735,1,8,0:0:0:0:
131,119,10789,5,8,0:0:0:0:
345,226,10952,1,8,0:0:0:0:
131,119,16006,6,0,P|179:110|241:133,1,90,2|0,0:0|0:0,0:0:0:0:
270,192,16332,1,8,0:0:0:0:
355,84,16495,2,0,P|346:132|369:194,1,90,0|2,0:0|0:0,0:0:0:0:
419,235,16821,1,0,0:0:0:0:
310,297,16985,2,0,B|233:306|253:256|153:271,1,135,8|0,0:0|0:0,0:0:0:0:
144,283,17311,5,2,0:0:0:0:
103,128,17474,1,0,0:0:0:0:
28,286,17637,1,8,0:0:0:0:
138,124,17800,1,0,0:0:0:0:
138,124,17881,1,0,0:0:0:0:
138,124,17963,2,0,B|225:113|213:171|317:157,1,180,2|8,0:0|0:0,0:0:0:0:
396,128,18452,1,0,0:0:0:0:
445,293,18615,6,0,P|436:245|459:183,1,90,2|0,0:0|0:0,0:0:0:0:
376,350,18941,1,8,0:0:0:0:
290,231,19104,2,0,P|299:279|276:341,1,90,0|2,0:0|0:0,0:0:0:0:
220,379,19430,1,0,0:0:0:0:
172,220,19593,2,0,B|95:211|115:261|15:246,1,135,8|0,0:0|0:0,0:0:0:0:
6,234,19919,6,0,P|-3:186|20:124,1,90,2|0,0:0|0:0,0:0:0:0:
94,320,20245,1,8,0:0:0:0:
189,206,20408,2,0,P|198:158|175:96,1,90,0|2,0:0|0:0,0:0:0:0:
254,286,20735,1,0,0:0:0:0:
295,126,20898,1,8,0:0:0:0:
162,218,21061,1,0,0:0:0:0:
102,41,21224,6,0,P|111:89|88:151,1,90,2|0,0:0|0:0,0:0:0:0:
189,0,21550,1,8,0:0:0:0:
279,105,21713,2,0,P|327:114|389:91,1,90,0|2,0:0|0:0,0:0:0:0:
185,177,22039,1,0,0:0:0:0:
328,234,22202,2,0,B|405:243|385:193|485:208,1,135,8|0,0:0|0:0,0:0:0:0:
494,220,22528,5,2,0:0:0:0:
402,313,22691,1,0,0:0:0:0:
345,145,22854,1,8,0:0:0:0:
319,336,23017,1,0,0:0:0:0:
319,336,23099,1,0,0:0:0:0:
319,336,23180,2,0,P|271:345|209:322,1,90,2|0,0:0|0:0,0:0:0:0:
156,270,23506,1,8,0:0:0:0:
104,377,23669,1,0,0:0:0:0:
54,206,23832,6,0,B|131:197|111:247|211:232,1,135,2|0,0:0|0:0,0:0:0:0:
216,220,24158,1,8,0:0:0:0:
268,75,24321,1,0,0:0:0:0:
122,168,24485,1,2,0:0:0:0:
286,271,24648,2,0,P|334:280|396:257,1,90,0|8,0:0|0:0,0:0:0:0:
468,104,24974,6,0,P|456:182|464:296,1,180,4|2,0:0|0:0,0:0:0:0:
476,315,25381,1,2,0:0:0:0:
476,315,25463,1,2,0:0:0:0:
347,157,25626,1,2,0:0:0:0:
318,356,25789,1,2,0:0:0:0:
384,130,25952,1,2,0:0:0:0:
206,253,26115,2,0,P|177:256|149:256,1,45
348,324,26278,2,0,P|376:320|405:321,1,45
156,384,26441,5,8,0:0:0:0:
275,125,26604,1,8,0:0:0:0:
286,146,26930,1,2,0:0:0:0:
291,153,27012,1,2,0:0:0:0:
296,160,27093,2,0,L|406:180,1,90,2|0,0:0|0:0,0:0:0:0:
206,253,27419,1,2,0:0:0:0:
348,324,27582,1,2,0:0:0:0:
173,370,27745,6,0,B|86:381|98:323|-6:337,1,180,0|2,0:0|0:0,0:0:0:0:
0,336,28398,2,8,P|-9:288|14:226,1,90,0|0,0:0|0:0,0:0:0:0:
69,171,28724,2,8,P|78:123|55:61,1,90,0|0,0:0|0:0,0:0:0:0:
126,262,29050,5,8,0:0:0:0:
218,17,29213,1,8,0:0:0:0:
230,41,29539,1,2,0:0:0:0:
235,48,29621,1,2,0:0:0:0:
240,55,29702,2,8,P|288:64|350:41,1,90,2|0,0:0|0:0,0:0:0:0:
169,153,30028,1,2,0:0:0:0:
331,206,30191,1,2,0:0:0:0:
136,252,30354,6,0,P|69:176|97:78,1,180,0|2,0:0|0:0,0:0:0:0:
78,103,31006,2,0,B|126:88|174:107|174:107|185:68|185:68|195:95|219:125|219:125|249:73|321:77,1,315,2|0,0:0|0:0,0:0:0:0:
355,88,31658,5,8,0:0:0:0:
308,311,31821,1,8,0:0:0:0:
293,288,32148,1,2,0:0:0:0:
288,281,32230,1,2,0:0:0:0:
283,274,32311,2,0,L|173:254,1,90,2|0,0:0|0:0,0:0:0:0:
359,203,32637,1,0,0:0:0:0:
208,122,32800,1,0,0:0:0:0:
451,154,32963,6,0,P|455:241|393:302,1,180,0|2,0:0|0:0,0:0:0:0:
393,302,33615,2,0,L|294:286,1,90
225,356,33941,2,0,L|136:370,1,90
7,249,34267,6,0,B|44:237|44:237|140:254,1,135,2|0,0:0|0:0,0:0:0:0:
178,268,34593,1,0,0:0:0:0:
54,125,34756,1,2,0:0:0:0:
248,157,34919,2,0,L|347:141,1,90,2|0,0:0|0:0,0:0:0:0:
439,262,35245,2,0,L|340:246,1,90
248,367,35571,5,0,0:0:0:0:
164,101,35898,5,8,0:0:0:0:
213,347,36061,1,8,0:0:0:0:
395,46,36387,5,8,0:0:0:0:
361,324,36550,1,8,0:0:0:0:
256,192,36876,12,0,38995,0:0:0:0:
66,126,39158,6,0,L|57:191,1,63
51,221,39485,6,0,B|134:218|110:265|196:263,1,148.50000453186,4|0,0:0|0:0,0:0:0:0:
234,258,39811,5,8,0:0:0:0:
294,59,39974,1,2,0:0:0:0:
318,300,40137,5,8,0:0:0:0:
217,104,40300,1,2,0:0:0:0:
181,340,40463,5,8,0:0:0:0:
350,175,40626,1,2,0:0:0:0:
98,202,40789,5,8,0:0:0:0:
316,318,40952,1,2,0:0:0:0:
53,307,41115,5,8,0:0:0:0:
273,189,41278,1,2,0:0:0:0:
23,170,41441,5,8,0:0:0:0:
223,326,41604,1,2,0:0:0:0:
7,321,41767,5,8,0:0:0:0:
246,164,41930,1,2,0:0:0:0:
246,164,42012,1,2,0:0:0:0:
246,164,42093,6,0,B|329:161|305:208|391:206,1,148.50000453186,8|0,0:0|0:0,0:0:0:0:
429,201,42419,5,8,0:0:0:0:
370,384,42582,1,2,0:0:0:0:
377,113,42745,5,8,0:0:0:0:
483,330,42908,1,2,0:0:0:0:
268,206,43071,5,8,0:0:0:0:
512,251,43235,1,2,0:0:0:0:
274,295,43398,5,8,0:0:0:0:
475,141,43561,1,2,0:0:0:0:
239,171,43724,5,8,0:0:0:0:
454,313,43887,1,2,0:0:0:0:
197,305,44050,5,8,0:0:0:0:
430,213,44213,1,2,0:0:0:0:
304,384,44376,5,8,0:0:0:0:
351,147,44539,1,2,0:0:0:0:
351,147,44620,1,2,0:0:0:0:
351,147,44702,6,0,P|352:73|337:-18,1,148.50000453186,8|8,0:0|0:0,0:0:0:0:
297,0,45028,5,8,0:0:0:0:
220,214,45191,1,2,0:0:0:0:
195,37,45354,5,8,0:0:0:0:
318,259,45517,1,2,0:0:0:0:
308,82,45680,5,8,0:0:0:0:
122,250,45843,1,2,0:0:0:0:
331,234,46006,5,8,0:0:0:0:
78,156,46169,1,2,0:0:0:0:
275,153,46332,5,8,0:0:0:0:
69,312,46495,1,2,0:0:0:0:
297,328,46658,5,8,0:0:0:0:
42,156,46821,1,2,0:0:0:0:
114,384,46985,5,8,0:0:0:0:
173,148,47148,1,2,0:0:0:0:
173,148,47229,1,2,0:0:0:0:
173,148,47311,6,0,P|174:74|159:-17,1,148.50000453186,8|0,0:0|0:0,0:0:0:0:
119,0,47637,5,8,0:0:0:0:
41,233,47800,1,2,0:0:0:0:
34,55,47963,5,8,0:0:0:0:
160,270,48126,1,2,0:0:0:0:
199,75,48289,5,8,0:0:0:0:
86,311,48452,1,2,0:0:0:0:
279,202,48615,5,10,0:0:0:0:
326,190,48696,1,2,0:0:0:0:
369,212,48778,1,2,0:0:0:0:
388,257,48860,1,2,0:0:0:0:
375,303,48942,1,10,0:0:0:0:
335,329,49022,1,2,0:0:0:0:
286,322,49104,1,2,0:0:0:0:
253,289,49186,1,2,0:0:0:0:
249,241,49267,5,10,0:0:0:0:
218,278,49349,1,2,0:0:0:0:
169,282,49430,1,2,0:0:0:0:
132,251,49512,1,2,0:0:0:0:
128,202,49593,1,10,0:0:0:0:
159,164,49675,1,2,0:0:0:0:
190,126,49757,1,2,0:0:0:0:
186,77,49838,1,2,0:0:0:0:
148,45,49919,5,8,0:0:0:0:
319,260,50082,1,8,0:0:0:0:
335,239,50408,1,2,0:0:0:0:
340,234,50490,1,2,0:0:0:0:
345,229,50571,2,0,L|457:208,1,90,2|0,0:0|0:0,0:0:0:0:
268,147,50898,1,0,0:0:0:0:
456,126,51061,6,0,P|523:217|475:292,1,180,2|0,0:0|0:0,0:0:0:0:
355,321,51550,2,0,L|266:304,1,90,2|0,0:0|0:0,0:0:0:0:
376,152,51876,1,2,0:0:0:0:
376,152,52528,5,8,0:0:0:0:
148,45,52691,1,8,0:0:0:0:
132,69,53017,1,2,0:0:0:0:
127,74,53099,1,2,0:0:0:0:
122,79,53180,2,0,P|74:88|12:65,1,90,2|0,0:0|0:0,0:0:0:0:
187,170,53506,1,2,0:0:0:0:
20,250,53669,6,0,B|117:239|85:311|207:295,1,180,2|0,0:0|0:0,0:0:0:0:
305,225,54158,2,0,P|295:268|304:312,1,90,2|0,0:0|0:0,0:0:0:0:
372,154,54485,2,0,P|381:110|372:66,1,90,2|0,0:0|0:0,0:0:0:0:
495,212,54811,2,0,P|485:169|494:125,1,90,2|0,0:0|0:0,0:0:0:0:
403,335,55137,5,8,0:0:0:0:
287,109,55300,1,8,0:0:0:0:
269,135,55626,1,2,0:0:0:0:
264,140,55708,1,2,0:0:0:0:
259,145,55789,2,0,P|211:154|149:131,1,90,2|0,0:0|0:0,0:0:0:0:
104,56,56115,1,0,0:0:0:0:
27,191,56278,6,0,P|111:207|170:144,1,180,2|0,0:0|0:0,0:0:0:0:
218,297,56767,2,0,L|307:314,1,90,2|0,0:0|0:0,0:0:0:0:
372,154,57093,1,0,0:0:0:0:
372,154,57745,5,8,0:0:0:0:
456,384,57908,1,8,0:0:0:0:
480,366,58235,1,2,0:0:0:0:
485,361,58317,1,2,0:0:0:0:
490,356,58398,2,0,L|511:244,1,90,2|0,0:0|0:0,0:0:0:0:
331,350,58724,1,0,0:0:0:0:
268,150,58887,6,0,B|369:144|338:216|456:206,1,180,2|0,0:0|0:0,0:0:0:0:
372,66,59376,2,0,P|362:109|371:153,1,90,2|0,0:0|0:0,0:0:0:0:
280,278,59702,2,0,P|290:235|281:191,1,90,2|0,0:0|0:0,0:0:0:0:
420,325,60028,2,0,P|410:282|419:238,1,90,2|0,0:0|0:0,0:0:0:0:
454,211,60273,1,0,0:0:0:0:
454,211,60354,5,8,0:0:0:0:
259,316,60517,1,2,0:0:0:0:
494,279,60680,5,8,0:0:0:0:
256,170,60843,1,2,0:0:0:0:
495,144,61006,5,8,0:0:0:0:
280,278,61169,1,2,0:0:0:0:
512,325,61332,5,8,0:0:0:0:
343,139,61495,1,2,0:0:0:0:
334,350,61658,5,8,0:0:0:0:
446,126,61821,1,2,0:0:0:0:
420,325,61985,5,8,0:0:0:0:
281,88,62148,1,2,0:0:0:0:
259,316,62311,5,8,0:0:0:0:
387,73,62474,1,2,0:0:0:0:
130,170,62637,5,0,0:0:0:0:
108,177,62718,1,2,0:0:0:0:
84,187,62800,1,2,0:0:0:0:
61,196,62881,1,2,0:0:0:0:
38,205,62963,5,8,0:0:0:0:
259,316,63126,1,2,0:0:0:0:
96,98,63289,5,8,0:0:0:0:
89,367,63452,1,2,0:0:0:0:
293,139,63615,5,8,0:0:0:0:
11,212,63778,1,2,0:0:0:0:
300,292,63941,5,8,0:0:0:0:
51,121,64104,1,2,0:0:0:0:
328,114,64267,5,8,0:0:0:0:
99,268,64430,1,2,0:0:0:0:
326,313,64593,5,8,0:0:0:0:
135,85,64756,1,2,0:0:0:0:
177,309,64919,5,8,0:0:0:0:
280,16,65082,1,2,0:0:0:0:
413,277,65245,5,0,0:0:0:0:
422,301,65326,1,2,0:0:0:0:
435,326,65408,1,2,0:0:0:0:
447,350,65489,1,2,0:0:0:0:
459,375,65571,5,8,0:0:0:0:
512,166,65735,1,2,0:0:0:0:
280,223,65898,5,8,0:0:0:0:
512,302,66061,1,2,0:0:0:0:
421,121,66224,5,8,0:0:0:0:
369,372,66387,1,2,0:0:0:0:
306,128,66550,5,8,0:0:0:0:
435,326,66713,1,2,0:0:0:0:
449,99,66876,5,8,0:0:0:0:
311,313,67039,1,2,0:0:0:0:
272,110,67202,5,8,0:0:0:0:
490,234,67365,1,2,0:0:0:0:
257,252,67528,5,8,0:0:0:0:
429,72,67691,1,2,0:0:0:0:
412,304,67854,5,8,0:0:0:0:
250,83,68017,1,2,0:0:0:0:
250,83,68099,1,2,0:0:0:0:
250,83,68180,5,8,0:0:0:0:
229,331,68343,1,2,0:0:0:0:
382,153,68506,5,8,0:0:0:0:
112,199,68669,1,2,0:0:0:0:
322,321,68832,5,8,0:0:0:0:
273,50,68995,1,2,0:0:0:0:
176,255,69158,5,8,0:0:0:0:
413,139,69321,1,2,0:0:0:0:
152,123,69485,5,8,0:0:0:0:
376,262,69648,1,2,0:0:0:0:
135,277,69811,5,8,0:0:0:0:
332,147,69974,1,2,0:0:0:0:
69,124,70137,5,8,0:0:0:0:
260,263,70300,1,2,0:0:0:0:
187,43,70463,5,8,0:0:0:0:
40,260,70626,1,2,0:0:0:0:
40,260,70707,1,0,0:0:0:0:
40,260,70789,5,8,0:0:0:0:
266,180,70952,1,2,0:0:0:0:
69,84,71115,5,8,0:0:0:0:
190,310,71278,1,2,0:0:0:0:
254,98,71441,5,8,0:0:0:0:
0,179,71604,1,2,0:0:0:0:
260,263,71767,5,8,0:0:0:0:
158,19,71930,1,2,0:0:0:0:
72,245,72093,5,8,0:0:0:0:
330,127,72256,1,2,0:0:0:0:
98,104,72419,5,8,0:0:0:0:
329,228,72582,1,2,0:0:0:0:
237,20,72745,5,8,0:0:0:0:
151,263,72908,1,2,0:0:0:0:
352,100,73071,5,8,0:0:0:0:
98,104,73235,1,2,0:0:0:0:
252,243,73398,5,8,0:0:0:0:
204,0,73561,1,2,0:0:0:0:
125,238,73724,5,8,0:0:0:0:
386,170,73887,1,2,0:0:0:0:
130,83,74050,5,8,0:0:0:0:
193,341,74213,1,2,0:0:0:0:
315,91,74376,5,8,0:0:0:0:
33,158,74539,1,2,0:0:0:0:
33,158,74620,1,2,0:0:0:0:
33,158,74702,5,10,0:0:0:0:
1,194,74784,1,2,0:0:0:0:
6,243,74865,1,2,0:0:0:0:
43,274,74947,1,2,0:0:0:0:
92,270,75028,1,10,0:0:0:0:
124,233,75110,1,2,0:0:0:0:
156,196,75192,1,2,0:0:0:0:
205,191,75273,1,2,0:0:0:0:
243,223,75354,5,10,0:0:0:0:
243,174,75436,1,2,0:0:0:0:
274,137,75517,1,2,0:0:0:0:
320,129,75599,1,2,0:0:0:0:
362,153,75680,1,2,0:0:0:0:
378,197,75762,1,2,0:0:0:0:
417,221,75844,1,2,0:0:0:0:
464,212,75925,1,2,0:0:0:0:
496,174,76006,5,10,0:0:0:0:
256,192,76088,12,0,81061,0:0:0:0:
