osu file format v14

[General]
AudioFilename: oneyearmp3.mp3
AudioLeadIn: 0
PreviewTime: 151227
Countdown: 0
SampleSet: Soft
StackLeniency: 0.7
Mode: 0
LetterboxInBreaks: 0
WidescreenStoryboard: 0

[Editor]
Bookmarks: 48917,86417,96852,188156,203808
DistanceSpacing: 1
BeatDivisor: 4
GridSize: 4
TimelineZoom: 2.1

[Metadata]
Title:Historia
TitleUnicode:ヒストリア
Artist:CHiCO with HoneyWorks
ArtistUnicode:CHiCO with HoneyWorks
Creator:CelsiusLK
Version:Easy
Source:
Tags:プライド革命 Pride Kakumei full
BeatmapID:986751
BeatmapSetID:453678

[Difficulty]
HPDrainRate:3
CircleSize:3
OverallDifficulty:3
ApproachRate:3
SliderMultiplier:0.9
SliderTickRate:1

[Events]
//Background and Video events
0,0,"narutoismywaifuilovbeanimbe.jpg",0,0
//Break Periods
2,86617,95412
//Storyboard Layer 0 (Background)
//Storyboard Layer 1 (Fail)
//Storyboard Layer 2 (Pass)
//Storyboard Layer 3 (Foreground)
//Storyboard Sound Samples

[TimingPoints]
5548,326.086956521739,4,2,1,80,1,0
6037,-100,4,2,1,30,0,0
10765,-100,4,2,1,80,0,0
11254,-100,4,2,1,30,0,0
14352,-100,4,2,1,60,0,0
24950,-100,4,2,1,70,0,0
26743,-100,4,2,1,65,0,0
30982,-100,4,2,1,40,0,0
31634,-100,4,2,1,80,0,0
31961,-100,4,2,1,70,0,0
36852,-100,4,2,1,40,0,0
39461,-100,4,2,1,80,0,1
48591,-100,4,2,1,60,0,1
48754,-100,4,2,1,65,0,1
48917,-100,4,2,1,70,0,1
49243,-100,4,2,1,75,0,1
49895,-100,4,2,1,70,0,0
58863,-100,4,2,1,80,0,0
65547,-100,4,2,1,60,0,0
70765,-100,4,2,1,70,0,0
75982,-100,4,2,1,75,0,0
85765,-100,4,2,1,60,0,0
85928,-100,4,2,1,65,0,0
86091,-100,4,2,1,70,0,0
86254,-100,4,2,1,75,0,0
86417,-100,4,2,1,80,0,0
96852,-100,4,2,1,75,0,0
97830,-100,4,2,1,55,0,0
98808,-100,4,2,1,75,0,0
100439,-100,4,2,1,55,0,0
101091,-100,4,2,1,75,0,0
103047,-100,4,2,1,55,0,0
104026,-100,4,2,1,75,0,0
117721,-100,4,2,1,40,0,0
138591,-100,4,2,1,80,0,0
138917,-100,4,2,1,65,0,0
141200,-100,4,2,1,80,0,0
141689,-100,4,2,1,65,0,0
143808,-100,4,2,1,80,0,0
144134,-100,4,2,1,70,0,0
149026,-100,4,2,1,40,0,0
151634,-100,4,2,1,80,0,1
160765,-100,4,2,1,60,0,1
160928,-100,4,2,1,65,0,1
161091,-100,4,2,1,70,0,1
161417,-100,4,2,1,75,0,1
161743,-100,4,2,1,80,0,1
161988,-100,4,2,1,80,0,0
162069,-100,4,2,1,85,0,1
171200,-100,4,2,1,75,0,1
171852,-100,4,2,1,80,0,1
172504,-100,4,2,1,75,0,0
174461,-100,4,2,1,75,0,0
197287,-100,4,2,1,80,0,0
198672,-100,4,2,1,20,0,0
203727,-100,4,2,1,5,0,0

[Colours]
Combo1 : 221,164,193
Combo2 : 128,128,255
Combo3 : 255,128,128
Combo4 : 255,165,121

[HitObjects]
216,224,5548,6,0,B|272:248|272:248|376:240,2,135,12|2|2,0:0|0:1|0:1,0:0:0:0:
165,151,6852,2,0,B|248:108|252:180|339:145,1,180,2|2,0:1|0:1,0:0:0:0:
412,92,7830,1,2,0:1:0:0:
472,160,8156,6,0,P|484:224|472:295,2,135,2|2|2,0:1|0:1|0:1,0:0:0:0:
388,196,9461,1,2,0:1:0:0:
312,148,9787,2,0,L|180:136,1,90,2|2,0:1|0:1,0:0:0:0:
44,164,10765,6,0,P|84:236|88:312,2,135,12|2|2,0:0|0:1|0:1,0:0:0:0:
64,76,12069,2,0,L|184:64,1,90,2|2,0:1|0:1,0:0:0:0:
216,136,12721,2,0,L|336:120,1,90,2|2,0:1|0:1,0:0:0:0:
392,100,13374,6,0,B|396:148|396:148|380:188|380:188|384:252,2,135,2|2|8,0:1|0:1|0:3,0:0:0:0:
324,40,14678,2,0,P|288:32|234:30,1,90,2|2,0:0|0:0,0:0:0:0:
180,104,15330,2,0,P|144:108|68:88,1,90,2|2,0:0|0:0,0:0:0:0:
40,28,15982,6,0,P|-8:104|20:208,1,180,6|2,0:0|0:0,0:0:0:0:
56,268,16961,1,2,0:0:0:0:
144,248,17287,2,0,P|192:228|244:224,1,90,2|2,0:0|0:0,0:0:0:0:
300,280,17939,2,0,P|348:296|408:292,1,90,2|2,0:0|0:0,0:0:0:0:
472,264,18591,6,0,B|492:212|492:212|448:168|456:88,1,180,2|2,0:0|0:0,0:0:0:0:
496,20,19569,1,2,0:0:0:0:
408,12,19895,2,0,B|344:8|344:8|228:30,1,180,2|2,0:0|0:0,0:0:0:0:
152,76,20874,1,2,0:0:0:0:
68,48,21200,6,0,B|52:120|108:152|108:152|98:210,1,180,6|2,0:0|0:0,0:0:0:0:
76,296,22178,1,2,0:0:0:0:
160,280,22504,2,0,P|200:272|256:272,1,90,2|2,0:0|0:0,0:0:0:0:
340,260,23156,2,0,P|324:216|316:148,1,90,2|2,0:0|0:0,0:0:0:0:
344,88,23808,6,0,L|232:92,1,90,2|2,0:0|0:0,0:0:0:0:
172,56,24461,2,0,P|164:126|156:212,1,135,2|12,0:0|0:0,0:0:0:0:
160,280,25276,2,0,B|196:276|196:276|212:268|212:268|247:268,1,90,8|8,0:0|0:0,0:0:0:0:
464,332,26417,6,0,B|480:280|480:280|460:252|460:252|480:212|465:162,1,180,12|8,0:0|0:0,0:0:0:0:
404,96,27395,1,2,0:0:0:0:
316,112,27721,2,0,P|280:88|240:36,2,90,2|2|8,0:1|0:0|0:0,0:0:0:0:
372,184,28700,1,2,0:1:0:0:
308,248,29026,6,0,B|272:268|272:268|236:252|236:252|128:266,1,180,12|8,0:0|0:0,0:0:0:0:
64,216,30004,1,2,0:0:0:0:
112,140,30330,2,0,P|160:128|201:129,1,90,0|8,0:0|0:0,0:0:0:0:
276,172,30982,1,10,0:0:0:0:
416,64,31634,6,0,B|432:108|456:128|456:128|412:164|410:219,1,180,12|8,0:0|0:0,0:0:0:0:
448,300,32613,1,2,0:0:0:0:
358,324,32939,2,0,B|276:360|272:292|184:318,1,180,2|8,0:1|0:0,0:0:0:0:
100,352,33917,1,2,0:1:0:0:
48,280,34243,6,0,L|52:180,1,90,8|2,0:0|0:1,0:0:0:0:
124,136,34895,2,0,P|166:149|210:141,1,90,2|8,0:0|0:0,0:0:0:0:
280,84,35547,2,0,B|328:60|328:60|436:64,2,135,8|8|8,0:0|0:0|0:0,0:0:0:0:
312,168,36852,6,0,B|332:240|300:288|300:288|376:296,1,180,2|2,0:1|0:1,0:0:0:0:
492,178,38156,2,0,B|500:104|500:104|448:120|392:92,1,180,2|0,0:1|0:0,0:0:0:0:
228,40,39461,6,0,L|138:36,1,90,4|8,0:0|0:0,0:0:0:0:
60,84,40113,2,0,P|48:128|60:174,1,90,2|8,0:0|0:0,0:0:0:0:
108,244,40765,2,0,B|200:216|200:272|292:232,1,180,2|2,0:0|0:0,0:0:0:0:
364,196,41743,1,8,0:0:0:0:
416,268,42069,6,0,L|404:372,2,90,2|8|2,0:0|0:0|0:0,0:0:0:0:
468,192,43047,1,8,0:0:0:0:
416,120,43374,2,0,P|396:80|392:28,1,90,2|8,0:0|0:0,0:0:0:0:
304,52,44026,2,0,P|268:76|218:81,1,90,2|8,0:0|0:0,0:0:0:0:
140,48,44678,6,0,B|136:120|136:120|176:156|190:231,1,180,4|2,0:0|0:0,0:0:0:0:
156,300,45656,1,8,0:0:0:0:
244,288,45982,2,0,P|292:284|356:288,1,90,2|8,0:0|0:0,0:0:0:0:
420,316,46634,2,0,P|428:272|420:216,1,90,2|8,0:0|0:0,0:0:0:0:
400,140,47287,6,0,B|368:120|368:120|304:128,1,90,2|8,0:0|0:0,0:0:0:0:
236,168,47939,2,0,B|188:184|188:184|149:177,1,90,2|8,0:0|0:0,0:0:0:0:
60,156,48591,2,0,L|84:344,1,180,0|0,3:0|3:0,0:0:0:0:
172,356,49569,1,2,0:0:0:0:
256,320,49895,6,0,L|356:304,1,90,12|0,0:0|0:0,0:0:0:0:
424,260,50547,1,2,0:0:0:0:
315,179,51037,2,0,P|310:72|401:15,1,225,4|8,0:0|0:0,0:0:0:0:
460,188,52504,6,0,B|464:240|464:240|392:236|336:284,1,180,12|2,0:0|0:0,0:0:0:0:
236,356,53645,2,0,P|196:296|228:140,1,225,4|8,0:0|0:0,0:0:0:0:
396,116,55113,6,0,P|428:64|428:20,1,90,12|0,0:0|0:0,0:0:0:0:
340,40,55765,1,2,0:0:0:0:
236,128,56254,2,0,B|192:136|192:136|76:112,1,135,4|2,0:0|0:0,0:0:0:0:
44,184,57069,2,0,L|64:276,1,90,8|0,0:0|0:0,0:0:0:0:
148,304,57721,6,0,B|196:296|196:296|224:316|224:316|328:304,1,180,12|2,0:0|0:0,0:0:0:0:
432,232,58863,2,0,P|456:168|440:92,1,135,4|2,0:0|0:0,0:0:0:0:
372,52,59678,2,0,L|260:68,1,90,8|8,0:0|0:0,0:0:0:0:
196,92,60330,6,0,P|192:136|208:180,1,90,4|8,0:0|0:0,0:0:0:0:
288,224,60982,2,0,P|260:252|236:296,1,90,8|8,0:0|0:0,0:0:0:0:
312,344,61634,2,0,L|424:328,2,90,8|8|8,0:0|0:0|0:0,0:0:0:0:
232,384,62613,1,8,0:0:0:0:
152,344,62939,6,0,P|128:304|116:232,1,90,4|8,0:0|0:0,0:0:0:0:
168,188,63591,2,0,P|180:148|184:100,1,90,8|8,0:0|0:0,0:0:0:0:
104,64,64243,2,0,L|0:76,2,90,8|8|8,0:0|0:0|0:0,0:0:0:0:
180,16,65221,1,8,0:0:0:0:
260,52,65547,6,0,B|296:72|328:72|328:72|368:28|425:31,1,180,4|2,0:0|0:0,0:0:0:0:
488,96,66526,1,2,0:0:0:0:
464,184,66852,2,0,L|360:176,1,90,2|2,0:0|0:0,0:0:0:0:
296,220,67504,2,0,P|251:219|214:195,1,90,2|2,0:0|0:0,0:0:0:0:
164,120,68156,6,0,B|136:144|100:144|100:144|132:192|125:249,1,180,2|2,0:0|0:0,0:0:0:0:
68,316,69134,1,2,0:0:0:0:
152,352,69461,2,0,L|248:332,1,90,2|2,0:0|0:0,0:0:0:0:
312,276,70113,2,0,P|324:244|320:176,1,90,2|0,0:0|0:0,0:0:0:0:
256,128,70765,6,0,P|216:124|152:96,2,90,4|8|2,0:0|0:0|0:0,0:0:0:0:
332,80,71743,1,2,0:0:0:0:
404,132,72069,2,0,P|408:176|400:228,1,90,2|2,0:0|0:0,0:0:0:0:
332,276,72721,2,0,L|228:268,1,90,2|2,0:0|0:0,0:0:0:0:
160,232,73374,6,0,L|48:224,2,90,4|8|2,0:0|0:0|0:0,0:0:0:0:
228,172,74352,1,2,0:0:0:0:
316,192,74678,2,0,P|340:152|344:100,1,90,2|2,0:0|0:0,0:0:0:0:
264,72,75330,2,0,P|224:56|144:60,1,90,2|2,0:0|0:0,0:0:0:0:
92,84,75982,6,0,B|60:132|60:132|80:176|80:176|64:216|71:248,1,180,4|2,0:0|0:0,0:0:0:0:
140,308,76961,1,2,0:0:0:0:
224,272,77287,2,0,P|264:256|320:252,1,90,2|2,0:0|0:0,0:0:0:0:
392,287,77939,2,0,P|395:243|382:200,1,90,2|2,0:0|0:0,0:0:0:0:
326,127,78591,6,0,B|276:116|276:116|224:160|155:138,1,180,2|2,0:0|0:0,0:0:0:0:
88,80,79569,1,2,0:0:0:0:
40,156,79895,2,0,P|24:224|68:332,1,180,2|2,0:0|0:0,0:0:0:0:
148,296,80874,1,2,0:0:0:0:
228,336,81200,6,0,B|280:340|280:340|316:328|316:328|407:339,1,180,2|2,0:0|0:0,0:0:0:0:
480,284,82178,1,2,0:0:0:0:
404,236,82504,2,0,P|392:180|400:136,1,90,2|2,0:0|0:0,0:0:0:0:
476,104,83156,2,0,P|472:56|448:-8,1,90,2|2,0:0|0:0,0:0:0:0:
371,32,83808,6,0,B|288:72|288:16|195:41,1,180,2|2,0:0|0:0,0:0:0:0:
104,140,84950,2,0,L|116:240,1,90,2|2,0:1|0:1,0:0:0:0:
179,292,85602,2,0,P|237:258|303:262,1,135,2|2,0:1|0:1,0:0:0:0:
364,328,86417,1,2,0:1:0:0:
224,188,96852,6,0,B|272:168|272:168|376:176,1,135,8|8,0:0|0:0,0:0:0:0:
464,252,97830,2,0,P|412:312|292:320,1,180,4|0,0:0|0:0,0:0:0:0:
232,296,98808,1,12,0:0:0:0:
152,336,99134,1,8,0:0:0:0:
108,256,99461,6,0,B|88:208|88:208|92:112,1,135,8|8,0:0|0:0,0:0:0:0:
184,28,100439,2,0,P|280:56|362:52,1,180,4|8,0:0|0:0,0:0:0:0:
444,24,101417,2,0,P|456:68|444:136,1,90,8|8,0:3|0:3,0:0:0:0:
384,168,102069,6,0,B|344:152|344:152|220:176,1,135,8|8,0:0|0:0,0:0:0:0:
124,139,103047,2,0,P|115:227|173:293,1,180,4|0,0:0|0:0,0:0:0:0:
260,276,104026,2,0,L|356:268,1,90,12|8,0:0|0:0,0:0:0:0:
432,300,104678,6,0,B|444:256|444:256|440:212|440:212|460:148,1,135,8|8,0:0|0:0,0:0:0:0:
488,40,105656,2,0,P|452:52|392:60,1,90,4|2,0:0|0:0,0:0:0:0:
316,36,106308,1,8,0:0:0:0:
252,96,106634,2,0,L|240:200,1,90,2|2,0:0|0:0,0:0:0:0:
160,228,107287,6,0,P|124:208|48:208,1,90,4|8,0:0|0:0,0:0:0:0:
8,368,108265,1,8,0:0:0:0:
96,360,108591,2,0,L|200:344,1,90,2|8,0:0|0:0,0:0:0:0:
252,288,109243,2,0,B|320:288|364:324|364:324|432:288,1,180,2|2,0:0|0:0,0:0:0:0:
480,232,110221,6,0,P|496:184|460:44,1,180,8|8,0:0|0:0,0:0:0:0:
384,80,111200,2,0,B|344:112|344:112|204:96,1,180,2|2,0:0|0:1,0:0:0:0:
136,52,112178,1,4,0:0:0:0:
68,112,112504,6,0,P|36:72|24:40,2,67.5,4|4|8,0:0|0:0|0:0,0:0:0:0:
236,264,113808,2,0,P|244:292|236:344,2,67.5,4|4|8,0:0|0:0|0:0,0:0:0:0:
184,44,115113,6,0,L|363:58,1,180,4|0,0:0|0:0,0:0:0:0:
452,52,116091,1,8,0:0:0:0:
448,140,116417,2,0,P|444:192|464:260,1,90,8|2,0:0|0:0,0:0:0:0:
460,320,117069,2,0,L|360:308,1,90,2|8,0:0|0:0,0:0:0:0:
280,324,117721,6,0,P|200:206|175:344,1,360,4|0,0:0|0:0,0:0:0:0:
173,343,120330,6,0,B|193:295|193:295|173:247|173:247|261:199|273:135|237:83|161:91|149:135|197:191,1,360,2|0,0:1|0:0,0:0:0:0:
178,163,122939,6,0,B|269:131|257:211|361:187|361:187|381:143|433:131|469:171|453:215|413:215,1,360,2|0,0:1|0:0,0:0:0:0:
412,215,125547,6,0,B|361:199|361:199|293:223|237:191|237:191|201:223|152:232|152:232|116:200|140:144,1,360,2|0,0:1|0:0,0:0:0:0:
135,156,128156,6,0,B|191:113|191:113|183:197|235:237|235:237|231:153|314:120,1,360,2|0,0:1|0:0,0:0:0:0:
313,120,130765,6,0,B|238:101|182:153|182:153|154:85|122:57|122:57|90:93|98:129|134:149,1,360,2|0,0:1|0:0,0:0:0:0:
129,146,133374,6,0,B|158:197|222:217|282:209|282:209|198:245|198:245|190:289|102:321,1,360,2|0,0:1|0:0,0:0:0:0:
133,307,135982,6,0,B|149:355|201:343|229:343|249:307|253:259|221:235|221:235|197:211|161:223|161:223|129:215|129:215|106:225|62:221,1,360,2|0,0:1|0:0,0:0:0:0:
12,156,137613,1,8,0:3:0:0:
96,120,137939,2,0,P|96:96|76:20,1,90,2|0,0:0|0:0,0:0:0:0:
172,36,138591,6,0,L|288:24,1,90,12|0,0:0|0:0,0:0:0:0:
352,48,139243,2,0,B|364:84|364:84|348:160,1,90,8|2,0:0|0:0,0:0:0:0:
284,192,139895,2,0,P|197:178|124:227,1,180,2|8,0:1|0:0,0:0:0:0:
100,312,140874,1,2,0:1:0:0:
184,344,141200,6,0,L|280:336,1,90,12|0,0:0|0:0,0:0:0:0:
364,352,141852,2,0,P|392:316|396:264,1,90,8|8,0:0|0:0,0:0:0:0:
372,188,142504,2,0,B|304:208|304:208|260:164|205:167,1,180,2|8,0:0|0:0,0:0:0:0:
32,216,143808,6,0,P|24:168|44:112,1,90,12|0,0:0|0:0,0:0:0:0:
76,48,144461,2,0,L|200:28,1,90,8|8,0:0|0:0,0:0:0:0:
256,36,145113,2,0,B|280:92|280:92|252:236,1,180,2|2,0:1|0:0,0:0:0:0:
232,296,146091,1,8,0:0:0:0:
316,324,146417,6,0,L|432:320,1,90,4|0,0:0|0:0,0:0:0:0:
472,256,147069,2,0,B|476:212|476:212|456:140,1,90,8|2,0:0|0:1,0:0:0:0:
396,108,147721,2,0,P|340:64|252:64,2,135,8|8|8,0:0|0:0|0:0,0:0:0:0:
360,192,149026,6,0,B|304:212|304:212|268:184|268:184|172:188,1,180,2|2,0:1|0:1,0:0:0:0:
68,320,150330,2,0,B|140:336|176:292|176:292|248:284,1,180,2|0,0:1|0:0,0:0:0:0:
412,336,151634,6,0,P|428:288|432:228,1,90,4|8,0:0|0:0,0:0:0:0:
352,208,152287,2,0,P|312:168|300:116,1,90,2|8,0:0|0:0,0:0:0:0:
336,56,152939,2,0,B|280:40|280:40|136:68,1,180,2|2,0:0|0:0,0:0:0:0:
92,120,153917,1,8,0:0:0:0:
160,180,154243,6,0,P|184:216|184:272,1,90,2|8,0:0|0:0,0:0:0:0:
176,352,154895,2,0,L|284:340,1,90,2|8,0:0|0:0,0:0:0:0:
352,360,155547,2,0,L|368:256,1,90,2|8,0:0|0:0,0:0:0:0:
432,208,156200,2,0,L|412:96,1,90,2|8,0:0|0:0,0:0:0:0:
364,48,156852,6,0,B|312:68|312:68|240:52|240:52|160:72,1,180,4|2,0:0|0:0,0:0:0:0:
124,124,157830,1,8,0:0:0:0:
204,164,158156,2,0,L|200:268,1,90,2|8,0:0|0:0,0:0:0:0:
240,336,158808,2,0,P|264:316|328:292,1,90,2|8,0:0|0:0,0:0:0:0:
404,324,159461,6,0,B|424:248|360:212|360:212|360:164,1,180,2|2,0:0|0:0,0:0:0:0:
408,88,160439,1,8,0:0:0:0:
336,32,160765,2,0,B|292:20|292:20|224:28,1,90,0|0,3:0|3:0,0:0:0:0:
176,80,161417,2,0,B|172:128|172:128|144:164,1,90,0|0,3:0|3:0,0:0:0:0:
56,172,162069,6,0,P|64:208|92:272,1,90,4|8,0:0|0:0,0:0:0:0:
164,300,162721,2,0,P|196:264|220:208,1,90,2|8,0:0|0:0,0:0:0:0:
280,164,163374,2,0,P|328:148|392:144,2,90,2|8|2,0:0|0:0|0:0,0:0:0:0:
304,252,164352,1,8,0:0:0:0:
390,234,164678,6,0,L|506:226,1,90,2|8,0:0|0:0,0:0:0:0:
504,316,165330,2,0,L|414:322,1,90,2|8,0:0|0:0,0:0:0:0:
328,296,165982,2,0,B|240:284|240:336|149:317,1,180,2|2,0:0|0:0,0:0:0:0:
76,268,166961,1,8,0:0:0:0:
140,208,167287,6,0,P|152:172|140:104,1,90,4|8,0:0|0:0,0:0:0:0:
72,72,167939,2,0,P|104:44|184:40,1,90,2|8,0:0|0:0,0:0:0:0:
228,76,168591,2,0,L|344:52,2,90,2|8|2,0:0|0:0|0:0,0:0:0:0:
147,120,169569,1,8,0:0:0:0:
208,188,169895,6,0,L|297:194,1,90,2|8,0:0|0:0,0:0:0:0:
372,144,170547,2,0,B|416:128|416:128|470:131,1,90,2|8,0:0|0:0,0:0:0:0:
480,220,171200,2,0,L|464:320,1,90,0|0,3:0|3:0,0:0:0:0:
384,352,171852,2,0,P|353:319|339:276,1,90,0|0,3:0|3:0,0:0:0:0:
296,200,172504,6,0,L|192:216,1,90,12|0,0:0|0:0,0:0:0:0:
132,164,173156,1,2,0:0:0:0:
24,244,173645,2,0,B|-12:180|0:124|0:124|44:104|70:54,1,225,4|8,0:0|0:0,0:0:0:0:
252,48,175113,6,0,B|308:80|308:80|356:48|419:59,1,180,12|2,0:0|0:0,0:0:0:0:
472,184,176254,2,0,B|440:212|440:212|316:204,1,135,4|2,0:0|0:1,0:0:0:0:
260,180,177069,2,0,L|156:176,1,90,8|2,0:0|0:1,0:0:0:0:
84,148,177721,6,0,B|80:216|80:216|124:256|112:324,1,180,12|2,0:0|0:0,0:0:0:0:
244,288,178863,2,0,P|296:284|378:300,1,135,4|2,0:0|0:1,0:0:0:0:
464,324,179678,2,0,B|484:280|484:280|492:200,1,90,8|0,0:0|0:0,0:0:0:0:
424,176,180330,6,0,B|424:128|460:80|460:80|424:96|385:82,1,180,4|2,0:0|0:0,0:0:0:0:
256,52,181471,2,0,B|212:44|212:44|184:56|184:56|152:44|125:46,1,135,4|2,0:0|0:1,0:0:0:0:
52,96,182287,2,0,L|44:185,1,90,8|8,0:0|0:0,0:0:0:0:
96,260,182939,6,0,P|144:240|192:236,1,90,4|8,0:0|0:0,0:0:0:0:
260,280,183591,2,0,P|308:284|352:264,1,90,8|8,0:0|0:0,0:0:0:0:
420,216,184243,2,0,L|416:120,1,90,8|8,0:0|0:0,0:0:0:0:
380,44,184895,2,0,B|344:24|344:24|288:24,1,90,8|8,0:0|0:0,0:0:0:0:
276,112,185547,6,0,P|232:144|108:128,1,180,8|8,0:0|0:0,0:0:0:0:
36,88,186526,1,8,0:0:0:0:
12,176,186852,2,0,P|8:224|32:292,1,90,8|8,0:0|0:0,0:0:0:0:
92,316,187504,2,0,L|196:300,1,90,8|0,0:0|0:0,0:0:0:0:
264,264,188156,5,4,0:0:0:0:
340,316,188482,2,0,B|356:272|356:272|340:172,1,135,8|2,0:0|0:0,0:0:0:0:
300,56,189461,2,0,P|344:64|420:60,1,90,8|8,0:0|0:0,0:0:0:0:
472,96,190113,2,0,P|480:128|472:192,1,90,8|8,0:0|0:0,0:0:0:0:
436,264,190765,5,8,0:0:0:0:
356,224,191091,2,0,B|316:212|316:212|300:228|300:228|212:224,1,135,8|2,0:0|0:0,0:0:0:0:
100,188,192069,2,0,P|84:148|84:60,1,90,8|8,0:0|0:0,0:0:0:0:
148,44,192721,2,0,P|188:36|240:48,1,90,8|8,0:0|0:0,0:0:0:0:
312,96,193374,5,4,0:0:0:0:
392,52,193700,2,0,B|404:96|404:96|380:216,1,135,8|2,0:0|0:0,0:0:0:0:
300,288,194678,2,0,P|268:248|252:196,1,90,8|8,0:0|0:0,0:0:0:0:
172,176,195330,2,0,P|168:216|153:264,1,90,8|8,0:0|0:0,0:0:0:0:
76,312,195982,5,2,0:0:0:0:
140,376,196308,2,0,L|296:376,1,135,8|2,0:0|0:0,0:0:0:0:
400,312,197287,2,0,B|412:235|412:235|364:207|366:151,1,180,8|8,0:0|0:0,0:0:0:0:
432,84,198265,1,8,0:0:0:0:
356,36,198591,1,4,0:0:0:0:
256,192,198754,12,0,203808,0:0:0:0:
