osu file format v14

[General]
AudioFilename: audio.mp3
AudioLeadIn: 0
PreviewTime: 127912
Countdown: 0
SampleSet: Soft
StackLeniency: 0.7
Mode: 0
LetterboxInBreaks: 0
WidescreenStoryboard: 0

[Editor]
DistanceSpacing: 1
BeatDivisor: 4
GridSize: 4
TimelineZoom: 1.4

[Metadata]
Title:Himitsu Koigokoro
TitleUnicode:ヒミツ恋ゴコロ
Artist:CHiCO with HoneyWorks
ArtistUnicode:CHiCO with HoneyWorks
Creator:Yogurtt
Version:Affection
Source:彼女、お借りします
Tags:rent a girlfriend kanokari i'd id like to borrow a girlfriend second season 2 two op opening full size kanojo okarishimasu jpop japanese pop j-pop anime secret romance koldnoodl sanairrt -karupa- heroine hero_ic some hero
BeatmapID:3686511
BeatmapSetID:1798371

[Difficulty]
HPDrainRate:6
CircleSize:4
OverallDifficulty:9
ApproachRate:9.2
SliderMultiplier:1.8
SliderTickRate:1

[Events]
//Background and Video events
0,0,"hgeheh.jpg",0,0
//Break Periods
2,94475,102433
2,164294,169342
2,199202,200615
//Storyboard Layer 0 (Background)
//Storyboard Layer 1 (Fail)
//Storyboard Layer 2 (Pass)
//Storyboard Layer 3 (Foreground)
//Storyboard Layer 4 (Overlay)
//Storyboard Sound Samples

[TimingPoints]
1185,363.636363636364,4,2,1,60,1,0
12822,-100,4,2,1,75,0,0
19003,-76.9230769230769,4,2,1,75,0,0
19366,-100,4,2,1,75,0,0
24457,-117.647058823529,4,2,1,60,0,0
34457,-100,4,2,1,60,0,0
35685,-100,4,2,1,60,0,0
36095,-100,4,2,1,70,0,0
47321,-100,4,2,1,70,0,0
47731,-100,4,2,1,60,0,0
56048,-100,4,2,1,60,0,0
56458,-100,4,2,1,70,0,0
59366,-90.9090909090909,4,2,1,85,0,1
70639,-90.9090909090909,4,2,1,85,0,0
71003,-125,4,2,1,85,0,1
71366,-90.9090909090909,4,2,1,85,0,1
81912,-100,4,2,1,85,0,0
82230,-100,4,2,1,85,0,0
82275,-58.8235294117647,4,2,1,85,0,0
82639,-100,4,2,1,75,0,0
94276,-100,4,2,1,60,0,0
105913,-100,4,2,1,70,0,0
117139,-100,4,2,1,70,0,0
117549,-100,4,2,1,60,0,0
125866,-100,4,2,1,60,0,0
126276,-100,4,2,1,70,0,0
128776,-100,4,2,1,70,0,0
129185,-90.9090909090909,4,2,1,85,0,1
140457,-90.9090909090909,4,2,1,85,0,0
140821,-125,4,2,1,85,0,1
141185,-90.9090909090909,4,2,1,85,0,1
152457,-100,4,2,1,75,0,0
156094,-83.3333333333333,4,2,1,75,0,0
157366,-100,4,2,1,75,0,0
164095,-100,4,2,1,40,0,0
169912,-133.333333333333,4,2,1,40,0,0
175185,-100,4,2,1,40,0,0
175730,-90.9090909090909,4,2,1,85,0,1
187003,-66.6666666666667,4,2,1,85,0,0
187366,-125,4,2,1,85,0,1
187730,-90.9090909090909,4,2,1,85,0,1
193548,-71.4285714285714,4,2,1,85,0,1
193912,-90.9090909090909,4,2,1,85,0,1
198275,-100,4,2,1,85,0,0
198639,-200,4,2,1,85,0,0
199004,-100,4,2,1,50,0,0
201913,-100,4,2,1,75,0,0
207730,-125,4,2,1,75,0,0
208094,-100,4,2,1,75,0,0

[Colours]
Combo1 : 237,198,39
Combo2 : 210,45,152
Combo3 : 18,124,255
Combo4 : 184,108,95

[HitObjects]
384,115,1185,6,0,L|197:142,1,180,6|0,1:2|0:0,0:0:0:0:
113,129,1730,1,0,0:0:0:0:
82,211,1912,2,0,P|30:161|60:60,1,180,6|0,1:2|0:0,0:0:0:0:
219,156,2457,1,0,0:0:0:0:
161,319,2639,5,6,1:2:0:0:
221,205,2821,1,0,0:0:0:0:
134,232,3003,1,0,0:0:0:0:
248,292,3185,1,0,0:0:0:0:
248,292,3366,6,0,L|435:319,1,180,6|8,1:2|3:0,0:0:0:0:
426,317,4094,6,0,P|455:246|443:143,1,180,6|0,1:2|0:0,0:0:0:0:
407,53,4639,1,0,0:0:0:0:
314,78,4821,2,0,P|295:124|302:190,1,90,6|0,1:2|0:0,0:0:0:0:
248,292,5185,2,0,P|297:285|351:245,1,90
220,161,5548,2,0,P|180:139|29:130,1,180,6|2,1:2|0:0,0:0:0:0:
48,126,6275,6,0,P|13:208|13:297,1,180,2|2,0:0|0:0,0:0:0:0:
13,297,7003,6,0,P|54:314|98:314,1,90,6|0,1:2|0:0,0:0:0:0:
268,379,7366,2,0,P|285:337|285:293,1,90,2|2,1:2|0:0,0:0:0:0:
163,167,7730,2,0,P|163:211|180:252,1,90,2|2,1:2|0:0,0:0:0:0:
380,314,8094,1,0,1:2:0:0:
341,199,8275,1,2,0:0:0:0:
419,95,8457,5,2,1:2:0:0:
256,203,8639,1,2,0:0:0:0:
488,265,8821,1,2,1:2:0:0:
370,384,9003,2,0,L|357:287,1,90,2|0,0:0|1:2,0:0:0:0:
435,117,9366,2,0,B|458:157|458:157|437:223,1,90,0|2,0:0|1:2,0:0:0:0:
232,157,9730,5,2,0:0:0:0:
232,157,9821,1,2,0:0:0:0:
232,157,9912,2,0,L|361:180,1,90,6|0,1:2|0:0,0:0:0:0:
387,52,10275,1,10,0:0:0:0:
133,109,10457,1,8,0:0:0:0:
306,146,10639,5,10,0:0:0:0:
248,18,10821,1,10,0:0:0:0:
462,138,11003,1,10,0:0:0:0:
290,262,11185,2,0,P|223:248|144:357,1,180,10|8,0:0|0:0,0:0:0:0:
191,149,11730,5,8,0:0:0:0:
239,348,11912,2,0,B|220:278|220:278|225:242|225:242|202:152,1,180,12|0,0:0|0:0,0:0:0:0:
372,282,12457,5,0,0:0:0:0:
369,292,12548,1,0,0:0:0:0:
366,302,12639,1,0,0:0:0:0:
363,312,12730,1,0,0:0:0:0:
360,320,12821,2,0,P|391:355|497:348,1,135,6|0,1:2|0:0,0:0:0:0:
505,285,13185,2,0,P|489:219|491:164,1,90,10|0,0:0|0:0,0:0:0:0:
386,95,13548,2,0,P|402:161|400:216,1,90,10|0,0:0|1:2,0:0:0:0:
247,288,13912,1,10,0:0:0:0:
278,176,14094,1,0,1:2:0:0:
163,309,14275,5,10,0:0:0:0:
331,203,14457,1,2,0:0:0:0:
197,86,14639,1,10,0:0:0:0:
273,276,14821,2,0,P|339:292|394:290,1,90,2|8,1:2|0:0,0:0:0:0:
189,188,15185,1,2,1:2:0:0:
311,96,15366,1,10,0:0:0:0:
311,96,15548,1,2,1:2:0:0:
256,376,15730,6,0,P|251:315|212:186,2,180,10|10|10,0:0|0:0|0:0,0:0:0:0:
125,234,16639,1,2,1:2:0:0:
283,120,16821,1,10,0:0:0:0:
170,51,17003,1,2,1:2:0:0:
147,254,17185,5,10,0:0:0:0:
85,141,17366,1,0,0:0:0:0:
198,79,17548,1,8,0:0:0:0:
260,192,17730,1,2,0:0:0:0:
349,29,17912,5,10,0:0:0:0:
349,29,18003,1,8,0:0:0:0:
349,29,18094,1,10,0:0:0:0:
278,214,18275,1,10,0:0:0:0:
463,285,18457,2,0,L|452:222,1,45,10|8,0:0|0:0,0:0:0:0:
420,68,18639,6,0,P|373:106|296:91,1,135,2|0,1:2|0:0,0:0:0:0:
286,74,19003,6,0,P|223:37|117:58,1,175.499991966248,10|0,0:0|0:0,0:0:0:0:
68,111,19366,5,8,0:0:0:0:
129,169,19548,1,0,1:2:0:0:
109,250,19730,1,8,0:0:0:0:
254,352,19912,5,0,1:2:0:0:
254,352,20003,1,0,1:0:0:0:
254,352,20094,1,10,0:0:0:0:
187,227,20275,1,2,0:0:0:0:
361,306,20457,1,10,0:0:0:0:
88,349,20639,6,0,P|142:318|201:314,1,90,2|10,1:2|0:0,0:0:0:0:
238,141,21003,1,2,1:2:0:0:
238,141,21185,2,0,P|269:195|273:254,1,90,10|2,0:0|1:2,0:0:0:0:
380,351,21548,2,0,P|391:307|430:237,1,90,10|2,0:0|0:0,0:0:0:0:
492,172,21912,6,0,P|462:222|351:192,1,180,10|10,0:0|0:0,0:0:0:0:
314,84,22457,1,0,1:2:0:0:
151,232,22639,2,0,L|219:204,1,45,8|0,0:0|0:0,0:0:0:0:
398,126,22821,6,0,B|352:111|352:111|270:118|270:118|223:101,1,180,6|0,1:2|1:2,0:0:0:0:
113,90,23366,2,0,L|130:131,1,45,8|0,0:0|0:0,0:0:0:0:
94,294,23548,2,0,P|64:250|91:189,1,90,6|0,1:2|0:0,0:0:0:0:
279,226,23912,1,0,1:2:0:0:
279,226,24003,1,0,1:0:0:0:
279,226,24094,1,8,0:0:0:0:
218,342,24275,1,0,1:0:0:0:
364,365,24457,6,0,P|425:377|494:314,2,153.000002918243,6|2|2,1:2|1:2|1:2,0:0:0:0:
263,317,25366,1,0,0:0:0:0:
263,317,25548,2,0,L|163:339,1,76.5000014591217,2|0,1:2|0:0,0:0:0:0:
65,285,25912,2,0,P|36:229|53:138,1,153.000002918243,2|2,1:2|1:2,0:0:0:0:
154,104,26457,2,0,P|210:133|301:116,1,153.000002918243,2|2,0:0|0:0,0:0:0:0:
386,59,27003,1,2,1:2:0:0:
386,59,27185,1,2,0:0:0:0:
296,119,27366,5,2,1:2:0:0:
426,175,27548,1,2,0:0:0:0:
401,32,27730,1,0,1:2:0:0:
426,175,27912,2,0,P|415:214|412:278,1,76.5000014591217,0|0,0:0|1:2,0:0:0:0:
300,200,28275,1,2,0:0:0:0:
300,298,28457,2,0,P|311:259|314:195,1,76.5000014591217,2|2,1:2|0:0,0:0:0:0:
132,245,28821,5,2,1:2:0:0:
216,287,29003,2,0,P|176:324|66:313,1,153.000002918243,2|0,0:0|0:0,0:0:0:0:
279,338,29548,2,0,P|318:327|382:324,1,76.5000014591217,0|0,1:2|0:0,0:0:0:0:
421,368,29821,1,0,0:0:0:0:
421,368,29912,2,0,P|410:329|415:229,1,114.750002188683,4|0,1:2|0:0,0:0:0:0:
422,229,30275,6,0,P|439:161|406:54,2,153.000002918243,6|2|2,1:2|1:2|1:2,0:0:0:0:
284,143,31185,1,0,0:0:0:0:
263,228,31366,2,0,L|355:205,1,76.5000014591217,2|0,1:2|0:0,0:0:0:0:
101,233,31730,5,2,1:2:0:0:
198,168,31912,2,0,L|23:133,1,153.000002918243,2|2,0:0|0:0,0:0:0:0:
13,53,32457,1,0,1:2:0:0:
135,123,32639,5,2,0:0:0:0:
135,123,32821,1,2,1:2:0:0:
2,249,33003,1,2,0:0:0:0:
2,249,33094,1,2,0:0:0:0:
2,249,33185,1,2,1:2:0:0:
105,331,33366,2,0,P|114:293|119:256,1,76.5000014591217,0|2,0:0|1:2,0:0:0:0:
313,299,33730,1,10,3:0:0:0:
313,299,33821,1,8,3:0:0:0:
313,299,33912,2,0,P|370:277|372:172,1,153.000002918243,10|10,3:0|0:0,0:0:0:0:
198,196,34457,6,0,P|206:233|221:405,1,180,6|0,1:2|1:2,0:0:0:0:
143,118,35003,2,0,P|187:114|232:106,1,90,8|0,0:0|0:0,0:0:0:0:
408,125,35366,1,0,1:2:0:0:
408,125,35457,1,8,0:0:0:0:
408,125,35548,2,0,P|385:126|363:130,1,45,8|8,0:0|0:0,0:0:0:0:
272,27,35730,2,0,P|284:45|299:62,1,45,8|8,0:0|0:0,0:0:0:0:
268,209,35912,2,0,P|277:188|285:167,1,45,8|8,0:0|0:0,0:0:0:0:
464,64,36094,5,6,1:2:0:0:
370,206,36275,1,0,0:0:0:0:
467,372,36457,2,0,P|469:327|480:283,1,90,10|0,0:0|0:0,0:0:0:0:
512,170,36821,1,2,0:0:0:0:
369,318,37003,2,0,P|324:320|280:331,1,90,0|10,1:2|0:0,0:0:0:0:
177,381,37366,1,0,0:0:0:0:
78,208,37548,6,0,P|106:275|213:246,1,180,2|10,1:2|0:0,0:0:0:0:
319,241,38094,1,2,1:2:0:0:
319,241,38185,1,8,0:0:0:0:
319,241,38275,2,0,P|321:196|332:152,1,90,0|2,1:2|1:2,0:0:0:0:
279,25,38639,1,10,0:0:0:0:
332,152,38821,1,2,0:0:0:0:
399,79,39003,5,2,1:2:0:0:
239,170,39185,1,2,0:0:0:0:
433,233,39366,2,0,B|452:272|452:272|433:330,1,90,8|0,0:0|0:0,0:0:0:0:
193,321,39730,5,2,0:0:0:0:
280,298,39911,1,0,1:2:0:0:
367,276,40093,1,10,0:0:0:0:
265,282,40275,1,2,0:0:0:0:
397,384,40457,5,2,1:2:0:0:
455,202,40639,1,2,0:0:0:0:
266,147,40821,1,8,0:0:0:0:
374,283,41003,1,8,0:0:0:0:
374,283,41094,1,8,0:0:0:0:
374,283,41185,2,0,L|360:180,1,90,0|0,1:2|1:2,0:0:0:0:
205,264,41548,6,0,P|149:267|124:150,1,180,8|6,0:0|1:2,0:0:0:0:
123,76,42094,2,0,L|190:98,1,45,0|0,1:0|1:0,0:0:0:0:
275,159,42275,2,0,L|392:118,1,90,10|0,0:0|0:0,0:0:0:0:
431,93,42548,1,8,0:0:0:0:
431,93,42639,2,0,L|405:24,1,45,8|8,0:2|0:2,0:2:0:0:
325,24,42821,1,0,1:2:0:0:
503,145,43003,1,10,0:0:0:0:
321,243,43185,1,0,0:0:0:0:
359,129,43366,5,2,1:2:0:0:
206,249,43548,1,2,0:0:0:0:
459,287,43730,1,10,0:0:0:0:
327,367,43912,1,2,1:2:0:0:
327,367,44094,2,0,L|303:264,1,90,8|10,0:0|0:0,0:0:0:0:
390,165,44366,1,8,0:0:0:0:
390,165,44457,2,0,B|419:200|419:200|403:269,1,90,2|10,1:2|0:0,0:0:0:0:
408,243,44730,1,8,0:0:0:0:
408,243,44821,1,6,1:2:0:0:
237,171,45003,5,0,1:2:0:0:
408,78,45185,1,10,0:0:0:0:
321,207,45366,1,2,1:2:0:0:
321,207,45457,1,0,1:2:0:0:
321,207,45548,1,10,0:0:0:0:
227,77,45730,5,0,1:2:0:0:
138,284,45912,1,8,0:0:0:0:
289,373,46094,2,0,P|327:308|313:190,1,180,6|8,1:2|3:3,0:0:0:0:
241,95,46639,2,0,L|130:120,1,90,0|8,1:2|0:0,0:0:0:0:
153,114,46912,1,8,0:0:0:0:
153,114,47003,1,8,0:0:0:0:
92,40,47185,1,0,1:2:0:0:
25,149,47366,2,0,B|36:188|36:188|22:249|22:249|30:302,1,135,12|0,0:0|0:0,0:0:0:0:
62,350,47730,5,6,1:2:0:0:
62,350,47912,2,0,P|124:362|193:269,2,180,2|2|2,0:0|0:0|0:0,0:0:0:0:
191,194,48821,2,0,P|234:200|266:231,1,90,2|0,1:2|0:0,0:0:0:0:
334,370,49185,2,0,B|312:276|379:294|351:191,1,180,2|2,1:2|1:2,0:0:0:0:
394,87,49730,2,0,P|355:138|270:134,1,135,2|0,0:0|0:0,0:0:0:0:
226,94,50094,2,0,P|223:53|214:3,1,90,2|2,0:0|1:2,0:0:0:0:
318,72,50457,1,0,0:0:0:0:
195,198,50639,5,2,1:2:0:0:
195,198,50821,1,0,0:0:0:0:
255,289,51003,1,0,1:2:0:0:
255,289,51185,1,0,0:0:0:0:
113,384,51366,1,2,1:2:0:0:
113,384,51548,1,0,0:0:0:0:
105,175,51730,1,0,1:2:0:0:
105,175,51912,1,0,0:0:0:0:
293,189,52094,5,2,1:2:0:0:
161,304,52275,1,2,0:0:0:0:
199,133,52457,1,2,1:2:0:0:
412,191,52639,1,2,0:0:0:0:
243,272,52821,5,8,3:0:0:0:
502,369,53003,1,4,3:0:0:0:
302,208,53185,1,8,0:0:0:0:
509,285,53367,1,8,3:0:0:0:
300,326,53548,6,0,P|257:352|197:333,1,90,6|2,1:2|0:0,0:0:0:0:
37,298,53912,1,2,0:0:0:0:
77,201,54094,2,0,P|127:254|111:378,1,180,2|2,1:2|0:0,0:0:0:0:
6,159,54639,2,0,P|93:166|161:110,1,180,2|2,0:0|1:2,0:0:0:0:
199,35,55185,5,10,0:0:0:0:
161,110,55366,1,2,0:0:0:0:
225,170,55548,1,2,1:2:0:0:
312,173,55730,1,8,0:0:0:0:
370,109,55912,1,2,1:2:0:0:
451,81,56094,1,10,0:0:0:0:
512,141,56275,2,0,L|503:192,1,45,8|8,3:0|3:0,0:0:0:0:
413,281,56457,6,0,P|406:236|391:184,1,90,6|2,1:2|1:2,0:0:0:0:
347,81,56821,1,10,0:0:0:0:
512,193,57003,1,2,1:2:0:0:
512,193,57094,1,8,3:0:0:0:
512,193,57185,1,2,1:2:0:0:
292,298,57366,1,2,1:2:0:0:
394,193,57548,2,0,P|349:186|297:171,1,90,10|2,0:0|0:0,0:0:0:0:
219,75,57912,5,12,0:2:0:0:
364,27,58094,1,10,0:2:0:0:
154,177,58275,1,8,0:2:0:0:
487,173,58457,1,14,0:2:0:0:
321,227,59003,5,0,0:0:0:0:
321,227,59185,1,0,0:0:0:0:
259,342,59366,6,0,P|188:369|77:279,1,198.000006042481,6|10,1:2|0:0,0:0:0:0:
65,155,59912,1,0,0:0:0:0:
0,306,60094,1,10,0:0:0:0:
189,215,60275,1,0,1:2:0:0:
189,215,60366,1,0,1:0:0:0:
189,215,60457,2,0,P|176:167|176:94,1,99.0000030212403,10|0,0:0|1:2,0:0:0:0:
216,10,60821,5,10,0:0:0:0:
84,174,61003,1,2,0:0:0:0:
283,105,61185,1,10,0:0:0:0:
99,0,61366,1,2,1:2:0:0:
200,139,61548,5,8,0:0:0:0:
0,195,61730,2,0,P|53:251|166:201,1,198.000006042481,0|2,1:2|1:2,0:0:0:0:
152,70,62275,5,10,0:0:0:0:
235,219,62457,1,2,0:0:0:0:
287,123,62639,1,10,0:0:0:0:
242,315,62821,1,2,0:0:0:0:
386,167,63003,5,10,0:0:0:0:
175,92,63185,1,2,1:2:0:0:
404,274,63366,1,10,0:0:0:0:
130,275,63548,1,2,1:2:0:0:
280,384,63730,6,0,B|249:339|266:287|266:287|313:247|296:171,1,198.000006042481,10|8,0:0|0:0,0:0:0:0:
239,42,64275,2,0,L|218:105,1,49.5000015106202,0|0,1:2|1:2,0:0:0:0:
136,171,64457,2,0,P|180:211|224:213,1,99.0000030212403,8|0,0:0|1:2,0:0:0:0:
340,329,64821,2,0,P|384:289|428:287,1,99.0000030212403,10|10,0:0|0:0,0:0:0:0:
479,375,65094,5,8,0:0:0:0:
476,361,65185,2,0,L|451:145,1,198.000006042481,6|10,1:2|0:0,0:0:0:0:
276,205,65730,1,2,0:0:0:0:
387,63,65912,1,10,0:0:0:0:
501,262,66094,1,2,1:2:0:0:
302,312,66275,2,0,P|243:300|206:282,1,99.0000030212403,8|2,0:0|1:2,0:0:0:0:
71,154,66639,5,10,0:0:0:0:
175,105,66821,1,0,0:0:0:0:
51,137,67003,5,10,0:0:0:0:
276,205,67185,1,2,1:2:0:0:
4,292,67366,1,8,0:0:0:0:
257,190,67548,1,0,1:2:0:0:
53,58,67730,6,0,B|63:90|63:90|61:131|61:131|73:159,1,99.0000030212403,10|2,0:0|1:2,0:0:0:0:
142,286,68094,2,0,P|218:290|250:176,2,198.000006042481,10|10|10,0:0|0:0|0:0,0:0:0:0:
88,206,69003,1,2,1:2:0:0:
140,105,69185,1,10,0:0:0:0:
0,221,69366,2,0,P|11:283|31:336,1,99.0000030212403,6|0,1:2|0:0,0:0:0:0:
274,375,69730,5,0,1:2:0:0:
114,289,69912,1,8,0:0:0:0:
219,105,70094,1,8,0:0:0:0:
112,46,70275,5,8,0:0:0:0:
81,84,70365,1,8,0:0:0:0:
76,133,70456,1,8,0:0:0:0:
96,177,70547,1,8,0:0:0:0:
137,204,70639,2,0,L|219:185,1,49.5000015106202,10|8,0:0|0:0,0:0:0:0:
287,185,70821,2,0,L|274:238,1,49.5000015106202,10|8,0:0|0:0,0:0:0:0:
402,243,71003,6,0,P|388:196|375:105,1,108,6|0,1:2|0:0,0:0:0:0:
390,112,71366,6,0,P|427:186|399:318,1,198.000006042481,10|2,0:0|1:2,0:0:0:0:
266,374,71912,1,0,1:2:0:0:
266,374,72003,1,0,1:0:0:0:
266,374,72094,2,0,P|249:327|254:279,1,99.0000030212403,10|0,0:0|0:0,0:0:0:0:
281,173,72457,5,2,1:2:0:0:
161,307,72639,1,2,1:2:0:0:
381,217,72821,1,10,0:0:0:0:
474,374,73003,1,2,1:2:0:0:
481,202,73185,5,0,0:0:0:0:
481,202,73366,1,0,1:2:0:0:
431,300,73548,2,0,P|390:328|342:335,1,99.0000030212403,10|2,0:0|0:0,0:0:0:0:
254,279,73912,6,0,P|246:230|218:190,1,99.0000030212403,2|0,1:2|0:0,0:0:0:0:
9,141,74275,2,0,P|49:169|97:176,1,99.0000030212403,10|2,0:0|0:0,0:0:0:0:
218,0,74639,2,0,P|186:37|175:85,1,99.0000030212403,2|2,1:2|1:2,0:0:0:0:
169,260,75003,1,10,0:0:0:0:
90,151,75185,1,2,0:0:0:0:
327,231,75366,5,2,1:2:0:0:
76,351,75548,1,0,1:2:0:0:
220,190,75730,1,8,0:0:0:0:
191,374,75912,5,0,1:2:0:0:
191,374,76003,1,0,1:0:0:0:
191,374,76094,1,0,1:0:0:0:
147,241,76275,1,0,1:2:0:0:
280,197,76457,1,10,0:0:0:0:
236,64,76639,1,10,0:0:0:0:
369,20,76821,6,0,P|415:70|405:198,1,198.000006042481,6|10,1:2|0:0,0:0:0:0:
331,264,77366,1,0,1:0:0:0:
331,264,77457,1,8,0:0:0:0:
331,264,77548,2,0,P|279:242|216:243,1,99.0000030212403,2|2,1:2|1:2,0:0:0:0:
100,174,77912,1,10,0:0:0:0:
0,324,78094,1,2,0:0:0:0:
147,241,78275,5,2,1:2:0:0:
0,112,78457,1,2,0:0:0:0:
156,31,78639,1,10,0:0:0:0:
65,247,78821,2,0,P|90:301|218:272,1,198.000006042481,6|0,1:2|1:2,0:0:0:0:
434,347,79366,2,0,L|413:238,1,99.0000030212403,10|8,0:0|0:0,0:0:0:0:
301,181,79639,5,8,0:0:0:0:
301,181,79730,2,0,B|282:225|282:225|314:297,1,99.0000030212403,6|0,1:2|1:2,0:0:0:0:
501,241,80094,2,0,L|392:220,1,99.0000030212403,10|0,0:0|1:2,0:0:0:0:
199,197,80457,5,10,0:0:0:0:
350,54,80639,1,2,1:2:0:0:
403,222,80821,1,10,0:0:0:0:
117,80,81003,2,0,B|78:113|78:113|119:223,1,148.50000453186,6|0,1:2|0:0,0:0:0:0:
152,274,81366,5,0,1:2:0:0:
362,138,81548,1,8,0:0:0:0:
221,22,81730,2,0,L|239:83,1,49.5000015106202,8|8,0:0|0:0,0:0:0:0:
314,311,81912,1,8,0:0:0:0:
314,311,82275,6,0,P|411:335|426:206,1,229.500004377365,2|0,0:0|0:0,0:0:0:0:
410,163,82639,6,0,P|396:117|399:58,1,90,6|2,1:2|0:0,0:0:0:0:
328,223,83003,2,0,P|327:267|313:310,1,90,10|2,0:0|0:0,0:0:0:0:
198,310,83366,2,0,P|184:267|184:223,1,90,10|2,0:0|1:2,0:0:0:0:
116,75,83730,2,0,P|115:120|102:163,1,90,10|2,0:0|1:2,0:0:0:0:
33,224,84094,5,10,0:0:0:0:
0,150,84275,1,2,0:0:0:0:
102,162,84457,1,10,0:0:0:0:
60,301,84639,1,2,1:2:0:0:
184,223,84821,5,8,0:0:0:0:
13,133,85003,1,2,1:2:0:0:
211,62,85185,1,10,0:0:0:0:
81,210,85366,1,0,0:0:0:0:
246,293,85548,6,0,L|234:340,3,45,10|0|0|0,0:0|0:0|0:0|0:0,0:0:0:0:
316,375,85912,2,0,L|359:363,1,45,8|0,0:0|0:0,0:0:0:0:
338,251,86094,2,0,L|326:207,1,45
172,252,86275,5,8,0:0:0:0:
221,380,86457,1,2,1:2:0:0:
364,271,86639,1,8,0:0:0:0:
243,146,86821,2,0,L|136:174,1,90,2|8,1:2|0:0,0:0:0:0:
337,181,87185,1,2,0:0:0:0:
446,134,87366,2,0,B|465:166|465:166|451:228,1,90,10|2,0:0|0:0,0:0:0:0:
254,266,87730,6,0,L|275:194,1,45,8|8,0:0|0:0,0:0:0:0:
208,29,87912,2,0,L|220:72,1,45,8|8,0:0|0:0,0:0:0:0:
155,168,88094,2,0,L|99:183,1,45,8|8,0:0|0:0,0:0:0:0:
5,253,88275,2,0,L|61:268,1,45,8|8,0:0|0:0,0:0:0:0:
123,343,88457,5,6,1:2:0:0:
220,72,88639,1,2,0:0:0:0:
36,159,88821,1,10,0:0:0:0:
307,256,89003,1,2,0:0:0:0:
307,256,89185,2,0,P|396:284|458:209,1,180,8|10,0:0|0:0,0:0:0:0:
361,71,89730,1,0,1:2:0:0:
506,123,89912,6,0,P|464:139|403:152,1,90,10|2,0:0|0:0,0:0:0:0:
212,51,90275,1,10,0:0:0:0:
214,263,90457,2,0,P|230:221|243:160,1,90,2|8,1:2|0:0,0:0:0:0:
196,23,90821,5,2,1:2:0:0:
336,174,91003,1,10,0:0:0:0:
122,257,91185,1,0,1:2:0:0:
301,322,91366,2,0,P|349:290|441:305,1,135,10|0,0:0|0:0,0:0:0:0:
475,322,91730,2,0,P|463:262|473:213,1,90,8|0,0:0|1:2,0:0:0:0:
504,163,92003,1,0,1:2:0:0:
504,163,92094,2,0,P|516:103|506:54,1,90,8|0,0:0|1:2,0:0:0:0:
445,8,92457,1,10,0:0:0:0:
253,137,92639,6,0,L|446:106,1,180,6|0,1:2|1:2,0:0:0:0:
186,70,93185,1,8,0:0:0:0:
89,207,93366,2,0,P|45:123|68:36,1,180,4|0,1:2|1:2,0:0:0:0:
224,151,93912,1,8,0:0:0:0:
224,151,94003,2,0,P|236:212|205:267,1,90,8|0,0:0|0:0,0:0:0:0:
165,302,94275,5,6,1:2:0:0:
368,142,103003,5,10,0:0:0:0:
235,184,103185,1,8,0:0:0:0:
416,244,103548,5,2,1:2:0:0:
416,244,103639,1,0,1:2:0:0:
416,244,103730,1,10,0:0:0:0:
220,167,103912,1,8,0:0:0:0:
333,65,104094,1,2,0:0:0:0:
255,275,104275,2,0,P|197:317|99:268,1,180,6|8,1:2|0:0,0:0:0:0:
0,183,104821,5,8,0:0:0:0:
87,204,105002,1,8,0:0:0:0:
174,226,105184,1,8,0:0:0:0:
59,124,105366,5,8,0:0:0:0:
59,124,105457,1,8,0:0:0:0:
59,124,105548,2,0,L|139:103,1,45,0|8,1:2|0:0,0:0:0:0:
256,55,105730,2,0,L|235:135,1,45,0|0,1:2|1:0,0:0:0:0:
100,287,105912,6,0,P|79:239|103:183,1,90,6|0,1:2|0:0,0:0:0:0:
301,170,106275,2,0,L|403:194,1,90,10|0,0:0|0:0,0:0:0:0:
343,331,106639,1,2,0:0:0:0:
343,331,106821,2,0,L|241:355,1,90,0|10,1:2|0:0,0:0:0:0:
156,231,107185,1,0,0:0:0:0:
283,74,107366,6,0,P|275:169|253:280,1,180,2|10,1:2|0:0,0:0:0:0:
169,319,107912,1,2,1:2:0:0:
169,319,108003,1,8,0:0:0:0:
169,319,108094,2,0,P|164:274|155:230,1,90,0|2,1:2|1:2,0:0:0:0:
56,132,108457,2,0,P|100:140|144:145,1,90,10|2,0:0|0:0,0:0:0:0:
259,252,108821,6,0,P|303:243|393:244,1,135,2|0,1:2|0:0,0:0:0:0:
435,260,109185,2,0,P|473:188|444:89,1,180,8|0,0:0|0:0,0:0:0:0:
322,52,109730,1,2,1:2:0:0:
322,52,109821,1,0,1:0:0:0:
322,52,109912,1,10,0:0:0:0:
371,146,110094,1,2,0:0:0:0:
246,216,110275,5,2,1:2:0:0:
389,165,110457,1,2,0:0:0:0:
242,115,110639,1,8,0:0:0:0:
166,263,110821,1,0,0:0:0:0:
19,204,111003,2,0,P|31:254|36:309,1,90,0|8,1:2|0:0,0:0:0:0:
121,384,111275,1,8,0:0:0:0:
141,363,111366,2,0,P|130:319|124:274,1,90,8|8,0:0|0:0,0:0:0:0:
127,138,111639,5,8,0:0:0:0:
118,162,111730,2,0,P|65:190|9:89,1,180,6|10,1:2|0:0,0:0:0:0:
32,14,112275,2,0,L|94:35,1,45,0|8,1:0|0:0,0:0:0:0:
196,81,112457,2,0,L|296:51,1,90,2|0,0:0|1:2,0:0:0:0:
423,25,112821,2,0,L|381:171,1,135,10|0,0:0|0:0,0:0:0:0:
371,231,113185,6,0,P|434:275|513:183,1,180,2|10,1:2|0:0,0:0:0:0:
320,307,113730,2,0,B|220:305|262:352|138:343,1,180,2|10,1:2|0:0,0:0:0:0:
76,368,114185,1,8,0:0:0:0:
66,384,114275,2,0,L|47:313,1,45,2|8,1:2|0:0,0:0:0:0:
0,270,114457,2,0,L|11:226,1,45,10|0,0:0|0:0,0:0:0:0:
44,135,114639,5,6,1:2:0:0:
179,205,114821,1,0,1:2:0:0:
250,49,115003,1,10,0:0:0:0:
132,138,115185,5,2,1:2:0:0:
132,138,115275,1,0,1:2:0:0:
132,138,115366,1,10,0:0:0:0:
233,297,115548,1,0,1:2:0:0:
377,201,115730,1,10,0:0:0:0:
499,301,115912,6,0,P|521:248|502:123,1,180,6|8,1:2|3:3,0:0:0:0:
416,88,116457,1,0,1:2:0:0:
347,139,116639,1,8,0:0:0:0:
347,139,116730,1,8,0:0:0:0:
347,139,116821,1,8,0:0:0:0:
260,120,117003,1,0,1:2:0:0:
141,231,117185,2,0,P|204:219|266:281,1,135,12|0,0:0|0:0,0:0:0:0:
191,301,117548,5,6,1:2:0:0:
191,301,117730,2,0,L|176:180,1,90,2|2,0:0|1:2,0:0:0:0:
361,264,118094,1,10,3:0:0:0:
298,376,118275,1,0,1:2:0:0:
191,301,118457,2,0,L|70:286,1,90,6|10,3:0|0:0,0:0:0:0:
12,203,118821,5,8,3:0:0:0:
12,203,118912,1,8,3:0:0:0:
12,203,119003,2,0,L|133:188,1,90,4|10,1:2|3:0,0:0:0:0:
188,147,119275,1,8,3:0:0:0:
196,140,119366,2,0,P|207:88|171:38,1,90,2|10,1:2|0:0,0:0:0:0:
0,28,119730,1,0,1:2:0:0:
0,28,119821,1,0,1:0:0:0:
0,28,119912,2,0,L|21:95,3,45,10|8|6|4,3:0|3:0|3:0|3:0,0:0:0:0:
94,101,120275,2,0,L|107:58,1,45,4|4,3:0|3:0,0:0:0:0:
216,20,120457,6,0,L|323:45,1,90,6|0,1:2|0:0,0:0:0:0:
456,28,120821,2,0,B|477:69|477:69|450:139,1,90,0|8,1:2|3:0,0:0:0:0:
275,126,121185,2,0,L|168:151,1,90,2|0,1:2|1:0,0:0:0:0:
252,213,121457,1,0,1:0:0:0:
255,225,121548,2,0,L|280:332,1,90,8|8,0:0|3:0,0:0:0:0:
390,341,121821,5,8,3:0:0:0:
392,329,121912,2,0,L|400:284,1,45,6|0,1:2|0:0,0:0:0:0:
489,246,122094,1,10,0:0:0:0:
463,209,122184,1,8,0:0:0:0:
424,188,122275,1,10,0:0:0:0:
379,188,122366,1,8,0:0:0:0:
339,207,122457,1,10,0:0:0:0:
297,223,122548,1,8,0:0:0:0:
252,213,122639,6,0,L|229:143,1,45,4|0,1:2|0:0,0:0:0:0:
131,179,122821,2,0,L|164:113,1,45,8|0,0:0|0:0,0:0:0:0:
69,69,123003,2,0,L|138:45,1,45,8|0,0:2|0:0,0:0:0:0:
244,14,123185,2,0,L|174:-9,1,45,8|0,0:2|0:0,0:0:0:0:
4,21,123366,6,0,B|27:73|27:73|18:152|18:152|36:210,1,180,6|10,1:2|0:0,0:0:0:0:
148,303,123912,1,2,1:2:0:0:
148,303,124003,1,8,3:0:0:0:
148,303,124094,2,0,P|200:273|216:222,1,90,0|2,1:2|1:2,0:0:0:0:
160,99,124457,2,0,P|180:145|286:146,1,135,10|0,0:0|0:0,0:0:0:0:
328,120,124821,5,6,1:2:0:0:
263,21,125003,1,2,0:0:0:0:
442,113,125185,1,10,0:0:0:0:
265,171,125366,1,2,1:2:0:0:
265,171,125457,1,0,1:2:0:0:
265,171,125548,2,0,P|272:224|285:267,1,90,0|2,1:2|0:0,0:0:0:0:
363,296,125821,1,8,0:2:0:0:
363,296,125912,2,0,P|368:256|377:224,1,45,10|8,0:2|0:2,0:0:0:0:
452,263,126094,2,0,P|447:240|445:218,1,45,8|0,0:2|0:0,0:0:0:0:
358,138,126275,5,6,1:2:0:0:
190,256,126457,1,2,1:2:0:0:
122,147,126639,1,10,0:0:0:0:
369,251,126821,1,0,1:2:0:0:
140,358,127003,6,0,L|130:302,1,45,10|0,0:0|0:0,0:0:0:0:
265,171,127185,2,0,L|257:215,1,45,2|0,1:2|0:0,0:0:0:0:
16,265,127366,2,0,L|60:257,1,45,10|0,0:0|0:0,0:0:0:0:
201,124,127548,1,2,1:2:0:0:
201,124,127730,6,0,B|219:80|219:80|180:19,1,90,8|8,3:0|3:0,0:0:0:0:
85,126,128094,2,0,L|40:133,2,45,4|4|4,3:3|3:3|3:3,0:0:0:0:
170,202,128457,2,0,L|214:209,1,45,8|8,3:0|3:0,0:0:0:0:
359,105,128639,1,8,3:3:0:0:
359,105,128730,1,8,3:0:0:0:
359,105,128821,1,6,3:3:0:0:
359,105,128912,1,4,3:3:0:0:
359,105,129003,1,4,3:3:0:0:
359,105,129094,1,4,3:3:0:0:
359,105,129185,6,0,L|386:321,1,198.000006042481,6|10,1:2|0:0,0:0:0:0:
278,205,129730,1,0,0:0:0:0:
177,356,129912,1,10,0:0:0:0:
391,309,130094,1,0,1:2:0:0:
391,309,130185,1,0,1:0:0:0:
391,309,130275,2,0,P|442:331|498:323,1,99.0000030212403,10|0,0:0|1:2,0:0:0:0:
359,105,130639,5,10,0:0:0:0:
449,252,130821,1,2,0:0:0:0:
255,181,131003,1,10,0:0:0:0:
274,352,131185,1,2,1:2:0:0:
117,283,131366,5,8,0:0:0:0:
288,373,131548,2,0,B|243:275|308:288|239:144,1,198.000006042481,0|0,1:2|1:2,0:0:0:0:
128,40,132094,5,10,0:0:0:0:
67,158,132275,1,2,0:0:0:0:
185,219,132457,1,10,0:0:0:0:
246,101,132640,1,0,0:0:0:0:
81,182,132821,5,10,0:0:0:0:
311,235,133003,1,2,1:2:0:0:
161,124,133185,1,10,0:0:0:0:
89,343,133366,1,2,1:2:0:0:
357,383,133548,6,0,P|367:285|325:197,1,198.000006042481,10|8,0:0|0:0,0:0:0:0:
212,100,134094,1,0,1:2:0:0:
212,100,134185,1,0,1:2:0:0:
212,100,134275,2,0,L|278:119,1,49.5000015106202,8|8,0:0|0:0,0:0:0:0:
325,197,134457,2,0,L|372:183,1,49.5000015106202,8|8,0:0|0:0,0:0:0:0:
481,231,134639,2,0,L|494:183,1,49.5000015106202,10|8,0:0|0:0,0:0:0:0:
342,37,134821,5,10,0:0:0:0:
342,37,134912,1,8,0:0:0:0:
342,37,135003,2,0,L|378:210,1,148.50000453186,6|0,1:2|0:0,0:0:0:0:
320,249,135366,2,0,P|250:283|151:198,1,198.000006042481,10|10,0:0|0:0,0:0:0:0:
143,95,135912,1,2,1:2:0:0:
49,170,136094,1,8,0:0:0:0:
170,109,136275,1,2,1:2:0:0:
111,10,136457,5,10,0:0:0:0:
247,190,136639,1,0,0:0:0:0:
35,275,136821,1,10,0:0:0:0:
162,384,137003,2,0,P|147:300|134:185,1,198.000006042481,2|0,1:2|1:2,0:0:0:0:
281,115,137548,2,0,P|273:163|267:213,1,99.0000030212403,10|2,0:0|1:2,0:0:0:0:
327,310,137912,6,0,P|397:355|498:266,2,198.000006042481,10|10|10,0:0|0:0|0:0,0:0:0:0:
377,142,138821,1,2,1:2:0:0:
191,248,139003,1,10,0:0:0:0:
405,270,139185,2,0,P|394:216|389:156,1,99.0000030212403,6|0,1:2|0:0,0:0:0:0:
372,7,139548,5,8,0:0:0:0:
275,172,139730,1,8,0:0:0:0:
98,126,139912,1,8,0:0:0:0:
11,280,140094,1,8,0:0:0:0:
49,249,140184,1,8,0:0:0:0:
95,232,140275,1,8,0:0:0:0:
144,232,140366,1,8,0:0:0:0:
191,248,140457,2,0,L|208:307,1,49.5000015106202,10|8,3:0|3:0,0:0:0:0:
278,353,140639,2,0,L|292:298,1,49.5000015106202,6|4,3:0|3:0,0:0:0:0:
366,254,140821,6,0,P|411:276|480:228,1,108,6|0,1:2|0:0,0:0:0:0:
498,271,141185,6,0,P|481:182|491:67,1,198.000006042481,10|2,0:0|1:2,0:0:0:0:
249,140,141730,1,0,1:2:0:0:
249,140,141821,1,0,1:0:0:0:
249,140,141912,2,0,P|311:151|375:139,1,99.0000030212403,10|2,0:0|0:0,0:0:0:0:
489,75,142275,5,2,1:2:0:0:
346,0,142457,1,2,1:2:0:0:
512,219,142639,1,10,0:0:0:0:
263,170,142821,1,2,1:2:0:0:
410,97,143003,5,0,0:0:0:0:
410,97,143185,1,0,1:2:0:0:
375,331,143366,2,0,P|364:269|376:205,1,99.0000030212403,10|0,0:0|0:0,0:0:0:0:
251,290,143730,6,0,P|196:328|141:327,1,99.0000030212403,2|0,1:2|0:0,0:0:0:0:
176,97,144094,2,0,P|236:125|263:173,1,99.0000030212403,10|2,0:0|0:0,0:0:0:0:
46,258,144457,2,0,P|40:191|68:144,1,99.0000030212403,2|2,1:2|1:2,0:0:0:0:
225,285,144821,5,10,0:0:0:0:
62,230,145003,1,2,0:0:0:0:
192,118,145185,1,2,1:2:0:0:
82,338,145366,5,0,1:2:0:0:
82,338,145457,1,0,1:0:0:0:
82,338,145548,1,8,0:0:0:0:
2,150,145730,1,0,1:2:0:0:
176,212,145912,1,0,1:2:0:0:
200,34,146094,6,0,L|256:57,1,49.5000015106202,8|8,0:0|0:0,0:0:0:0:
298,170,146275,2,0,L|279:215,1,49.5000015106202,10|8,0:0|0:0,0:0:0:0:
363,313,146457,2,0,L|408:294,1,49.5000015106202,8|8,0:0|0:0,0:0:0:0:
509,211,146639,6,0,L|469:10,1,198.000006042481,6|10,1:2|0:0,0:0:0:0:
369,203,147185,1,0,1:0:0:0:
369,203,147275,1,8,0:0:0:0:
369,203,147366,2,0,P|320:226|261:201,1,99.0000030212403,2|2,1:2|1:2,0:0:0:0:
190,142,147730,1,8,0:0:0:0:
110,273,147912,1,2,0:0:0:0:
315,146,148094,5,2,1:2:0:0:
111,53,148275,1,2,0:0:0:0:
198,255,148457,1,10,0:0:0:0:
41,368,148639,2,0,P|3:309|18:178,1,198.000006042481,6|0,1:2|1:2,0:0:0:0:
286,120,149185,2,0,P|234:136|159:149,1,99.0000030212403,10|8,0:0|0:0,0:0:0:0:
113,217,149457,5,8,0:0:0:0:
113,217,149548,2,0,P|106:172|88:99,1,99.0000030212403,6|0,1:2|1:2,0:0:0:0:
211,229,149912,2,0,P|218:274|236:347,1,99.0000030212403,10|0,0:0|1:2,0:0:0:0:
229,326,150185,1,0,1:2:0:0:
229,326,150275,1,10,0:0:0:0:
322,177,150457,1,2,1:2:0:0:
246,37,150639,1,10,0:0:0:0:
469,99,150821,6,0,P|421:156|289:137,1,198.000006042481,6|0,1:2|1:2,0:0:0:0:
211,229,151366,2,0,P|168:206|93:215,1,99.0000030212403,8|0,0:0|1:2,0:0:0:0:
20,326,151730,5,8,0:0:0:0:
17,314,151820,1,8,0:0:0:0:
14,303,151911,1,8,0:0:0:0:
12,292,152002,1,8,0:0:0:0:
10,275,152094,2,0,L|59:289,1,49.5000015106202,10|8,0:0|0:0,0:0:0:0:
143,345,152275,2,0,L|192:331,1,49.5000015106202,8|8,0:0|0:0,0:0:0:0:
305,263,152457,6,0,L|283:377,1,90,4|2,1:2|0:0,0:0:0:0:
256,185,152821,1,10,0:0:0:0:
374,164,153003,2,0,P|353:209|222:181,1,180,2|2,0:0|1:2,0:0:0:0:
179,144,153457,1,2,0:0:0:0:
179,144,153548,2,0,L|166:85,1,45,8|0,0:0|0:0,0:0:0:0:
295,8,153730,6,0,B|318:39|318:39|298:117,1,90,2|8,1:2|0:0,0:0:0:0:
92,39,154094,2,0,L|200:60,1,90,2|8,0:0|0:0,0:0:0:0:
411,162,154457,1,2,1:2:0:0:
324,184,154638,1,10,0:0:0:0:
237,207,154820,1,2,1:2:0:0:
349,202,155003,5,10,0:0:0:0:
179,144,155185,1,2,1:2:0:0:
121,314,155366,1,10,0:0:0:0:
291,372,155548,1,0,0:0:0:0:
324,184,155730,2,0,P|308:134|299:44,1,135,8|0,0:0|1:2,0:0:0:0:
316,21,156094,6,0,P|331:103|263:182,1,161.999995056153,14|8,0:0|0:0,0:0:0:0:
194,196,156457,5,0,1:2:0:0:
194,196,156548,1,0,1:0:0:0:
194,196,156639,2,0,P|168:185|109:180,1,53.9999983520508,0|0,1:2|1:2,0:0:0:0:
41,184,156821,5,10,0:0:0:0:
209,83,157003,1,2,1:2:0:0:
263,287,157185,1,10,0:0:0:0:
470,200,157366,2,0,P|498:155|471:17,1,180,6|0,1:2|1:2,0:0:0:0:
370,304,157912,5,10,0:0:0:0:
370,304,158003,1,8,0:0:0:0:
370,304,158094,1,10,0:0:0:0:
370,304,158185,1,8,0:0:0:0:
370,304,158275,2,0,P|420:293|488:301,1,90,6|2,1:2|0:0,0:0:0:0:
372,192,158548,1,2,0:0:0:0:
352,199,158639,2,0,P|307:199|263:189,1,90,10|2,0:0|0:0,0:0:0:0:
201,253,158912,1,2,0:0:0:0:
181,246,159003,2,0,P|136:245|92:255,1,90,10|2,0:0|1:2,0:0:0:0:
0,164,159366,2,0,P|44:164|145:131,1,135,8|2,0:0|0:0,0:0:0:0:
195,88,159730,6,0,P|184:44|185:0,1,90,10|2,0:0|0:0,0:0:0:0:
319,101,160094,1,10,0:0:0:0:
181,246,160275,2,0,P|241:206|350:208,1,180,2|2,1:2|1:2,0:0:0:0:
415,267,160730,1,0,1:2:0:0:
423,284,160821,2,0,P|453:304|507:303,1,90,8|2,0:0|1:2,0:0:0:0:
479,115,161094,1,2,0:0:0:0:
466,125,161185,2,0,B|468:153|468:153|477:182|477:182|478:231,1,90,14|8,0:0|0:0,0:0:0:0:
477,213,161457,1,8,0:0:0:0:
477,213,161548,1,8,0:0:0:0:
349,323,161730,5,8,3:0:0:0:
349,323,161821,1,8,3:0:0:0:
349,323,161912,2,0,L|284:301,1,45,2|2,1:2|0:0,0:0:0:0:
224,233,162094,2,0,L|159:255,1,45,10|10,3:0|3:0,0:0:0:0:
16,349,162275,2,0,L|4:305,1,45,10|8,3:0|3:0,0:0:0:0:
98,209,162457,6,0,B|91:261|91:261|113:331|113:331|105:405,1,180,6|0,1:2|1:2,0:0:0:0:
93,98,163003,1,8,0:0:0:0:
27,160,163185,2,0,P|110:183|184:94,1,180,4|8,1:2|0:0,0:0:0:0:
265,30,163730,2,0,L|285:157,1,90,10|10,0:0|0:0,0:0:0:0:
293,204,164094,5,2,0:0:0:0:
94,302,169912,6,0,L|66:149,1,135.000005149842,2|2,0:0|0:0,0:0:0:0:
167,228,170639,2,0,P|211:250|288:187,1,135.000005149842,2|0,0:0|0:0,0:0:0:0:
202,110,171185,1,2,0:0:0:0:
202,110,171366,2,0,L|218:176,1,67.5000025749208,2|0,0:0|0:0,0:0:0:0:
295,292,171730,2,0,L|311:226,1,67.5000025749208,2|2,0:0|0:0,0:0:0:0:
473,109,172457,5,2,0:0:0:0:
473,109,172639,1,2,0:0:0:0:
473,109,172821,2,0,B|434:104|434:104|386:125|386:125|332:120,1,135.000005149842,2|2,0:0|0:0,0:0:0:0:
180,214,173548,2,0,B|219:209|219:209|267:230|267:230|321:225,1,135.000005149842,2|2,0:0|0:0,0:0:0:0:
388,205,174094,5,2,0:0:0:0:
231,346,175185,6,0,L|192:333,10,22.5,0|0|0|0|2|0|0|0|0|0|0,0:0|0:0|0:0|0:0|0:0|0:0|0:0|0:0|0:0|0:0|0:0,0:0:0:0:
262,367,175730,6,0,B|225:250|287:290|245:141,1,198.000006042481,6|10,1:2|0:0,0:0:0:0:
203,60,176275,1,0,0:0:0:0:
364,186,176457,1,10,0:0:0:0:
352,43,176639,1,0,1:2:0:0:
130,121,176821,2,0,P|109:70|114:5,1,99.0000030212403,10|0,0:0|1:2,0:0:0:0:
352,43,177185,5,10,0:0:0:0:
128,121,177366,1,2,0:0:0:0:
277,193,177548,1,10,0:0:0:0:
26,243,177730,1,2,1:2:0:0:
194,182,177912,5,8,0:0:0:0:
138,384,178094,1,0,1:2:0:0:
138,384,178185,1,0,1:2:0:0:
138,384,178275,2,0,P|117:333|122:268,1,99.0000030212403,10|2,0:0|1:2,0:0:0:0:
379,264,178639,5,10,0:0:0:0:
177,208,178821,1,2,0:0:0:0:
420,89,179003,1,10,0:0:0:0:
141,110,179185,1,0,0:0:0:0:
354,25,179366,5,10,0:0:0:0:
274,259,179548,1,2,1:2:0:0:
420,89,179730,1,10,0:0:0:0:
467,331,179912,1,2,1:2:0:0:
194,218,180094,6,0,P|196:311|283:345,1,198.000006042481,10|8,0:0|0:0,0:0:0:0:
395,219,180639,1,0,0:0:0:0:
323,97,180821,1,8,0:0:0:0:
323,97,180912,1,8,0:0:0:0:
323,97,181003,1,0,1:0:0:0:
512,21,181185,2,0,L|495:86,1,49.5000015106202,10|8,0:0|0:0,0:0:0:0:
431,212,181366,2,0,L|366:195,1,49.5000015106202,10|8,0:0|0:0,0:0:0:0:
131,114,181548,6,0,B|184:98|184:98|268:114|268:114|333:93,1,198.000006042481,6|10,1:2|0:0,0:0:0:0:
143,30,182094,1,0,1:2:0:0:
39,190,182275,1,10,0:0:0:0:
229,84,182457,1,2,1:2:0:0:
40,8,182639,1,8,0:0:0:0:
185,179,182821,1,2,1:2:0:0:
27,313,183003,6,0,L|12:360,1,49.5000015106202,10|0,0:0|0:0,0:0:0:0:
171,367,183185,2,0,L|246:331,1,49.5000015106202,0|0,1:2|0:0,0:0:0:0:
155,161,183366,2,0,L|169:208,1,49.5000015106202,10|0,0:0|0:0,0:0:0:0:
321,381,183548,2,0,B|338:345|338:345|310:278,1,99.0000030212403,2|8,1:2|0:0,0:0:0:0:
381,100,183912,1,0,1:2:0:0:
381,100,184003,1,0,1:2:0:0:
381,100,184094,2,0,B|358:154|358:154|375:190,1,99.0000030212403,10|2,0:0|1:2,0:0:0:0:
460,276,184457,5,10,0:0:0:0:
506,140,184639,1,0,0:0:0:0:
364,299,184821,1,10,0:0:0:0:
357,75,185003,1,0,1:2:0:0:
357,75,185094,1,0,1:2:0:0:
357,75,185185,1,10,0:0:0:0:
269,345,185366,1,2,1:2:0:0:
173,106,185548,1,10,0:0:0:0:
0,275,185730,6,0,P|65:297|211:288,1,198.000006042481,6|0,1:2|1:2,0:0:0:0:
193,293,186185,1,8,0:0:0:0:
193,293,186275,1,8,1:2:0:0:
335,229,186457,1,8,0:0:0:0:
335,229,186548,1,8,0:0:0:0:
335,229,186639,2,0,P|328:203|322:163,1,49.5000015106202,8|8,1:2|0:0,0:0:0:0:
262,82,186821,2,0,P|285:88|310:93,1,49.5000015106202,8|8,0:0|0:0,0:0:0:0:
473,162,187003,6,0,P|443:167|383:184,1,67.5000025749208,10|8,1:2|0:0,0:0:0:0:
278,380,187185,2,0,P|280:349|294:300,1,67.5000025749208,10|8,0:0|0:0,0:0:0:0:
88,166,187366,6,0,P|96:198|103:285,1,108,6|0,1:2|0:0,0:0:0:0:
126,348,187730,6,0,P|195:367|277:285,1,198.000006042481,10|2,0:0|1:2,0:0:0:0:
393,156,188275,1,0,1:2:0:0:
393,156,188366,1,0,1:0:0:0:
393,156,188457,2,0,P|384:188|382:265,1,99.0000030212403,10|2,0:0|0:0,0:0:0:0:
331,76,188821,5,2,1:2:0:0:
491,174,189003,1,2,1:2:0:0:
276,285,189185,1,10,0:0:0:0:
393,156,189366,1,2,1:2:0:0:
484,357,189548,5,0,1:0:0:0:
484,357,189639,1,8,0:0:0:0:
484,357,189730,1,0,1:2:0:0:
380,253,189912,1,10,0:0:0:0:
264,325,190094,1,0,0:0:0:0:
192,209,190275,1,2,1:2:0:0:
308,137,190457,1,2,0:0:0:0:
264,325,190639,5,10,0:0:0:0:
76,281,190821,1,2,0:0:0:0:
120,93,191003,1,2,1:2:0:0:
120,93,191094,1,8,0:0:0:0:
120,93,191185,1,2,1:2:0:0:
308,137,191366,1,10,0:0:0:0:
192,209,191548,1,2,0:0:0:0:
55,38,191730,6,0,B|80:92|80:92|74:175|74:175|93:236,1,198.000006042481,2|8,1:2|0:0,0:0:0:0:
101,357,192275,1,0,1:2:0:0:
101,357,192366,1,0,1:0:0:0:
101,357,192457,2,0,L|161:333,1,49.5000015106202,0|0,1:2|1:2,0:0:0:0:
228,232,192639,2,0,L|204:172,1,49.5000015106202,8|10,0:0|0:0,0:0:0:0:
262,42,192821,2,0,L|307:60,1,49.5000015106202,10|8,0:0|0:0,0:0:0:0:
446,41,193003,2,0,L|422:101,1,49.5000015106202,10|8,0:0|0:0,0:0:0:0:
391,191,193185,5,2,1:2:0:0:
394,201,193275,1,8,3:0:0:0:
397,212,193366,1,8,3:0:0:0:
400,223,193457,1,8,3:0:0:0:
436,244,193548,6,0,P|399:291|263:288,1,188.999994232178,14|8,0:0|0:0,0:0:0:0:
228,232,193912,1,2,1:2:0:0:
131,327,194094,1,2,1:2:0:0:
340,212,194275,1,10,0:0:0:0:
164,99,194457,5,10,0:0:0:0:
164,99,194548,1,8,0:0:0:0:
164,99,194639,1,2,1:2:0:0:
340,212,194821,1,2,1:2:0:0:
361,45,195003,1,10,0:0:0:0:
117,224,195185,2,0,P|33:203|43:83,1,198.000006042481,6|0,1:2|1:2,0:0:0:0:
261,43,195730,2,0,L|245:105,1,49.5000015106202,10|8,0:0|0:0,0:0:0:0:
226,196,195912,2,0,L|242:258,1,49.5000015106202,10|8,0:0|0:0,0:0:0:0:
213,362,196094,5,6,1:2:0:0:
213,362,196275,1,0,1:2:0:0:
363,296,196457,2,0,P|447:275|437:155,1,198.000006042481,10|10,0:0|0:0,0:0:0:0:
443,99,196912,1,8,0:0:0:0:
443,99,197003,2,0,P|415:111|366:122,1,49.5000015106202,10|8,0:0|0:0,0:0:0:0:
301,141,197185,2,0,P|313:113|324:64,1,49.5000015106202,10|0,0:0|0:0,0:0:0:0:
184,15,197366,6,0,P|196:43|214:179,1,148.50000453186,6|0,1:2|0:0,0:0:0:0:
194,242,197730,1,10,0:0:0:0:
80,133,197912,1,10,0:0:0:0:
301,141,198094,1,10,0:0:0:0:
52,273,198275,5,14,0:0:0:0:
52,273,198639,2,0,B|53:307|53:307|63:338|63:338|65:370,1,90,0|2,0:0|0:0,0:0:0:0:
307,276,201185,6,0,L|318:305,14,22.5
321,258,201912,6,0,P|390:248|412:157,1,135,6|0,1:2|0:0,0:0:0:0:
373,122,202275,2,0,P|316:138|260:137,1,90,10|0,0:0|0:0,0:0:0:0:
178,188,202639,2,0,P|194:131|193:75,1,90,10|0,0:0|1:2,0:0:0:0:
77,160,203003,1,10,0:0:0:0:
119,281,203185,1,0,1:2:0:0:
102,131,203366,5,10,0:0:0:0:
0,258,203548,1,2,0:0:0:0:
201,317,203730,1,10,0:0:0:0:
43,374,203912,2,0,P|27:317|28:261,1,90,2|8,1:2|0:0,0:0:0:0:
208,199,204275,1,2,1:2:0:0:
134,366,204457,1,10,0:0:0:0:
134,366,204639,1,2,1:2:0:0:
315,266,204821,6,0,P|386:232|366:117,2,180,10|10|10,0:0|0:0|0:0,0:0:0:0:
208,199,205730,1,2,1:2:0:0:
162,296,205912,1,10,0:0:0:0:
323,184,206094,1,2,1:2:0:0:
293,17,206275,5,10,0:0:0:0:
434,78,206457,1,0,0:0:0:0:
305,167,206639,1,8,0:0:0:0:
385,7,206821,1,2,0:0:0:0:
501,238,207003,5,10,0:0:0:0:
501,238,207094,1,8,0:0:0:0:
501,238,207185,1,10,0:0:0:0:
335,227,207366,2,0,L|323:184,1,45,10|8,0:0|0:0,0:0:0:0:
398,345,207548,2,0,L|410:301,1,45,10|8,0:0|0:0,0:0:0:0:
261,291,207730,6,0,P|213:325|149:320,1,108,2|0,1:2|0:0,0:0:0:0:
93,363,208094,6,0,P|60:318|74:188,1,180,10|8,0:0|0:0,0:0:0:0:
246,118,208639,1,0,1:2:0:0:
192,244,208821,1,8,0:0:0:0:
75,206,209003,5,0,1:2:0:0:
75,206,209094,1,0,1:0:0:0:
75,206,209185,1,10,0:0:0:0:
218,269,209366,1,2,0:0:0:0:
167,62,209548,1,10,0:0:0:0:
387,179,209730,2,0,P|344:192|299:195,1,90,2|10,1:2|0:0,0:0:0:0:
432,86,210094,5,2,1:2:0:0:
432,86,210185,1,0,1:0:0:0:
432,86,210275,2,0,P|472:122|464:252,1,180,10|10,0:0|0:0,0:0:0:0:
262,344,210821,1,2,0:0:0:0:
175,235,211003,1,10,0:0:0:0:
356,315,211185,1,0,1:2:0:0:
124,351,211366,5,10,0:0:0:0:
388,238,211548,1,8,0:0:0:0:
388,238,211639,1,8,0:0:0:0:
388,238,211730,2,0,L|315:223,1,45,8|8,0:0|0:0,0:0:0:0:
191,139,211912,2,0,P|208:207|214:346,1,180,6|0,1:2|1:2,0:0:0:0:
170,28,212457,1,8,0:0:0:0:
113,98,212639,2,0,P|162:115|259:35,1,180,4|8,1:2|0:0,0:0:0:0:
118,195,213185,5,10,0:0:0:0:
