osu file format v14

[General]
AudioFilename: audio.ogg
AudioLeadIn: 0
PreviewTime: 53696
Countdown: 0
SampleSet: Soft
StackLeniency: 0.7
Mode: 0
LetterboxInBreaks: 0
WidescreenStoryboard: 1

[Editor]
Bookmarks: 65696,71514
DistanceSpacing: 1
BeatDivisor: 4
GridSize: 32
TimelineZoom: 1

[Metadata]
Title:Himitsu Koigokoro (TV Size)
TitleUnicode:ヒミツ恋ゴコロ (TV Size)
Artist:CHiCO with HoneyWorks
ArtistUnicode:CHiCO with HoneyWorks
Creator:buddon
Version:Shiwakaze's Normal
Source:彼女、お借りします
Tags:rent a girlfriend kanokari i'd id like to borrow gf kanojo okarishimasu rent-a-girlfriend secret romance love second season 2 two op opening female vocals japanese pop jpop j-pop anime shiwakaze ryxliee
BeatmapID:3939672
BeatmapSetID:1908258

[Difficulty]
HPDrainRate:3.5
CircleSize:3
OverallDifficulty:4.5
ApproachRate:5
SliderMultiplier:1
SliderTickRate:1

[Events]
//Background and Video events
Video,-30,"video.mp4"
0,0,"ruka.png",0,0
//Break Periods
2,65714,70254
//Storyboard Layer 0 (Background)
//Storyboard Layer 1 (Fail)
//Storyboard Layer 2 (Pass)
//Storyboard Layer 3 (Foreground)
//Storyboard Layer 4 (Overlay)
//Storyboard Sound Samples

[TimingPoints]
1696,363.636363636364,4,2,1,60,1,0
1696,-111.111111111111,4,2,1,60,0,0
13332,-100,4,2,1,70,0,0
19150,-111.111111111111,4,2,1,60,0,0
30786,-100,4,2,1,60,0,0
48241,-111.111111111111,4,2,1,70,0,0
54059,-95.2380952380952,4,2,1,80,0,1
65514,-95.2380952380952,4,2,1,80,0,0
71514,-111.111111111111,4,2,1,55,0,0
76786,-111.111111111111,4,2,1,60,0,0
77332,-90.9090909090909,4,2,1,80,0,1
88605,-90.9090909090909,4,2,1,80,0,0

[Colours]
Combo1 : 177,164,240
Combo2 : 32,143,255
Combo3 : 102,216,253
Combo4 : 61,199,160
Combo5 : 228,148,206
Combo6 : 238,57,89

[HitObjects]
306,61,1696,6,0,B|405:38|377:123|476:101,2,179.999994506836,6|6|6,3:2|3:2|3:2,0:0:0:0:
112,249,4241,1,8,0:3:0:0:
46,186,4605,2,0,P|31:104|17:6,2,179.999994506836,6|6|6,3:2|3:2|3:2,0:0:0:0:
112,249,6423,1,2,0:2:0:0:
73,329,6786,1,2,0:2:0:0:
149,377,7150,1,2,0:2:0:0:
228,332,7514,6,0,P|280:320|324:312,1,89.9999972534181,6|2,3:2|3:2,0:0:0:0:
356,350,8059,1,2,0:2:0:0:
356,350,8241,2,0,P|408:362|452:370,1,89.9999972534181,2|0,3:2|3:2,0:0:0:0:
492,276,8968,2,0,P|487:238|481:173,1,89.9999972534181,2|2,3:2|3:2,0:0:0:0:
442,163,9514,2,0,P|447:125|453:60,1,89.9999972534181,2|2,0:2|0:0,0:0:0:0:
454,28,10059,1,2,3:2:0:0:
367,52,10423,6,0,P|327:45|277:34,1,89.9999972534181,6|10,3:2|0:2,0:0:0:0:
237,52,10968,1,8,0:2:0:0:
237,52,11150,2,0,L|188:44,1,44.999998626709,10|10,0:2|0:2,0:0:0:0:
151,24,11514,1,10,0:2:0:0:
151,24,11696,1,14,0:2:0:0:
81,81,12059,2,0,L|37:66,2,44.999998626709,10|10|10,0:2|0:2|0:2,0:0:0:0:
190,160,12968,1,2,0:0:0:0:
278,112,13332,6,0,P|287:151|299:224,1,100,6|10,3:2|0:2,0:0:0:0:
339,247,13877,1,0,0:2:0:0:
339,247,14059,2,0,P|330:286|318:359,1,100,10|8,0:2|0:2,0:0:0:0:
223,370,14786,2,0,P|185:359|167:357,1,50,10|2,0:2|0:2,0:0:0:0:
132,342,15150,1,10,0:2:0:0:
132,342,15332,2,0,P|110:298|114:236,1,100,2|2,3:2|3:2,0:0:0:0:
71,216,15877,1,10,0:2:0:0:
16,132,16241,6,0,P|41:100|100:96,1,100,10|10,0:2|0:2,0:0:0:0:
147,117,16786,1,0,3:2:0:0:
147,117,16968,2,0,P|208:101|257:87,1,100,10|10,0:2|0:2,0:0:0:0:
270,48,17514,2,0,P|281:79|295:151,1,100,6|0,3:2|3:2,0:0:0:0:
279,195,18059,1,8,0:2:0:0:
279,195,18241,2,0,P|314:225|376:211,1,100,4|8,3:2|0:2,0:0:0:0:
402,186,18786,1,8,0:2:0:0:
461,253,19150,6,0,P|467:289|476:351,2,89.9999972534181,6|2|2,3:2|3:2|3:2,0:0:0:0:
402,186,20241,1,2,3:2:0:0:
448,106,20605,2,0,P|440:67|383:50,1,89.9999972534181,2|2,3:2|3:2,0:0:0:0:
356,66,21150,2,0,L|254:52,1,89.9999972534181,2|2,0:2|0:2,0:0:0:0:
232,23,21696,1,2,3:2:0:0:
175,92,22059,2,0,P|137:77|73:61,2,89.9999972534181,2|0|0,3:2|3:2|3:2,0:0:0:0:
238,155,23150,5,2,3:2:0:0:
322,123,23514,2,0,P|330:174|334:219,1,89.9999972534181,2|0,3:2|3:2,0:0:0:0:
336,261,24059,1,2,0:2:0:0:
336,261,24241,2,0,L|398:268,2,44.999998626709,2|2|2,3:2|0:2|0:2,0:0:0:0:
283,334,24968,6,0,P|254:360|196:355,1,89.9999972534181,6|2,3:2|3:2,0:0:0:0:
135,301,25696,2,0,P|129:256|122:211,1,89.9999972534181,2|2,3:2|3:2,0:0:0:0:
202,171,26423,2,0,P|209:116|216:70,1,89.9999972534181,2|2,3:2|3:2,0:0:0:0:
186,46,26968,2,0,P|157:16|97:15,1,89.9999972534181,2|2,0:2|0:2,0:0:0:0:
71,32,27514,1,2,3:2:0:0:
11,99,27877,6,0,P|19:129|29:196,1,89.9999972534181,2|2,3:2|3:2,0:0:0:0:
39,236,28423,1,8,0:3:0:0:
39,236,28605,1,4,0:3:0:0:
55,329,28968,1,10,0:0:0:0:
55,329,29150,2,0,P|86:355|142:352,1,89.9999972534181,6|0,3:2|3:2,0:0:0:0:
169,328,29696,1,8,0:2:0:0:
265,346,30059,2,0,L|314:367,1,44.999998626709,0|8,3:2|0:2,0:0:0:0:
350,353,30423,2,0,L|399:332,1,44.999998626709,8|0,0:2|3:3,0:0:0:0:
439,347,30786,6,0,P|487:336|503:282,1,100,6|10,3:2|0:2,0:0:0:0:
511,192,31514,2,0,P|505:158|501:136,1,50,2|0,0:2|3:2,0:0:0:0:
494,93,31877,1,10,0:2:0:0:
414,31,32241,2,0,P|374:69|326:57,1,100,2|10,3:2|0:2,0:0:0:0:
288,41,32786,2,0,P|230:28|181:24,1,100,2|2,3:2|3:2,0:0:0:0:
139,17,33332,1,10,0:2:0:0:
97,108,33696,6,0,P|101:143|103:166,1,50,2|2,3:2|0:2,0:0:0:0:
107,207,34059,1,8,0:2:0:0:
202,238,34423,2,0,L|255:224,1,50,2|2,0:2|3:2,0:0:0:0:
294,202,34786,2,0,L|347:216,1,50,10|2,0:2|0:2,0:0:0:0:
385,189,35150,2,0,L|378:124,2,50,2|2|10,3:2|0:2|0:2,0:0:0:0:
423,221,35696,1,2,3:2:0:0:
422,324,36059,1,2,3:2:0:0:
422,324,36241,1,10,0:2:0:0:
321,328,36605,6,0,P|279:323|221:316,1,100,6|10,3:2|0:2,0:0:0:0:
128,352,37332,2,0,P|123:319|119:294,1,50,2|0,0:2|3:2,0:0:0:0:
101,255,37696,1,10,0:2:0:0:
4,228,38059,2,0,P|10:191|16:119,1,100,2|10,3:2|0:2,0:0:0:0:
29,83,38605,1,2,3:2:0:0:
29,83,38786,2,0,L|23:28,2,50,8|2|2,0:2|3:2|3:2,0:0:0:0:
124,113,39514,6,0,P|170:127|213:91,1,100,6|8,3:2|0:2,0:0:0:0:
248,67,40059,1,2,3:2:0:0:
248,67,40241,2,0,L|356:91,1,100,8|10,0:2|0:2,0:0:0:0:
395,95,40786,2,0,P|398:119|407:205,1,100,6|8,3:2|0:3,0:0:0:0:
408,244,41332,1,2,3:2:0:0:
343,320,41696,2,0,L|346:373,2,50,10|0|10,0:2|3:2|0:2,0:0:0:0:
249,282,42423,6,0,L|147:277,1,100,6|2,3:2|3:2,0:0:0:0:
105,252,42968,2,0,P|77:216|83:157,1,100,2|2,0:2|0:2,0:0:0:0:
104,120,43514,1,2,3:2:0:0:
198,153,43877,2,0,L|307:142,1,100,2|2,3:2|3:2,0:0:0:0:
333,107,44423,2,0,P|371:96|429:129,1,100,2|2,0:2|0:2,0:0:0:0:
460,155,44968,1,2,3:2:0:0:
439,253,45332,6,0,P|433:291|430:365,1,100,6|0,3:2|3:2,0:0:0:0:
332,376,46059,2,0,P|328:331|320:273,1,100,2|2,3:2|3:2,0:0:0:0:
235,234,46786,1,2,3:2:0:0:
235,234,46968,2,0,P|228:278|221:337,1,100,2|2,0:2|0:2,0:0:0:0:
210,375,47514,2,0,L|144:368,1,50,2|2,3:2|3:2,0:0:0:0:
123,336,47877,1,10,0:0:0:0:
46,288,48241,6,0,P|22:243|27:197,1,89.9999972534181,6|2,3:2|0:2,0:0:0:0:
41,166,48786,1,2,3:2:0:0:
41,166,48968,1,8,0:2:0:0:
119,210,49332,1,2,0:2:0:0:
184,148,49696,2,0,L|236:155,2,44.999998626709,2|10|2,3:2|0:2|0:2,0:0:0:0:
158,117,50241,1,2,3:2:0:0:
158,117,50423,2,0,P|134:78|155:30,1,89.9999972534181,8|10,0:2|0:2,0:0:0:0:
229,4,51150,6,0,L|286:23,1,44.999998626709,6|2,3:2|0:2,0:0:0:0:
311,39,51514,2,0,L|403:20,1,89.9999972534181,10|4,0:2|0:3,0:0:0:0:
486,58,52241,1,10,0:2:0:0:
486,58,52423,2,0,P|479:100|475:153,1,89.9999972534181,2|10,0:2|0:2,0:0:0:0:
476,196,52968,1,8,0:2:0:0:
476,196,53150,1,10,0:2:0:0:
327,362,54059,5,6,3:2:0:0:
223,382,54423,1,10,0:2:0:0:
129,333,54786,2,0,P|125:294|122:270,1,52.4999983978272,10|0,0:2|3:2,0:0:0:0:
106,230,55150,2,0,P|110:191|113:167,1,52.4999983978272,10|0,0:2|3:2,0:0:0:0:
109,125,55514,2,0,P|90:143|16:138,2,104.999996795654,10|10|8,0:2|0:2|0:2,0:0:0:0:
214,125,56605,2,0,P|219:158|221:185,1,52.4999983978272,10|2,0:2|3:2,0:0:0:0:
191,221,56968,6,0,P|172:272|199:323,1,104.999996795654,10|10,0:2|0:2,0:0:0:0:
232,348,57514,1,2,0:2:0:0:
232,348,57696,2,0,L|299:338,1,52.4999983978272,10|2,0:2|3:2,0:0:0:0:
334,356,58059,2,0,L|401:346,1,52.4999983978272,10|2,0:2|3:2,0:0:0:0:
433,324,58423,2,0,P|427:276|406:212,1,104.999996795654,10|8,0:2|0:2,0:0:0:0:
315,176,59150,1,8,0:2:0:0:
234,243,59514,2,0,P|200:237|173:234,1,52.4999983978272,10|10,0:2|0:2,0:0:0:0:
144,198,59877,6,0,P|118:177|40:191,1,104.999996795654,6|10,3:2|0:2,0:0:0:0:
18,225,60423,1,2,0:2:0:0:
18,225,60605,2,0,L|26:284,1,52.4999983978272,10|2,0:2|3:2,0:0:0:0:
32,329,60968,1,8,0:2:0:0:
127,371,61332,2,0,P|182:365|246:358,1,104.999996795654,10|10,0:2|0:2,0:0:0:0:
277,334,61877,2,0,P|300:299|266:238,1,104.999996795654,2|0,3:2|3:2,0:0:0:0:
244,203,62423,2,0,P|238:170|235:147,1,52.4999983978272,10|2,0:2|3:2,0:0:0:0:
228,99,62786,6,0,P|248:68|331:77,1,104.999996795654,10|10,0:2|0:2,0:0:0:0:
408,102,63514,2,0,P|402:136|400:158,1,52.4999983978272,10|2,0:2|3:2,0:0:0:0:
357,185,63877,1,10,0:2:0:0:
357,185,64059,2,0,P|371:231|374:309,1,104.999996795654,6|0,3:2|3:2,0:0:0:0:
378,340,64605,1,8,0:2:0:0:
378,340,64786,1,4,3:2:0:0:
278,372,65150,2,0,L|221:362,1,52.4999983978272,8|8,0:0|0:0,0:0:0:0:
174,351,65514,1,8,0:0:0:0:
51,120,71514,6,0,L|41:15,2,89.9999972534181,2|2|2,0:2|0:2|0:2,0:0:0:0:
129,164,72605,1,0,0:2:0:0:
207,121,72968,2,0,P|255:112|302:106,1,89.9999972534181,2|2,0:2|0:2,0:0:0:0:
330,135,73514,2,0,P|378:144|425:150,1,89.9999972534181,2|0,0:2|0:2,0:0:0:0:
456,124,74059,1,2,0:2:0:0:
486,208,74423,6,0,P|490:250|493:305,1,89.9999972534181,2|2,0:2|0:2,0:0:0:0:
433,365,75150,2,0,L|374:356,1,44.999998626709,2|2,0:2|0:2,0:0:0:0:
359,323,75514,1,2,0:2:0:0:
359,323,75696,1,2,0:2:0:0:
47,367,76968,2,0,L|42:309,1,44.999998626709,2|2,0:0|0:0,0:0:0:0:
36,267,77332,5,6,3:2:0:0:
143,289,77696,1,10,0:2:0:0:
244,247,78059,2,0,P|282:251|314:254,1,55.0000016784668,10|0,0:2|3:2,0:0:0:0:
349,275,78423,2,0,P|387:270|419:267,1,55.0000016784668,10|0,0:2|3:2,0:0:0:0:
453,244,78787,2,0,P|456:288|469:356,2,110.000003356934,10|10|8,0:2|0:2|0:2,0:0:0:0:
504,146,79878,2,0,P|499:113|495:81,1,55.0000016784668,10|0,0:2|3:2,0:0:0:0:
468,43,80241,6,0,P|414:25|365:50,1,110.000003356934,10|10,0:2|0:2,0:0:0:0:
334,92,80787,1,2,0:2:0:0:
334,92,80969,2,0,L|257:80,1,55.0000016784668,10|2,0:2|3:2,0:0:0:0:
226,96,81332,2,0,L|153:85,1,55.0000016784668,10|2,0:2|3:2,0:0:0:0:
120,66,81696,2,0,P|126:114|132:178,1,110.000003356934,10|8,0:2|0:2,0:0:0:0:
104,283,82423,2,0,L|173:289,1,55.0000016784668,10|2,0:0|3:2,0:0:0:0:
213,296,82787,2,0,P|247:302|275:305,1,55.0000016784668,10|10,0:0|0:0,0:0:0:0:
319,286,83150,6,0,P|343:232|309:187,1,110.000003356934,6|10,3:2|0:2,0:0:0:0:
237,117,83878,2,0,L|177:111,1,55.0000016784668,10|2,0:2|3:2,0:0:0:0:
136,80,84241,1,10,0:0:0:0:
37,128,84605,2,0,L|46:194,1,55.0000016784668,10|2,0:2|0:2,0:0:0:0:
55,241,84968,1,10,0:2:0:0:
55,241,85150,1,2,3:2:0:0:
148,309,85514,1,0,3:0:0:0:
148,309,85696,2,0,L|221:302,1,55.0000016784668,10|0,0:0|0:0,0:0:0:0:
250,331,86059,6,0,P|270:362|357:353,1,110.000003356934,10|10,0:0|0:0,0:0:0:0:
378,330,86605,1,2,3:2:0:0:
378,330,86786,2,0,P|384:293|391:272,1,55.0000016784668,10|2,0:0|3:2,0:0:0:0:
380,226,87150,1,10,0:0:0:0:
380,226,87332,2,0,P|372:163|359:111,1,110.000003356934,6|0,3:2|3:0,0:0:0:0:
393,74,87877,1,10,0:0:0:0:
393,74,88059,1,6,3:2:0:0:
306,15,88423,1,8,0:0:0:0:
306,15,88605,1,14,0:0:0:0:
