osu file format v14

[General]
AudioFilename: audio.ogg
AudioLeadIn: 0
PreviewTime: 53696
Countdown: 0
SampleSet: Soft
StackLeniency: 0.7
Mode: 0
LetterboxInBreaks: 0
WidescreenStoryboard: 1

[Editor]
Bookmarks: 42423
DistanceSpacing: 1.3
BeatDivisor: 4
GridSize: 16
TimelineZoom: 1

[Metadata]
Title:Himitsu Koigokoro (TV Size)
TitleUnicode:ヒミツ恋ゴコロ (TV Size)
Artist:CHiCO with HoneyWorks
ArtistUnicode:CHiCO with HoneyWorks
Creator:buddon
Version:Ryxliee's Hard
Source:彼女、お借りします
Tags:rent a girlfriend kanokari i'd id like to borrow gf kanojo okarishimasu rent-a-girlfriend secret romance love second season 2 two op opening female vocals japanese pop jpop j-pop anime shiwakaze ryxliee
BeatmapID:3946622
BeatmapSetID:1908258

[Difficulty]
HPDrainRate:4
CircleSize:3.5
OverallDifficulty:6.5
ApproachRate:7.8
SliderMultiplier:1.3
SliderTickRate:1

[Events]
//Background and Video events
0,0,"ruka.png",0,0
Video,-30,"video.mp4"
//Break Periods
2,65714,70735
//Storyboard Layer 0 (Background)
//Storyboard Layer 1 (Fail)
//Storyboard Layer 2 (Pass)
//Storyboard Layer 3 (Foreground)
//Storyboard Layer 4 (Overlay)
//Storyboard Sound Samples

[TimingPoints]
1696,363.636363636364,4,2,1,60,1,0
1696,-125,4,2,1,60,0,0
7514,-111.111111111111,4,2,1,60,0,0
13332,-100,4,2,1,70,0,0
19150,-111.111111111111,4,2,1,60,0,0
30786,-100,4,2,1,60,0,0
42423,-111.111111111111,4,2,1,70,0,0
54059,-90.9090909090909,4,2,1,80,0,1
65514,-90.9090909090909,4,2,1,80,0,0
71514,-142.857142857143,4,2,1,55,0,0
76786,-142.857142857143,4,2,1,60,0,0
77332,-83.3333333333333,4,2,1,80,0,1
88605,-83.3333333333333,4,2,1,80,0,0

[Colours]
Combo1 : 177,164,240
Combo2 : 32,143,255
Combo3 : 102,216,253
Combo4 : 61,199,160
Combo5 : 228,148,206
Combo6 : 238,57,89

[HitObjects]
207,113,1696,6,0,P|90:98|42:175,2,208,6|6|6,3:2|3:2|3:2,0:2:0:0:
309,318,4241,1,8,0:3:0:0:
317,335,4605,6,0,P|434:350|482:273,2,208,6|6|6,3:2|3:2|3:2,0:2:0:0:
224,222,6423,1,2,0:2:0:0:
231,205,6786,1,2,0:2:0:0:
238,188,7150,1,2,0:2:0:0:
248,170,7514,6,0,P|302:186|373:215,1,116.999996429443,6|2,3:2|3:2,0:2:0:0:
422,259,8059,1,2,0:2:0:0:
494,221,8241,2,0,P|523:174|492:108,1,116.999996429443,2|0,3:2|3:2,0:0:0:0:
463,48,8786,1,2,0:2:0:0:
391,87,8968,6,0,P|361:79|326:72,1,58.4999982147217,2|0,3:2|0:2,0:2:0:0:
280,18,9332,1,2,3:2:0:0:
280,18,9514,2,0,B|217:32|244:57|168:79,1,116.999996429443,2|2,0:2|0:0,0:2:0:0:
115,124,10059,1,2,3:2:0:0:
115,124,10241,1,2,0:2:0:0:
36,100,10423,6,0,P|52:157|73:231,1,116.999996429443,6|10,3:2|0:2,0:2:0:0:
136,257,10968,1,8,0:2:0:0:
101,333,11150,1,10,0:2:0:0:
101,333,11332,1,10,0:2:0:0:
167,381,11514,1,10,0:2:0:0:
233,333,11696,6,0,P|292:347|335:360,1,87.7499973220826,14|0,0:2|0:0,0:0:0:0:
332,368,12059,1,10,0:2:0:0:
396,316,12241,1,10,0:2:0:0:
465,360,12423,1,10,0:2:0:0:
134,46,13332,6,0,P|117:104|104:155,1,97.5,6|0,3:2|0:0,0:2:0:0:
94,157,13696,2,0,P|128:146|179:136,1,65,10|0,0:2|0:2,0:2:0:0:
227,82,14059,2,0,B|301:98|271:125|352:148,1,130,10|8,0:2|0:2,0:0:0:0:
411,200,14605,1,0,3:2:0:0:
488,153,14786,6,0,P|501:188|491:233,1,65,10|2,0:2|0:2,0:2:0:0:
449,293,15150,1,10,0:2:0:0:
449,293,15332,2,0,P|479:302|511:309,2,65,2|10|2,3:2|0:2|3:2,0:2:0:0:
385,235,15877,1,10,0:2:0:0:
385,235,16059,1,2,3:2:0:0:
323,301,16241,6,0,P|302:279|307:181,1,130,10|10,0:2|0:2,0:2:0:0:
387,142,16786,1,0,3:2:0:0:
387,142,16877,1,0,3:2:0:0:
387,142,16968,2,0,P|404:116|403:68,1,65,10|2,0:2|3:2,0:2:0:0:
357,5,17332,1,10,0:2:0:0:
284,59,17514,6,0,B|217:43|230:18|164:7,1,130,6|0,3:2|3:2,0:2:0:0:
90,58,18059,1,8,0:2:0:0:
0,42,18241,2,0,P|11:79|22:115,1,65,4|2,3:2|0:2,0:2:0:0:
89,170,18605,1,8,0:2:0:0:
89,170,18696,1,8,0:2:0:0:
89,170,18786,2,0,P|123:178|148:184,2,32.5,8|8|4,0:2|0:3|0:3,0:0:0:0:
12,199,19150,6,0,P|11:231|44:268,1,58.4999982147217,6|0,3:2|0:2,0:2:0:0:
18,335,19514,2,0,P|45:351|93:341,1,58.4999982147217,2|0,3:2|0:2,0:2:0:0:
147,383,19877,2,0,P|175:367|190:320,1,58.4999982147217,2|0,3:2|0:2,0:2:0:0:
249,289,20241,1,2,3:2:0:0:
258,272,20605,6,0,P|240:214|221:153,1,116.999996429443,2|2,3:2|3:2,0:2:0:0:
147,127,21150,2,0,P|165:69|184:8,1,116.999996429443,2|2,0:2|0:2,0:2:0:0:
257,48,21696,2,0,P|284:65|334:60,1,58.4999982147217,2|2,3:2|0:2,0:0:0:0:
382,26,22059,5,2,3:2:0:0:
382,26,22241,2,0,P|448:24|494:67,1,116.999996429443,2|2,0:2|0:2,0:2:0:0:
492,139,22786,1,0,3:2:0:0:
492,139,22968,2,0,P|480:174|469:209,2,58.4999982147217,2|2|2,0:2|3:2|0:2,0:0:0:0:
424,101,23514,5,2,3:2:0:0:
424,101,23696,2,0,B|361:112|381:136|308:153,1,116.999996429443,2|2,0:2|0:2,0:2:0:0:
255,202,24241,1,2,3:2:0:0:
193,165,24423,1,2,0:2:0:0:
193,165,24514,1,2,0:2:0:0:
193,165,24605,2,0,P|204:126|222:73,1,87.7499973220826,2|0,0:2|0:0,0:2:0:0:
236,67,24968,6,0,P|203:46|172:46,1,58.4999982147217,6|0,3:2|0:2,0:2:0:0:
115,0,25332,2,0,P|80:18|64:44,1,58.4999982147217,2|0,3:2|0:2,0:2:0:0:
0,77,25696,2,0,P|-1:116|13:142,1,58.4999982147217,2|0,3:2|0:2,0:2:0:0:
17,214,26059,1,2,3:2:0:0:
25,228,26423,6,0,B|84:213|66:182|134:164,1,116.999996429443,2|2,3:2|3:2,0:2:0:0:
185,114,26968,2,0,B|244:129|226:160|294:178,1,116.999996429443,2|2,0:2|0:2,0:2:0:0:
345,228,27514,1,2,3:2:0:0:
425,198,27696,1,2,0:2:0:0:
425,198,27786,1,2,0:0:0:0:
425,198,27877,6,0,P|438:238|456:303,1,87.7499973220826,2|0,3:2|0:0,0:2:0:0:
465,297,28241,1,2,3:2:0:0:
413,361,28423,1,8,0:3:0:0:
413,361,28514,1,8,0:3:0:0:
413,361,28605,2,0,P|385:353|352:345,1,58.4999982147217,4|0,0:3|0:2,0:2:0:0:
297,289,28968,1,10,0:2:0:0:
235,343,29150,6,0,P|215:302|241:227,1,116.999996429443,6|0,3:2|3:2,0:2:0:0:
300,189,29696,2,0,P|335:203|377:217,1,58.4999982147217,8|2,0:2|0:2,0:2:0:0:
437,271,30059,1,0,3:2:0:0:
437,271,30150,1,8,0:2:0:0:
437,271,30241,1,8,0:2:0:0:
437,271,30332,1,8,0:2:0:0:
437,271,30423,2,0,P|429:293|420:313,2,29.2499991073609,8|0|0,0:2|3:2|3:3,0:0:0:0:
495,200,30786,6,0,P|489:168|461:144,1,65,6|0,3:2|0:0,0:2:0:0:
441,58,31150,2,0,P|410:47|375:59,1,65,10|0,0:2|0:2,0:2:0:0:
297,17,31514,2,0,P|272:37|265:74,1,65,2|0,0:2|3:2,0:2:0:0:
207,139,31877,2,0,P|250:177|247:235,1,97.5,10|0,0:2|0:0,0:2:0:0:
269,233,32241,6,0,B|217:246|230:264|178:281,1,97.5,2|0,3:2|0:2,0:2:0:0:
178,297,32605,1,10,0:2:0:0:
101,272,32786,1,2,3:2:0:0:
101,272,32877,1,8,0:2:0:0:
101,272,32968,2,0,P|91:243|75:203,1,65,0|2,3:2|3:2,0:0:0:0:
17,150,33332,1,10,0:2:0:0:
17,150,33514,1,2,0:2:0:0:
52,66,33696,6,0,P|99:56|152:87,1,97.5,2|0,3:2|0:0,0:2:0:0:
139,100,34059,2,0,P|164:119|195:126,1,65,8|0,0:2|0:2,0:2:0:0:
287,96,34423,1,2,0:2:0:0:
287,96,34514,1,0,0:0:0:0:
287,96,34605,1,2,3:2:0:0:
360,149,34786,1,10,0:2:0:0:
428,88,34968,1,2,0:2:0:0:
508,130,35150,6,0,P|493:182|481:227,1,97.5,2|0,3:2|0:0,0:0:0:0:
489,239,35514,2,0,P|453:250|424:261,1,65,10|2,0:2|3:2,0:0:0:0:
413,280,35786,1,8,0:2:0:0:
413,280,35877,1,0,3:2:0:0:
335,232,36059,1,2,3:2:0:0:
264,289,36241,2,0,P|251:241|237:195,1,97.5,10|0,0:2|0:0,0:2:0:0:
222,182,36605,6,0,P|236:153|267:135,1,65,6|0,3:2|0:0,0:2:0:0:
298,52,36968,2,0,P|330:49|361:68,1,65,10|0,0:2|0:2,0:2:0:0:
443,32,37332,2,0,P|460:58|460:94,1,65,2|0,0:2|3:2,0:2:0:0:
500,173,37696,2,0,B|455:184|466:205|406:225,1,97.5,10|0,0:2|0:0,0:2:0:0:
409,241,38059,6,0,P|363:217|310:224,1,97.5,2|0,3:2|0:2,0:2:0:0:
303,216,38423,1,10,0:2:0:0:
236,278,38605,1,2,3:2:0:0:
171,213,38786,2,0,P|182:183|194:152,1,65,8|2,0:2|3:2,0:2:0:0:
216,146,39059,1,10,0:2:0:0:
216,146,39150,1,2,3:2:0:0:
184,71,39332,1,10,0:2:0:0:
184,71,39423,1,10,0:2:0:0:
184,71,39514,6,0,P|145:83|97:97,1,65,6|0,3:2|0:2,0:2:0:0:
37,55,39877,1,8,0:2:0:0:
0,142,40059,1,2,3:2:0:0:
0,142,40150,1,2,3:2:0:0:
0,142,40241,2,0,P|14:176|28:217,1,65,8|0,0:2|3:2,0:0:0:0:
95,258,40605,1,10,0:2:0:0:
41,331,40786,6,0,P|88:303|166:325,1,130,6|8,3:2|0:3,0:2:0:0:
224,381,41332,1,2,3:2:0:0:
301,329,41514,1,8,0:2:0:0:
301,329,41605,1,8,0:2:0:0:
301,329,41696,2,0,P|291:295|278:252,1,65,10|0,0:2|3:2,0:2:0:0:
212,208,42059,2,0,P|231:156|245:104,1,97.5,10|0,0:2|0:2,0:2:0:0:
257,106,42423,6,0,P|234:78|232:48,1,58.4999982147217,6|0,3:2|0:2,0:2:0:0:
290,0,42786,1,2,3:2:0:0:
354,50,42968,2,0,B|413:45|399:13|473:8,1,116.999996429443,2|2,0:2|0:2,0:2:0:0:
503,80,43514,2,0,P|487:127|481:151,1,58.4999982147217,2|2,3:2|0:2,0:2:0:0:
466,149,43786,1,2,0:2:0:0:
466,149,43877,6,0,P|478:180|488:220,1,58.4999982147217,2|0,3:2|0:2,0:2:0:0:
511,282,44241,1,2,3:2:0:0:
456,342,44423,2,0,P|398:348|345:305,1,116.999996429443,2|2,0:2|0:2,0:2:0:0:
299,259,44968,1,2,3:2:0:0:
299,259,45150,1,0,0:2:0:0:
354,198,45332,6,0,P|421:210|475:219,1,116.999996429443,6|0,3:2|3:2,0:2:0:0:
377,81,46059,2,0,P|310:93|256:102,1,116.999996429443,2|2,3:2|3:2,0:2:0:0:
113,44,46786,5,2,3:2:0:0:
113,44,46969,2,0,P|152:78|141:161,1,116.999996429443,2|2,0:2|0:2,0:0:0:0:
114,212,47514,1,2,3:2:0:0:
114,212,47696,1,2,3:2:0:0:
67,279,47877,1,10,0:2:0:0:
30,355,48059,1,8,0:3:0:0:
30,355,48150,1,8,0:3:0:0:
30,355,48241,6,0,P|54:362|92:375,1,58.4999982147217,6|2,3:2|0:2,0:2:0:0:
163,341,48604,1,2,0:2:0:0:
163,341,48786,1,2,3:2:0:0:
242,362,48969,2,0,P|247:331|232:295,1,58.4999982147217,8|2,0:2|0:2,0:0:0:0:
180,248,49332,2,0,P|175:217|190:181,1,58.4999982147217,2|8,0:2|0:2,0:2:0:0:
204,179,49604,1,8,0:2:0:0:
204,179,49695,6,0,P|235:187|267:195,1,58.4999982147217,2|10,3:2|0:2,0:0:0:0:
332,243,50059,1,2,0:2:0:0:
332,243,50241,1,2,3:2:0:0:
386,181,50423,2,0,P|373:151|357:102,1,58.4999982147217,8|2,0:2|3:2,0:0:0:0:
298,87,50786,1,10,0:2:0:0:
298,87,50968,1,0,3:2:0:0:
347,21,51150,6,0,P|385:22|413:40,1,58.4999982147217,6|2,3:2|0:2,0:2:0:0:
484,26,51514,2,0,P|502:59|500:92,1,58.4999982147217,10|8,0:2|0:3,0:0:0:0:
475,158,51877,1,4,0:3:0:0:
475,158,52059,1,0,0:2:0:0:
399,126,52241,2,0,P|355:138|306:158,1,87.7499973220826,10|0,0:2|0:0,0:2:0:0:
310,170,52605,5,8,0:2:0:0:
236,135,52786,1,10,0:2:0:0:
180,195,52968,1,8,0:2:0:0:
180,195,53150,1,10,0:2:0:0:
180,195,54059,6,0,P|190:236|202:283,1,71.5000021820069,6|0,3:2|0:2,0:2:0:0:
99,287,54423,2,0,P|90:252|81:217,1,71.5000021820069,10|0,0:2|0:2,0:2:0:0:
4,162,54786,1,10,0:2:0:0:
4,162,54968,1,0,3:2:0:0:
53,75,55150,2,0,B|102:80|95:102|165:114,1,107.25000327301,10|0,0:2|3:2,0:2:0:0:
163,128,55514,6,0,P|148:101|157:56,1,71.5000021820069,10|2,0:2|0:2,0:0:0:0:
237,7,55877,1,10,0:2:0:0:
319,64,56059,2,0,P|296:138|277:222,1,143.000004364014,2|0,3:2|3:2,0:2:0:0:
204,266,56605,1,10,0:2:0:0:
204,266,56786,1,2,3:2:0:0:
259,349,56968,6,0,P|295:352|331:317,1,71.5000021820069,10|2,0:2|0:2,0:0:0:0:
421,351,57332,2,0,P|441:321|429:272,1,71.5000021820069,10|2,0:2|0:2,0:0:0:0:
500,207,57696,2,0,P|484:174|436:160,1,71.5000021820069,10|2,0:2|3:2,0:0:0:0:
377,103,58059,1,10,0:2:0:0:
377,103,58241,1,2,3:2:0:0:
303,170,58423,6,0,P|315:222|328:274,1,107.25000327301,10|0,0:2|0:0,0:2:0:0:
343,285,58786,1,8,0:2:0:0:
277,361,58968,1,0,3:2:0:0:
277,361,59059,1,0,3:2:0:0:
277,361,59150,2,0,P|241:365|209:351,1,71.5000021820069,8|0,0:2|3:2,0:2:0:0:
140,278,59514,2,0,P|153:238|161:207,1,71.5000021820069,10|10,0:2|0:2,0:0:0:0:
175,199,59786,1,10,0:2:0:0:
175,199,59877,6,0,P|157:147|141:88,1,107.25000327301,6|0,3:2|0:0,0:2:0:0:
129,90,60241,1,10,0:2:0:0:
202,22,60423,1,2,0:2:0:0:
285,86,60605,1,10,0:2:0:0:
285,86,60786,2,0,P|322:92|356:76,1,71.5000021820069,2|8,3:2|0:2,0:0:0:0:
431,16,61150,1,2,3:2:0:0:
510,76,61332,6,0,P|501:119|493:155,1,71.5000021820069,10|0,0:2|0:2,0:2:0:0:
422,215,61696,1,10,0:2:0:0:
474,299,61877,2,0,P|413:259|331:292,1,143.000004364014,2|0,3:2|3:2,0:2:0:0:
283,351,62423,1,10,0:2:0:0:
283,351,62605,1,2,3:2:0:0:
203,290,62786,6,0,P|216:245|234:170,1,107.25000327301,10|0,0:2|0:2,0:2:0:0:
246,178,63150,2,0,P|234:139|227:109,1,71.5000021820069,10|0,0:2|3:2,0:2:0:0:
210,104,63423,1,0,3:2:0:0:
210,104,63514,1,10,0:2:0:0:
273,26,63696,1,2,3:2:0:0:
355,81,63877,1,10,0:2:0:0:
448,43,64059,6,0,P|427:123|410:194,1,143.000004364014,6|0,3:2|3:2,0:2:0:0:
331,240,64605,1,8,0:2:0:0:
402,309,64786,2,0,P|341:320|289:332,1,107.25000327301,4|0,3:2|0:2,0:2:0:0:
285,349,65150,1,8,0:2:0:0:
206,286,65332,1,8,0:2:0:0:
125,344,65514,1,8,0:2:0:0:
347,42,71514,6,0,P|392:35|450:24,1,90.9999972229005,2|2,0:2|0:2,0:2:0:0:
469,149,72241,2,0,P|424:155|379:164,1,90.9999972229005,2|0,0:2|0:2,0:0:0:0:
251,160,72968,6,0,P|280:186|278:254,1,90.9999972229005,2|2,0:2|0:2,0:2:0:0:
257,308,73514,1,2,0:2:0:0:
257,307,74423,6,0,P|220:333|175:332,1,90.9999972229005,2|2,0:2|0:2,0:2:0:0:
139,210,75150,2,0,P|175:184|220:185,1,90.9999972229005,2|2,0:2|0:2,0:0:0:0:
448,222,77332,6,0,P|472:252|458:320,1,77.999997619629,6|0,3:2|0:2,0:2:0:0:
376,321,77696,2,0,P|352:290|349:252,1,77.999997619629,10|0,0:2|0:2,0:2:0:0:
386,160,78059,1,10,0:2:0:0:
386,160,78241,1,0,3:2:0:0:
313,89,78423,2,0,B|248:101|266:125|207:144,1,116.999996429443,10|0,0:2|3:2,0:2:0:0:
202,159,78786,6,0,P|170:135|128:132,1,77.999997619629,10|2,0:2|0:2,0:0:0:0:
50,71,79150,1,10,0:2:0:0:
0,159,79332,2,0,P|32:237|54:305,1,155.999995239258,2|0,3:2|3:2,0:2:0:0:
69,320,79786,1,0,3:2:0:0:
69,320,79877,2,0,P|75:292|89:237,1,77.999997619629,10|0,0:2|3:2,0:0:0:0:
155,168,80241,6,0,P|181:151|238:155,1,77.999997619629,10|2,0:2|0:2,0:0:0:0:
277,61,80605,2,0,P|304:75|329:126,1,77.999997619629,10|2,0:2|0:2,0:0:0:0:
429,108,80968,2,0,P|430:139|398:186,1,77.999997619629,10|2,0:2|3:2,0:0:0:0:
436,281,81332,1,10,0:2:0:0:
436,281,81514,1,2,3:2:0:0:
360,348,81696,6,0,P|300:334|240:322,1,116.999996429443,10|0,0:2|0:0,0:2:0:0:
234,305,82059,2,0,P|192:320|155:331,1,77.999997619629,8|2,0:2|3:2,0:0:0:0:
73,375,82423,1,10,0:0:0:0:
73,375,82514,1,8,0:0:0:0:
73,375,82605,1,2,3:2:0:0:
2,302,82786,2,0,P|-3:266|19:229,1,77.999997619629,10|10,0:0|0:0,0:0:0:0:
28,215,83059,1,8,0:0:0:0:
28,215,83150,6,0,P|69:230|107:241,1,77.999997619629,6|0,3:2|0:0,0:0:0:0:
178,307,83514,2,0,P|219:291|257:281,1,77.999997619629,10|0,0:2|0:2,0:0:0:0:
331,218,83877,1,10,0:2:0:0:
331,218,84059,1,2,3:2:0:0:
418,278,84241,1,10,0:2:0:0:
418,278,84423,1,2,3:2:0:0:
490,207,84605,6,0,P|481:170|467:121,1,77.999997619629,10|2,0:2|0:2,0:2:0:0:
399,59,84968,1,10,0:2:0:0:
321,124,85150,2,0,B|235:109|274:71|172:53,1,155.999995239258,2|0,3:2|3:0,0:2:0:0:
174,44,85605,1,0,3:0:0:0:
174,44,85696,1,10,0:0:0:0:
98,111,85877,1,0,0:0:0:0:
0,82,86059,6,0,P|18:145|36:218,1,116.999996429443,10|0,0:0|0:0,0:0:0:0:
46,205,86423,1,10,0:0:0:0:
9,304,86605,1,2,3:2:0:0:
9,304,86696,1,2,3:2:0:0:
9,304,86786,2,0,P|52:300|95:326,1,77.999997619629,10|2,0:0|3:2,0:0:0:0:
160,380,87150,1,10,0:0:0:0:
238,316,87332,6,0,P|217:240|199:164,1,155.999995239258,6|0,3:2|3:0,0:0:0:0:
130,90,87877,1,10,0:0:0:0:
196,13,88059,2,0,P|259:14|305:62,1,116.999996429443,6|0,3:2|0:0,0:0:0:0:
318,59,88423,1,8,0:0:0:0:
276,151,88605,6,0,B|237:129|226:91|226:91|231:134|193:170,1,155.999995239258,14|0,0:0|0:0,0:0:0:0:
