osu file format v14

[General]
AudioFilename: audio.ogg
AudioLeadIn: 0
PreviewTime: 53696
Countdown: 0
SampleSet: Soft
StackLeniency: 0.7
Mode: 0
LetterboxInBreaks: 0
WidescreenStoryboard: 1

[Editor]
DistanceSpacing: 0.67
BeatDivisor: 4
GridSize: 4
TimelineZoom: 1

[Metadata]
Title:Himitsu Koigokoro (TV Size)
TitleUnicode:ヒミツ恋ゴコロ (TV Size)
Artist:CHiCO with HoneyWorks
ArtistUnicode:CHiCO with HoneyWorks
Creator:buddon
Version:Lovesick
Source:彼女、お借りします
Tags:rent a girlfriend kanokari i'd id like to borrow gf kanojo okarishimasu rent-a-girlfriend secret romance love second season 2 two op opening female vocals japanese pop jpop j-pop anime shiwakaze ryxliee
BeatmapID:3935209
BeatmapSetID:1908258

[Difficulty]
HPDrainRate:5.2
CircleSize:4
OverallDifficulty:8
ApproachRate:9
SliderMultiplier:1.6
SliderTickRate:1

[Events]
//Background and Video events
Video,-30,"video.mp4"
0,0,"ruka.png",0,0
//Break Periods
2,65714,70732
//Storyboard Layer 0 (Background)
//Storyboard Layer 1 (Fail)
//Storyboard Layer 2 (Pass)
//Storyboard Layer 3 (Foreground)
//Storyboard Layer 4 (Overlay)
//Storyboard Sound Samples

[TimingPoints]
1696,363.636363636364,4,2,1,60,1,0
1696,-125,4,2,1,60,0,0
13332,-100,4,2,1,70,0,0
19150,-117.647058823529,4,2,1,60,0,0
30786,-100,4,2,1,60,0,0
42423,-117.647058823529,4,2,1,70,0,0
54059,-86.9565217391304,4,2,1,80,0,1
65514,-86.9565217391304,4,2,1,80,0,0
71514,-142.857142857143,4,2,1,55,0,0
76786,-500,4,2,1,60,0,0
77332,-80,4,2,1,80,0,1
88605,-66.6666666666667,4,2,1,80,0,0
88968,-66.6666666666667,4,2,1,40,0,0

[Colours]
Combo1 : 177,164,240
Combo2 : 32,143,255
Combo3 : 102,216,253
Combo4 : 61,199,160
Combo5 : 228,148,206
Combo6 : 238,57,89

[HitObjects]
420,264,1332,5,2,0:2:0:0:
420,264,1514,1,2,0:2:0:0:
372,192,1696,6,0,P|332:264|352:312,1,128,6|2,3:2|0:2,0:0:0:0:
444,148,2423,2,0,P|372:108|324:128,1,128,6|2,3:2|0:2,0:0:0:0:
252,304,3150,6,0,P|288:295|332:286,1,64,6|2,3:2|0:2,0:0:0:0:
212,232,3514,1,2,0:2:0:0:
212,232,3696,1,2,0:2:0:0:
208,228,4241,2,0,P|172:219|128:210,1,64,8|0,0:3|0:2,0:0:0:0:
100,284,4605,6,0,P|60:212|80:164,1,128,6|0,3:2|0:2,0:0:0:0:
168,328,5332,2,0,P|96:368|48:348,1,128,6|2,3:2|0:2,0:0:0:0:
20,240,6059,5,6,3:2:0:0:
184,120,6423,1,2,0:2:0:0:
80,304,6786,1,2,0:2:0:0:
116,72,7150,1,2,0:2:0:0:
164,296,7514,6,0,P|200:287|244:278,1,64,6|0,3:2|0:2,0:0:0:0:
312,192,7877,1,2,3:2:0:0:
312,192,8059,1,2,0:2:0:0:
224,200,8241,1,2,3:2:0:0:
380,240,8423,2,0,P|396:192|388:164,1,64,2|0,0:2|3:2,0:0:0:0:
344,112,8786,1,2,0:2:0:0:
204,116,8968,6,0,P|240:107|284:98,1,64,2|0,3:2|0:2,0:0:0:0:
224,200,9332,1,2,3:2:0:0:
176,40,9514,2,0,B|142:45|128:76|128:76|105:50|69:58,1,128,2|2,0:2|0:0,0:0:0:0:
72,140,10059,1,2,3:2:0:0:
72,140,10241,1,2,0:2:0:0:
224,200,10423,6,0,P|230:168|238:137,1,64,6|0,3:2|0:2,0:0:0:0:
168,264,10786,1,10,0:2:0:0:
144,180,10968,1,8,0:2:0:0:
56,360,11150,1,10,0:2:0:0:
89,242,11332,1,10,0:2:0:0:
224,328,11514,1,10,0:2:0:0:
64,160,11696,1,14,0:2:0:0:
64,160,12059,5,10,0:2:0:0:
144,312,12241,1,10,0:2:0:0:
88,76,12423,1,10,0:2:0:0:
88,76,13332,6,0,P|127:84|165:94,1,80,6|0,3:2|0:2,0:0:0:0:
36,204,13696,2,0,P|20:136|48:108,1,80,10|0,0:2|0:2,0:0:0:0:
165,94,14059,1,10,0:2:0:0:
100,160,14241,1,0,3:2:0:0:
252,244,14423,1,8,0:2:0:0:
187,178,14605,1,0,3:2:0:0:
237,324,14786,6,0,P|276:324|309:303,1,80,10|2,0:2|0:2,0:0:0:0:
320,188,15150,1,10,0:2:0:0:
444,276,15332,2,0,P|405:276|372:255,1,80,2|10,3:2|0:2,0:0:0:0:
372,120,15696,1,2,3:2:0:0:
432,200,15877,1,10,0:2:0:0:
512,32,16059,1,2,3:2:0:0:
456,116,16241,6,0,P|412:44|332:48,1,160,10|10,0:2|0:2,0:0:0:0:
294,139,16786,1,0,3:2:0:0:
294,139,16877,1,0,3:2:0:0:
294,139,16968,2,0,P|332:127|371:119,1,80,10|2,0:2|3:2,0:0:0:0:
224,76,17332,1,10,0:2:0:0:
256,216,17514,6,0,B|173:237|193:152|108:174,1,160,6|0,3:2|3:2,0:0:0:0:
12,84,18059,1,8,0:2:0:0:
12,84,18241,2,0,P|24:123|32:162,1,80,4|2,3:2|0:2,0:0:0:0:
20,176,18514,1,2,0:2:0:0:
14,196,18605,1,8,0:2:0:0:
14,217,18696,1,8,0:2:0:0:
20,238,18786,2,0,P|40:239|59:245,3,40,8|8|4|4,0:2|0:3|0:3|0:3,0:0:0:0:
57,330,19150,6,0,P|98:318|142:309,1,68.0000012969971,6|0,3:2|0:2,0:0:0:0:
209,250,19514,2,0,P|176:240|142:233,1,68.0000012969971,2|0,3:2|0:2,0:0:0:0:
202,341,19877,2,0,P|234:332|268:325,1,68.0000012969971,2|0,3:2|0:2,0:0:0:0:
338,257,20241,2,0,P|305:247|300:169,1,102.000001945496,2|0,3:2|0:2,0:0:0:0:
272,175,20605,6,0,P|222:161|172:150,1,102.000001945496,2|0,3:2|0:2,0:0:0:0:
159,163,20968,1,2,3:2:0:0:
245,84,21150,2,0,P|278:74|312:67,1,68.0000012969971,2|0,0:2|3:2,0:0:0:0:
408,88,21514,1,2,0:2:0:0:
356,156,21696,1,2,3:2:0:0:
329,55,21877,1,2,0:2:0:0:
360,176,22059,5,2,3:2:0:0:
408,88,22241,2,0,P|452:136|432:184,1,102.000001945496,2|0,0:2|0:0,0:0:0:0:
444,188,22605,2,0,P|477:178|511:171,1,68.0000012969971,2|0,0:2|3:2,0:0:0:0:
454,264,22968,1,2,0:2:0:0:
366,212,23150,1,2,3:2:0:0:
394,328,23332,1,2,0:2:0:0:
358,196,23514,5,2,3:2:0:0:
322,283,23696,2,0,P|274:259|282:191,1,102.000001945496,2|0,0:2|0:0,0:0:0:0:
255,199,24059,1,2,0:2:0:0:
188,272,24241,2,0,P|181:238|171:206,1,68.0000012969971,2|2,3:2|0:2,0:0:0:0:
156,196,24514,1,2,0:2:0:0:
156,196,24605,2,0,P|112:188|84:220,1,68.0000012969971,2|0,0:2|0:2,0:0:0:0:
16,296,24968,6,0,P|57:284|101:275,1,68.0000012969971,6|0,3:2|0:2,0:0:0:0:
156,376,25332,2,0,P|123:366|89:359,1,68.0000012969971,2|0,3:2|0:2,0:0:0:0:
164,292,25695,2,0,P|196:283|230:276,1,68.0000012969971,2|0,3:2|0:2,0:0:0:0:
276,368,26059,2,0,P|292:324|348:312,1,102.000001945496,2|0,3:2|0:2,0:0:0:0:
356,296,26423,6,0,P|344:246|331:197,1,102.000001945496,2|0,3:2|0:2,0:0:0:0:
340,180,26786,1,2,3:2:0:0:
432,260,26968,2,0,P|432:220|460:184,1,68.0000012969971,2|0,0:2|3:2,0:0:0:0:
408,120,27332,1,2,0:2:0:0:
512,148,27514,1,2,3:2:0:0:
424,32,27696,1,2,0:2:0:0:
340,180,27877,6,0,P|333:146|323:113,1,68.0000012969971,2|0,3:2|0:2,0:0:0:0:
340,36,28241,1,2,3:2:0:0:
244,124,28423,1,8,0:3:0:0:
244,124,28514,1,8,0:3:0:0:
244,124,28605,2,0,P|244:84|272:48,1,68.0000012969971,4|0,0:3|0:2,0:0:0:0:
156,116,28968,1,10,0:2:0:0:
248,208,29150,6,0,B|191:215|191:215|177:230|177:230|113:237,1,136.000002593994,6|0,3:2|3:2,0:0:0:0:
44,308,29696,2,0,P|44:268|16:232,1,68.0000012969971,8|2,0:2|0:2,0:0:0:0:
80,384,30059,1,0,3:2:0:0:
102,379,30149,1,8,0:2:0:0:
124,375,30240,1,8,0:2:0:0:
147,370,30331,1,8,0:0:0:0:
169,366,30423,2,0,P|170:346|176:327,2,34.0000006484985,8|8|0,0:2|0:3|0:3,0:0:0:0:
200,168,30786,6,0,P|140:180|128:252,1,120,6|0,3:2|0:2,0:0:0:0:
136,240,31150,2,0,P|175:247|213:259,1,80,10|0,0:2|0:2,0:0:0:0:
356,180,31514,2,0,P|317:187|279:199,1,80,2|0,0:2|3:2,0:0:0:0:
428,228,31877,2,0,P|444:192|436:148,1,80,10|0,0:2|0:2,0:0:0:0:
316,100,32241,6,0,P|388:52|416:72,1,120,2|0,3:2|0:2,0:0:0:0:
404,80,32605,1,10,0:2:0:0:
468,8,32786,1,2,3:2:0:0:
468,8,32877,1,8,0:2:0:0:
468,8,32968,1,0,3:2:0:0:
352,12,33150,1,2,3:2:0:0:
488,92,33332,1,10,0:2:0:0:
296,80,33514,1,2,0:2:0:0:
440,168,33696,6,0,P|388:132|328:176,1,120,2|0,3:2|0:0,0:0:0:0:
344,172,34059,2,0,P|304:200|272:192,1,80,8|0,0:2|0:2,0:0:0:0:
212,96,34423,1,2,0:2:0:0:
212,248,34605,1,2,3:2:0:0:
128,88,34786,1,10,0:2:0:0:
256,176,34968,1,2,0:2:0:0:
128,272,35150,5,2,3:2:0:0:
128,272,35332,2,0,P|92:196|4:232,1,160,2|2,0:2|3:2,0:0:0:0:
12,192,35786,1,8,0:2:0:0:
12,192,35877,1,0,3:2:0:0:
172,164,36059,1,2,3:2:0:0:
84,340,36241,2,0,P|128:356|164:344,1,80,10|0,0:2|0:2,0:0:0:0:
264,208,36605,6,0,P|220:284|236:308,1,120,6|0,3:2|0:2,0:0:0:0:
248,300,36968,2,0,P|287:307|325:320,1,80,10|0,0:2|0:2,0:0:0:0:
424,224,37332,2,0,P|384:231|346:243,1,80,2|0,0:2|3:2,0:0:0:0:
496,272,37696,2,0,P|512:236|504:192,1,80,10|0,0:2|0:2,0:0:0:0:
332,148,38059,6,0,B|382:139|382:139|398:148|398:148|449:139,1,120,2|0,3:2|0:2,0:0:0:0:
456,124,38423,1,10,0:2:0:0:
424,224,38605,1,2,3:2:0:0:
400,64,38786,2,0,P|444:44|480:48,1,80,8|2,0:2|3:2,0:0:0:0:
488,32,39059,1,10,0:2:0:0:
488,32,39150,1,2,3:2:0:0:
340,8,39332,1,10,0:2:0:0:
340,8,39423,1,10,0:2:0:0:
340,8,39514,6,0,P|320:48|324:88,1,80,6|0,3:2|0:2,0:0:0:0:
368,200,39877,1,8,0:2:0:0:
252,132,40059,1,2,3:2:0:0:
252,132,40150,1,2,3:2:0:0:
252,132,40241,1,8,0:2:0:0:
400,64,40423,1,0,3:2:0:0:
364,220,40605,1,10,0:2:0:0:
260,44,40786,6,0,B|177:22|197:108|111:86,1,160,6|8,3:2|0:3,0:0:0:0:
92,196,41332,1,2,3:2:0:0:
84,170,41422,1,0,3:2:0:0:
64,152,41513,1,8,0:2:0:0:
40,144,41604,1,8,0:2:0:0:
16,152,41696,2,0,P|-4:196|12:248,1,80,10|0,0:2|3:2,0:0:0:0:
32,352,42059,2,0,P|40:300|112:288,1,120,10|0,0:2|0:2,0:0:0:0:
104,300,42423,6,0,P|137:306|169:318,1,68.0000012969971,6|0,3:2|0:2,0:0:0:0:
232,264,42786,1,2,3:2:0:0:
300,316,42968,2,0,P|320:244|300:208,1,102.000001945496,2|0,0:2|0:0,0:0:0:0:
320,204,43332,1,2,0:2:0:0:
404,276,43514,2,0,P|435:264|469:257,1,68.0000012969971,2|2,3:2|0:2,0:0:0:0:
484,268,43786,1,2,0:2:0:0:
488,272,43877,6,0,P|496:324|476:360,1,68.0000012969971,2|0,3:2|0:2,0:0:0:0:
420,380,44241,1,2,3:2:0:0:
344,340,44423,2,0,B|298:345|298:345|287:357|287:357|236:363,1,102.000001945496,2|0,0:2|0:0,0:0:0:0:
232,348,44786,1,2,0:2:0:0:
192,252,44968,2,0,P|225:258|256:270,1,68.0000012969971,2|0,3:2|0:2,0:0:0:0:
124,300,45332,6,0,P|108:236|132:188,1,102.000001945496,6|0,3:2|0:2,0:0:0:0:
108,188,45696,1,0,3:2:0:0:
8,124,46059,2,0,L|32:252,1,102.000001945496,2|0,3:2|0:2,0:0:0:0:
20,244,46423,1,2,3:2:0:0:
180,148,46786,5,2,3:2:0:0:
92,84,46968,2,0,P|184:104|188:144,1,136.000002593994,2|2,0:0|0:2,0:0:0:0:
8,124,47514,5,2,3:2:0:0:
13,0,47696,1,2,3:2:0:0:
10,108,47877,1,10,0:2:0:0:
20,24,48059,1,8,0:3:0:0:
20,24,48150,1,8,0:3:0:0:
20,24,48241,6,0,P|53:30|86:38,1,68.0000012969971,6|2,3:2|0:2,0:0:0:0:
148,100,48605,1,2,0:2:0:0:
236,8,48786,2,0,P|203:14|170:22,1,68.0000012969971,2|8,3:2|0:2,0:0:0:0:
232,124,49150,1,2,0:2:0:0:
316,32,49332,2,0,P|349:38|382:46,1,68.0000012969971,2|8,0:2|0:2,0:0:0:0:
400,40,49605,1,8,0:2:0:0:
400,40,49696,5,2,3:2:0:0:
368,176,49877,1,10,0:2:0:0:
436,120,50059,1,2,0:2:0:0:
308,112,50241,2,0,P|260:120|240:144,1,68.0000012969971,2|8,3:2|0:2,0:0:0:0:
188,232,50605,1,2,3:2:0:0:
188,232,50786,2,0,P|181:198|169:167,1,68.0000012969971,10|0,0:2|3:2,0:0:0:0:
156,160,51059,1,0,3:2:0:0:
156,160,51150,6,0,P|108:164|80:196,1,68.0000012969971,6|2,3:2|0:2,0:0:0:0:
108,260,51514,1,10,0:2:0:0:
12,176,51696,1,8,0:3:0:0:
12,176,51786,1,8,0:3:0:0:
12,176,51877,2,0,P|24:124|48:104,1,68.0000012969971,4|0,0:3|0:2,0:0:0:0:
156,76,52241,2,0,P|124:64|90:57,1,68.0000012969971,10|2,0:2|0:2,0:0:0:0:
156,160,52605,5,8,0:2:0:0:
224,24,52786,1,10,0:2:0:0:
236,116,52968,1,8,0:2:0:0:
28,8,53150,5,10,0:2:0:0:
28,8,54059,6,0,P|38:49|48:101,1,92.0000017547608,6|0,3:2|0:2,0:0:0:0:
96,240,54423,2,0,P|104:194|115:150,1,92.0000017547608,10|0,0:2|0:2,0:0:0:0:
196,76,54786,1,10,0:2:0:0:
47,97,54968,1,0,3:2:0:0:
256,136,55150,2,0,P|280:92|276:52,1,92.0000017547608,10|0,0:2|3:2,0:0:0:0:
292,36,55423,1,0,3:2:0:0:
292,36,55514,5,10,0:2:0:0:
328,184,55696,1,2,0:2:0:0:
372,20,55877,1,10,0:2:0:0:
324,200,56059,2,0,P|368:188|413:181,1,92.0000017547608,2|8,3:2|0:2,0:0:0:0:
256,136,56423,1,0,3:2:0:0:
292,284,56605,1,10,0:2:0:0:
224,224,56786,1,2,3:2:0:0:
376,272,56968,5,10,0:2:0:0:
208,308,57150,1,2,0:2:0:0:
252,116,57332,1,10,0:2:0:0:
292,284,57514,1,2,0:2:0:0:
84,156,57696,1,10,0:2:0:0:
252,116,57878,1,2,3:2:0:0:
213,332,58059,1,10,0:2:0:0:
173,164,58241,1,2,3:2:0:0:
61,300,58423,6,0,B|160:326|136:223|239:249,1,184.000003509522,10|8,0:2|0:2,0:0:0:0:
65,136,58968,1,0,3:2:0:0:
65,136,59059,1,0,3:2:0:0:
65,136,59150,2,0,P|76:180|83:225,1,92.0000017547608,8|0,0:2|3:2,0:0:0:0:
136,84,59514,1,10,0:2:0:0:
263,182,59696,1,10,0:2:0:0:
263,182,59787,1,10,0:2:0:0:
263,182,59878,6,0,P|219:171|174:164,1,92.0000017547608,6|0,3:2|0:2,0:0:0:0:
340,112,60241,1,10,0:2:0:0:
296,288,60423,1,2,0:2:0:0:
252,92,60605,1,10,0:2:0:0:
300,308,60786,2,0,P|344:297|389:290,1,92.0000017547608,2|8,3:2|0:2,0:0:0:0:
392,184,61150,1,2,3:2:0:0:
464,324,61332,6,0,P|464:248|428:220,1,92.0000017547608,10|0,0:2|0:2,0:0:0:0:
432,112,61696,1,10,0:2:0:0:
390,289,61877,2,0,B|330:277|330:277|312:288|312:288|247:276,1,138.000002632141,2|0,3:2|0:0,0:0:0:0:
244,292,62241,1,0,3:2:0:0:
180,140,62423,1,10,0:2:0:0:
272,196,62605,1,2,3:2:0:0:
116,268,62786,6,0,B|100:176|100:176|107:214|152:232,1,138.000002632141,10|0,0:2|0:0,0:0:0:0:
143,210,63150,2,0,P|184:168|157:117,1,92.0000017547608,10|0,0:2|3:2,0:0:0:0:
196,124,63423,1,0,3:2:0:0:
196,124,63514,1,10,0:2:0:0:
28,144,63696,1,2,3:2:0:0:
132,60,63877,1,10,0:2:0:0:
168,292,64059,6,0,B|69:318|93:215|-10:241,1,184.000003509522,6|0,3:2|3:2,0:0:0:0:
143,210,64605,1,8,0:2:0:0:
244,368,64786,2,0,P|254:299|272:233,1,138.000002632141,4|0,3:2|0:2,0:0:0:0:
292,224,65150,5,8,0:2:0:0:
168,292,65332,1,8,0:2:0:0:
328,144,65514,1,8,0:2:0:0:
24,328,71332,5,2,0:2:0:0:
24,328,71423,1,2,0:2:0:0:
24,328,71514,6,0,P|44:288|112:296,1,111.999996582031,2|2,0:2|0:2,0:0:0:0:
216,216,72241,1,2,0:2:0:0:
216,216,72423,2,0,P|188:222|161:229,1,55.9999982910157,2|0,0:2|0:2,0:0:0:0:
192,316,72786,1,2,0:2:0:0:
192,316,72968,6,0,P|220:322|247:329,1,55.9999982910157,2|0,0:2|0:2,0:0:0:0:
292,256,73332,1,2,0:2:0:0:
364,332,73514,2,0,L|384:208,1,111.999996582031,2|0,0:2|0:2,0:0:0:0:
292,256,74059,1,2,0:2:0:0:
292,256,74241,1,2,0:2:0:0:
352,148,74423,6,0,P|428:152|456:196,2,111.999996582031,2|2|2,0:2|0:2|0:2,0:0:0:0:
340,64,75332,1,2,0:2:0:0:
268,156,75514,1,2,0:2:0:0:
352,148,75696,1,2,0:2:0:0:
352,148,76786,6,0,L|360:192,1,40,2|0,0:2|0:2,0:0:0:0:
352,204,77332,6,0,P|276:192|260:148,1,100,6|0,3:2|0:2,0:0:0:0:
264,0,77696,2,0,P|276:48|283:97,1,100,10|0,0:2|0:2,0:0:0:0:
124,172,78059,2,0,P|164:132|213:125,1,100,10|0,0:2|3:2,0:0:0:0:
216,304,78423,2,0,P|210:254|197:206,1,100,10|0,0:2|3:2,0:0:0:0:
104,72,78786,5,10,0:2:0:0:
72,272,78968,1,2,0:2:0:0:
205,124,79150,1,10,0:2:0:0:
8,220,79332,2,0,P|-12:280|8:324,1,100,2|8,3:2|0:2,0:0:0:0:
169,253,79696,1,0,3:2:0:0:
169,253,79786,1,0,3:2:0:0:
169,253,79877,2,0,P|119:258|71:271,1,100,10|0,0:2|3:2,0:0:0:0:
240,308,80241,5,10,0:2:0:0:
205,124,80423,1,2,0:2:0:0:
432,164,80605,1,10,0:2:0:0:
248,199,80787,1,2,0:2:0:0:
352,48,80968,1,10,0:2:0:0:
387,232,81150,1,2,3:2:0:0:
244,48,81332,1,10,0:2:0:0:
428,13,81514,1,2,3:2:0:0:
248,199,81696,6,0,B|149:224|175:111|66:139,1,200,10|8,0:2|0:2,0:0:0:0:
92,304,82241,1,2,3:2:0:0:
88,284,82332,1,2,3:2:0:0:
84,263,82423,2,0,P|86:238|93:214,2,50,10|8|2,3:2|3:2|3:2,3:2:0:0:
208,384,82786,1,10,0:0:0:0:
188,380,82877,1,8,0:0:0:0:
168,376,82968,2,0,P|143:378|119:385,1,50,10|8,0:0|0:0,0:0:0:0:
176,296,83150,6,0,P|228:284|252:240,1,100,6|0,3:2|0:0,0:0:0:0:
156,120,83514,2,0,P|170:168|174:217,1,100,10|0,0:2|0:2,0:0:0:0:
220,60,83877,1,10,0:2:0:0:
80,176,84059,1,2,3:2:0:0:
255,244,84241,1,10,0:2:0:0:
220,60,84423,1,2,3:2:0:0:
60,296,84605,5,10,0:2:0:0:
24,80,84786,1,2,0:2:0:0:
268,260,84968,1,10,0:2:0:0:
228,40,85150,2,0,P|316:52|332:96,1,100,2|8,3:2|0:2,0:0:0:0:
196,212,85514,1,0,3:0:0:0:
196,212,85605,1,0,3:0:0:0:
196,212,85695,2,0,P|191:162|178:114,1,100,10|0,0:0|0:0,0:0:0:0:
144,280,86059,6,0,P|240:288|276:248,1,150,10|0,0:0|0:0,0:0:0:0:
292,248,86423,1,10,0:0:0:0:
232,384,86605,1,2,3:2:0:0:
232,384,86696,1,2,3:2:0:0:
232,384,86786,1,10,0:0:0:0:
196,212,86968,1,2,3:2:0:0:
368,284,87150,1,10,0:0:0:0:
134,344,87332,6,0,B|112:217|112:217|121:270|165:294,1,200,6|0,3:2|3:0,0:0:0:0:
224,360,87877,1,10,0:0:0:0:
309,176,88059,2,0,P|249:128|201:221,1,200,6|8,3:2|0:0,0:0:0:0:
327,260,88605,6,0,B|391:240|395:172|395:172|439:220|507:192,1,240.000009155274,14|0,0:0|0:0,0:0:0:0:
