osu file format v14

[General]
AudioFilename: audio.mp3
AudioLeadIn: 0
PreviewTime: 53657
Countdown: 0
SampleSet: Soft
StackLeniency: 0.7
Mode: 0
LetterboxInBreaks: 0
WidescreenStoryboard: 1

[Editor]
DistanceSpacing: 1
BeatDivisor: 4
GridSize: 4
TimelineZoom: 1

[Metadata]
Title:Himitsu Koigokoro (TV Size)
TitleUnicode:ヒミツ恋ゴコロ (TV Size)
Artist:CHiCO with HoneyWorks
ArtistUnicode:CHiCO with HoneyWorks
Creator:Zekk
Version:Normal
Source:彼女、お借りします
Tags:rent a girlfriend kanokari i'd id like to borrow a girlfriend second season 2 two op opening kanojo okarishimasu jpop japanese pop j-pop anime secret romance
BeatmapID:3688762
BeatmapSetID:1799410

[Difficulty]
HPDrainRate:3
CircleSize:3.5
OverallDifficulty:4.5
ApproachRate:5.5
SliderMultiplier:1
SliderTickRate:1

[Events]
//Background and Video events
0,0,"dfgdfghdghfghjfhj.jpg",0,0
//Break Periods
2,65766,70441
//Storyboard Layer 0 (Background)
//Storyboard Layer 1 (Fail)
//Storyboard Layer 2 (Pass)
//Storyboard Layer 3 (Foreground)
//Storyboard Layer 4 (Overlay)
//Storyboard Sound Samples

[TimingPoints]
1748,363.636363636364,4,2,1,70,1,0
1748,-100,4,2,1,70,0,0
7566,-100,4,2,1,65,0,0
13384,-100,4,2,1,70,0,0
19202,-100,4,2,1,60,0,0
30838,-100,4,2,1,65,0,0
42475,-100,4,2,1,60,0,0
54111,-100,4,2,1,80,0,1
65748,-100,4,2,1,40,0,0
71566,-100,4,2,1,50,0,0
77020,-100,4,2,1,80,0,0
77384,-100,4,2,1,90,0,1
88657,-100,4,2,1,90,0,0

[Colours]
Combo1 : 255,188,64
Combo2 : 253,53,138

[HitObjects]
28,133,1748,6,0,P|81:127|196:27,1,200,6|6,1:2|1:2,0:0:0:0:
328,182,3202,2,0,B|434:203|414:245|522:255,1,200,6|4,1:2|1:2,0:0:0:0:
318,301,4657,2,0,P|214:325|137:377,1,200,6|6,1:2|1:2,0:0:0:0:
16,217,6111,2,0,P|132:182|127:75,1,200,6|6,1:2|1:2,0:0:0:0:
53,77,7202,1,2,0:0:0:0:
135,20,7566,6,0,P|181:52|258:61,1,100,6|2,1:2|1:2,0:0:0:0:
320,38,8293,1,2,1:2:0:0:
320,38,8475,2,0,P|362:35|417:89,1,100,2|2,2:2|2:2,0:0:0:0:
432,110,9020,1,2,1:2:0:0:
382,198,9384,1,2,1:2:0:0:
382,198,9566,2,0,P|355:238|356:316,1,100,2|0,2:2|2:2,0:0:0:0:
320,332,10111,1,2,1:2:0:0:
222,353,10475,6,0,P|173:337|98:322,1,100,6|10,1:2|0:2,0:0:0:0:
75,321,11020,1,8,2:2:0:0:
75,321,11202,2,0,L|56:262,1,50,10|10,0:2|2:2,0:0:0:0:
37,228,11566,1,10,1:2:0:0:
37,228,11748,1,6,1:2:0:0:
112,162,12111,1,10,2:2:0:0:
160,151,12293,1,10,2:2:0:0:
208,140,12475,1,10,2:2:0:0:
423,12,13384,6,0,P|398:46|388:126,1,100,6|8,1:2|0:0,0:0:0:0:
420,137,13929,1,0,1:0:0:0:
420,137,14111,1,8,0:0:0:0:
462,227,14475,1,8,0:0:0:0:
387,293,14838,2,0,L|326:278,1,50,8|0,0:0|1:0,0:0:0:0:
298,250,15202,1,8,0:0:0:0:
298,250,15384,2,0,P|244:278|181:288,1,100,0|0,1:0|1:0,0:0:0:0:
161,310,15929,1,8,0:0:0:0:
71,354,16293,6,0,P|23:324|19:267,1,100,8|8,0:0|0:0,0:0:0:0:
48,247,16838,1,0,1:0:0:0:
48,247,17020,2,0,L|103:231,1,50,8|0,0:0|1:0,0:0:0:0:
137,204,17384,1,8,0:0:0:0:
137,204,17566,1,4,1:2:0:0:
220,148,17929,2,0,L|281:161,1,50,0|8,1:0|0:0,0:0:0:0:
316,173,18293,1,4,1:2:0:0:
506,11,19202,6,0,P|460:40|402:40,1,100,4|2,1:2|1:2,0:0:0:0:
330,95,19929,1,2,1:2:0:0:
254,29,20293,1,2,1:2:0:0:
186,103,20657,2,0,P|161:136|160:203,1,100,2|2,1:2|1:2,0:0:0:0:
176,238,21202,2,0,P|211:262|296:258,1,100,2|2,0:0|0:0,0:0:0:0:
315,254,21748,1,2,1:2:0:0:
274,347,22111,5,2,1:2:0:0:
274,347,22293,2,0,P|233:379|173:367,1,100,2|0,2:2|2:2,0:0:0:0:
138,364,22838,1,0,1:1:0:0:
61,299,23202,1,2,1:2:0:0:
106,211,23566,1,2,1:2:0:0:
106,211,23748,2,0,P|154:232|222:241,1,100,2|2,2:2|2:2,0:0:0:0:
250,239,24293,1,2,1:2:0:0:
318,165,24657,1,2,1:2:0:0:
414,191,25020,6,0,P|459:186|503:138,1,100,6|2,1:2|1:2,0:0:0:0:
472,52,25748,2,0,P|417:40|366:14,1,100,2|2,1:2|1:2,0:0:0:0:
278,23,26475,2,0,P|257:66|261:122,1,100,2|2,1:2|1:2,0:0:0:0:
302,141,27020,2,0,P|307:191|253:220,1,100,2|2,0:0|0:0,0:0:0:0:
222,208,27566,2,0,L|132:191,1,50,2|0,1:2|3:2,0:0:0:0:
133,167,27929,6,0,P|91:178|61:256,1,100,2|10,1:2|2:2,0:0:0:0:
87,311,28657,2,0,P|140:323|205:356,1,100,2|10,1:2|2:2,0:0:0:0:
231,341,29202,1,6,1:2:0:0:
318,293,29566,1,0,1:1:0:0:
318,293,29748,1,8,2:2:0:0:
401,348,30111,2,0,P|451:343|491:297,1,100,0|8,1:1|2:2,0:0:0:0:
460,212,30838,6,0,P|410:197|362:170,1,100,6|10,1:2|2:2,0:0:0:0:
332,138,31384,1,8,0:0:0:0:
332,138,31566,2,0,P|286:145|247:201,1,100,2|8,1:2|2:2,0:0:0:0:
198,268,32293,2,0,P|149:251|77:237,1,100,2|10,1:2|2:2,0:0:0:0:
69,202,32838,1,2,0:2:0:0:
33,108,33202,2,0,L|54:21,2,50,2|10|2,1:2|2:2|2:2,0:0:0:0:
81,120,33748,5,2,1:2:0:0:
81,120,33929,2,0,P|137:115|183:32,1,150,2|0,0:2|1:2,0:0:0:0:
275,79,34838,1,10,2:2:0:0:
358,24,35202,1,2,1:2:0:0:
358,24,35384,2,0,P|397:51|455:57,1,100,2|2,2:2|1:2,0:0:0:0:
473,100,35929,1,2,1:2:0:0:
510,192,36293,1,10,2:2:0:0:
422,239,36657,6,0,P|381:218|306:203,1,100,6|10,1:2|2:2,0:0:0:0:
283,183,37202,1,0,1:1:0:0:
283,183,37384,2,0,P|225:188|194:235,1,100,2|8,1:2|2:2,0:0:0:0:
118,276,38111,2,0,P|157:294|218:334,1,100,2|10,1:2|2:2,0:0:0:0:
251,343,38657,1,0,1:0:0:0:
251,343,38838,1,10,1:2:0:0:
349,362,39202,1,10,2:2:0:0:
425,297,39566,6,0,L|442:224,1,50,2|2,1:2|1:2,0:0:0:0:
454,202,39929,1,10,2:2:0:0:
382,131,40293,2,0,L|301:151,1,50,2|0,1:2|1:2,0:0:0:0:
291,170,40657,1,10,2:2:0:0:
291,170,40838,2,0,P|241:169|188:124,1,100,6|2,1:2|2:2,0:0:0:0:
186,93,41384,1,10,2:2:0:0:
88,72,41748,1,10,2:2:0:0:
38,158,42111,1,8,2:2:0:0:
101,235,42475,6,0,P|95:288|74:337,1,100,6|2,1:2|1:2,0:0:0:0:
170,369,43202,1,0,1:2:0:0:
249,308,43566,1,2,1:2:0:0:
344,336,43929,2,0,P|391:338|447:288,1,100,2|2,1:2|1:2,0:0:0:0:
461,213,44657,1,0,1:2:0:0:
382,151,45020,1,2,1:2:0:0:
296,203,45384,6,0,P|246:181|188:169,1,100,2|0,1:2|1:2,0:0:0:0:
108,207,46111,2,0,P|16:172|31:56,1,200,2|2,1:2|1:2,0:0:0:0:
99,35,47202,1,2,1:2:0:0:
99,35,47384,2,0,P|175:43|266:108,1,150,2|10,2:2|2:2,0:0:0:0:
329,36,48293,6,0,P|382:40|426:-14,1,100,6|2,1:2|0:2,0:0:0:0:
462,32,48838,1,2,1:2:0:0:
462,32,49020,2,0,P|496:69|496:128,1,100,8|2,0:0|2:2,0:0:0:0:
428,187,49748,2,0,P|378:176|326:145,1,100,2|2,1:2|0:0,0:0:0:0:
288,134,50293,1,2,1:2:0:0:
288,134,50475,2,0,P|252:166|194:160,1,100,8|10,2:2|2:2,0:0:0:0:
105,138,51202,6,0,P|91:185|65:237,1,100,6|10,1:2|2:2,0:0:0:0:
104,265,51748,1,2,1:2:0:0:
104,265,51929,2,0,L|165:251,1,50,2|2,1:2|1:2,0:0:0:0:
201,265,52293,1,10,2:2:0:0:
283,322,52657,2,0,L|305:253,1,50,10|10,2:2|2:2,0:0:0:0:
317,228,53020,1,10,2:2:0:0:
301,180,53202,1,10,2:2:0:0:
501,31,54111,6,0,P|457:64|396:68,1,100,6|10,1:2|2:2,0:0:0:0:
370,96,54657,1,0,1:1:0:0:
370,96,54838,2,0,P|311:90|263:41,1,100,10|10,2:2|2:2,0:0:0:0:
193,13,55566,2,0,L|128:34,1,50,10|0,2:2|1:1,0:0:0:0:
96,37,55929,1,10,2:2:0:0:
96,37,56111,2,0,P|70:74|79:151,1,100,2|0,1:2|1:1,0:0:0:0:
57,176,56657,1,10,2:2:0:0:
145,222,57020,6,0,P|199:199|245:187,1,100,10|10,2:2|2:2,0:0:0:0:
280,159,57566,1,2,1:2:0:0:
280,159,57748,1,10,2:2:0:0:
378,141,58111,2,0,L|445:177,1,50,10|2,2:2|1:2,0:0:0:0:
454,203,58475,2,0,P|450:246|416:301,1,100,10|10,2:2|2:2,0:0:0:0:
338,350,59202,1,8,2:2:0:0:
338,350,59384,1,0,1:1:0:0:
338,350,59566,1,10,2:2:0:0:
251,300,59929,6,0,P|208:327|118:343,1,100,14|10,2:2|2:2,0:0:0:0:
60,338,60657,1,10,2:2:0:0:
60,338,60838,2,0,P|16:310|21:230,1,100,2|2,1:2|1:2,0:0:0:0:
42,232,61384,2,0,L|59:163,1,50,10|0,2:2|1:1,0:0:0:0:
74,137,61748,1,10,2:2:0:0:
74,137,61929,2,0,P|112:163|176:172,1,100,2|0,1:2|1:1,0:0:0:0:
211,189,62475,1,10,2:2:0:0:
288,125,62838,6,0,P|320:91|389:96,1,100,8|10,2:2|2:2,0:0:0:0:
468,62,63566,2,0,L|488:127,1,50,10|2,2:2|1:2,0:0:0:0:
460,156,63929,1,10,2:2:0:0:
460,156,64111,2,0,P|452:191|443:265,1,100,6|0,1:2|1:1,0:0:0:0:
472,302,64657,1,8,2:2:0:0:
472,302,64838,1,4,1:2:0:0:
377,333,65202,1,8,2:2:0:0:
328,321,65384,1,10,2:2:0:0:
279,310,65566,1,10,2:2:0:0:
256,192,71566,12,2,75748,2:2:0:0:
0,78,77384,6,0,P|49:67|104:32,1,100,14|10,2:2|2:2,0:0:0:0:
134,15,77929,1,0,1:1:0:0:
134,15,78111,2,0,P|205:28|238:84,1,100,10|10,2:2|2:2,0:0:0:0:
248,89,78657,1,0,1:1:0:0:
248,89,78838,1,10,2:2:0:0:
337,132,79202,1,10,2:2:0:0:
430,96,79566,1,8,2:2:0:0:
430,96,79748,1,0,1:1:0:0:
430,96,79929,1,10,2:2:0:0:
478,183,80293,6,0,P|459:234|448:303,1,100,10|10,2:2|2:2,0:0:0:0:
411,310,80838,1,2,1:2:0:0:
411,310,81020,2,0,P|366:337|293:332,1,100,10|10,2:2|2:2,0:0:0:0:
273,320,81566,1,2,1:2:0:0:
273,320,81748,1,10,2:2:0:0:
177,347,82111,1,8,2:2:0:0:
102,280,82475,1,8,2:2:0:0:
154,195,82838,2,0,L|230:212,1,50,10|10,2:2|1:2,0:0:0:0:
245,233,83202,6,0,P|278:215|355:209,1,100,14|10,2:2|2:2,0:0:0:0:
432,241,83929,2,0,L|474:207,1,50,10|2,2:2|1:2,0:0:0:0:
498,171,84293,1,10,2:2:0:0:
498,171,84475,1,2,1:2:0:0:
498,171,84657,2,0,P|493:120|509:61,1,100,10|10,2:2|2:2,0:0:0:0:
468,37,85202,2,0,P|431:79|366:75,1,100,2|0,1:2|1:1,0:0:0:0:
341,68,85748,1,10,2:2:0:0:
248,105,86111,6,0,P|189:86|116:84,1,100,14|10,2:2|2:2,0:0:0:0:
109,106,86657,1,2,1:2:0:0:
109,106,86838,2,0,P|96:168|161:201,1,100,10|10,2:2|2:2,0:0:0:0:
153,227,87384,1,4,1:2:0:0:
247,260,87748,1,0,1:1:0:0:
295,248,87929,1,8,2:2:0:0:
344,237,88111,2,0,P|386:243|450:280,1,100,4|8,1:2|2:2,0:0:0:0:
466,309,88657,1,8,2:2:0:0:
