osu file format v14

[General]
AudioFilename: audio.mp3
AudioLeadIn: 0
PreviewTime: 53657
Countdown: 0
SampleSet: Soft
StackLeniency: 0.7
Mode: 0
LetterboxInBreaks: 0
WidescreenStoryboard: 1

[Editor]
DistanceSpacing: 1
BeatDivisor: 2
GridSize: 4
TimelineZoom: 1

[Metadata]
Title:Himitsu Koigokoro (TV Size)
TitleUnicode:ヒミツ恋ゴコロ (TV Size)
Artist:CHiCO with HoneyWorks
ArtistUnicode:CHiCO with HoneyWorks
Creator:Zekk
Version:Hard
Source:彼女、お借りします
Tags:rent a girlfriend kanokari i'd id like to borrow a girlfriend second season 2 two op opening kanojo okarishimasu jpop japanese pop j-pop anime secret romance
BeatmapID:3688761
BeatmapSetID:1799410

[Difficulty]
HPDrainRate:4
CircleSize:3.8
OverallDifficulty:6.5
ApproachRate:8
SliderMultiplier:1.4
SliderTickRate:1

[Events]
//Background and Video events
0,0,"dfgdfghdghfghjfhj.jpg",0,0
//Break Periods
2,65948,70816
//Storyboard Layer 0 (Background)
//Storyboard Layer 1 (Fail)
//Storyboard Layer 2 (Pass)
//Storyboard Layer 3 (Foreground)
//Storyboard Layer 4 (Overlay)
//Storyboard Sound Samples

[TimingPoints]
1748,363.636363636364,4,2,1,70,1,0
1748,-111.111111111111,4,2,1,70,0,0
7566,-111.111111111111,4,2,1,65,0,0
13384,-100,4,2,1,70,0,0
19202,-111.111111111111,4,2,1,60,0,0
30838,-111.111111111111,4,2,1,65,0,0
42475,-117.647058823529,4,2,1,60,0,0
54111,-100,4,2,1,80,0,1
65748,-125,4,2,1,40,0,0
71566,-117.647058823529,4,2,1,50,0,0
77020,-117.647058823529,4,2,1,80,0,0
77384,-100,4,2,1,90,0,1
88657,-90.9090909090909,4,2,1,90,0,0

[Colours]
Combo1 : 255,188,64
Combo2 : 253,53,138

[HitObjects]
432,164,1748,6,0,P|342:152|187:78,1,251.999992309571,6|6,1:2|1:2,0:0:0:0:
20,244,3202,2,0,B|49:334|249:466|315:235|139:239|112:306,1,377.999988464356,6|4,1:2|0:3,0:0:0:0:
217,373,4657,6,0,B|235:245|314:302|320:141,1,251.999992309571,6|6,1:2|1:2,0:0:0:0:
112,7,6111,2,0,P|146:64|155:249,1,251.999992309571,6|6,1:2|1:2,0:0:0:0:
258,318,7202,1,2,0:0:0:0:
372,265,7566,6,0,P|406:257|457:253,1,62.9999980773926,6|0,1:2|2:2,0:0:0:0:
493,197,7929,2,0,P|496:165|472:133,1,62.9999980773926,2|2,1:2|2:2,0:0:0:0:
416,78,8293,1,2,1:2:0:0:
338,110,8475,2,0,P|287:102|202:64,1,125.999996154785,2|2,2:2|2:2,0:0:0:0:
117,4,9020,6,0,P|129:31|133:68,1,62.9999980773926,2|0,1:2|2:2,0:0:0:0:
62,123,9384,1,2,1:2:0:0:
129,174,9566,2,0,B|160:236|129:252|152:320,1,125.999996154785,2|0,2:2|2:2,0:0:0:0:
61,357,10111,2,0,P|103:365|144:390,1,62.9999980773926,2|2,1:2|2:2,0:0:0:0:
227,380,10475,6,0,P|279:381|347:319,1,125.999996154785,6|10,1:2|0:2,0:0:0:0:
406,288,11020,1,8,2:2:0:0:
337,238,11202,1,10,0:2:0:0:
311,158,11384,1,10,2:2:0:0:
317,74,11566,1,10,1:2:0:0:
382,18,11748,1,6,1:2:0:0:
382,18,12111,5,10,2:2:0:0:
466,63,12293,1,10,2:2:0:0:
402,126,12475,1,10,2:2:0:0:
402,126,13384,6,0,P|368:122|308:106,1,70,6|0,1:2|0:0,0:0:0:0:
251,150,13748,2,0,P|224:183|218:285,1,140,8|8,0:0|0:0,0:0:0:0:
298,321,14293,1,0,1:0:0:0:
222,372,14475,2,0,P|185:369|151:352,1,70,8|0,0:0|1:0,0:0:0:0:
76,363,14838,6,0,P|100:337|115:287,1,70,8|0,0:0|1:0,0:0:0:0:
58,234,15202,1,8,0:0:0:0:
121,168,15384,2,0,P|94:95|109:21,1,140,0|0,1:0|1:0,0:0:0:0:
188,76,15929,2,0,P|217:87|259:99,1,70,8|0,0:0|1:0,0:0:0:0:
329,39,16293,5,8,0:0:0:0:
403,67,16475,1,0,1:0:0:0:
473,16,16657,2,0,P|495:51|496:165,1,140,8|8,0:0|0:0,0:0:0:0:
425,198,17202,2,0,P|410:229|405:264,1,70,0|8,1:0|0:0,0:0:0:0:
487,305,17566,2,0,P|424:311|358:361,1,140,4|0,1:2|1:0,0:0:0:0:
270,380,18111,1,8,0:0:0:0:
292,291,18293,1,4,1:2:0:0:
155,321,18657,1,8,0:0:0:0:
155,321,18748,1,8,0:0:0:0:
155,321,18838,2,0,L|104:312,3,35,8|8|0|0,0:0|0:3|1:0|1:0,0:0:0:0:
76,288,19202,6,0,P|88:258|103:203,1,62.9999980773926,4|0,1:2|0:0,0:0:0:0:
103,146,19566,2,0,P|91:108|81:71,1,62.9999980773926,2|0,1:2|2:2,0:0:0:0:
147,22,19929,2,0,P|178:52|268:70,1,125.999996154785,2|2,1:2|1:2,0:0:0:0:
373,47,20657,2,0,P|376:106|339:178,1,125.999996154785,2|2,1:2|1:2,0:0:0:0:
418,211,21202,2,0,P|367:243|283:244,1,125.999996154785,2|2,2:2|2:2,0:0:0:0:
240,296,21748,2,0,P|211:281|182:246,1,62.9999980773926,2|2,1:2|2:2,0:0:0:0:
188,173,22111,5,2,1:2:0:0:
111,213,22293,2,0,P|83:258|74:349,1,125.999996154785,2|0,2:2|2:2,0:0:0:0:
158,360,22838,2,0,P|190:372|229:372,1,62.9999980773926,0|2,1:1|2:2,0:0:0:0:
297,375,23202,2,0,P|326:358|346:323,1,62.9999980773926,2|2,1:2|2:2,0:0:0:0:
338,240,23566,5,2,1:2:0:0:
426,268,23748,2,0,P|476:247|487:164,1,125.999996154785,2|2,2:2|2:2,0:0:0:0:
428,130,24293,2,0,P|433:99|449:64,1,62.9999980773926,2|2,1:2|2:2,0:0:0:0:
445,70,24566,1,0,2:2:0:0:
445,70,24657,1,2,1:2:0:0:
327,27,25020,6,0,L|194:55,1,125.999996154785,6|2,1:2|1:2,0:0:0:0:
129,22,25566,1,0,2:2:0:0:
82,83,25748,2,0,P|95:127|119:159,1,62.9999980773926,2|0,1:2|2:2,0:0:0:0:
71,212,26111,2,0,P|102:231|141:240,1,62.9999980773926,2|0,1:2|2:2,0:0:0:0:
210,282,26475,6,0,P|243:241|329:229,1,125.999996154785,2|2,1:2|1:2,0:0:0:0:
383,172,27020,2,0,P|458:202|478:267,1,125.999996154785,6|2,2:2|2:2,0:0:0:0:
506,314,27566,2,0,P|488:341|460:366,1,62.9999980773926,2|0,1:2|0:2,0:0:0:0:
366,379,27929,5,2,1:2:0:0:
366,379,28111,1,0,2:2:0:0:
301,307,28293,2,0,P|305:271|313:245,1,62.9999980773926,10|8,2:2|1:3,0:0:0:0:
320,204,28566,1,8,0:3:0:0:
320,204,28657,2,0,P|279:196|240:176,1,62.9999980773926,2|0,1:2|1:2,0:0:0:0:
206,117,29020,1,10,2:2:0:0:
117,154,29202,6,0,P|136:194|143:275,1,125.999996154785,6|0,1:2|1:1,0:0:0:0:
130,362,29748,2,0,P|163:367|219:387,1,62.9999980773926,8|2,2:2|2:2,0:0:0:0:
282,372,30111,1,0,1:1:0:0:
282,372,30202,1,0,0:0:0:0:
282,372,30293,2,0,L|295:320,4,31.4999990386963,8|8|8|8|8,2:2|2:2|2:2|2:2|2:3,0:0:0:0:
372,348,30838,6,0,P|421:323|439:235,1,125.999996154785,6|10,1:2|2:2,0:0:0:0:
369,210,31384,1,8,0:0:0:0:
369,210,31475,1,8,0:0:0:0:
369,210,31566,2,0,P|357:183|353:132,1,62.9999980773926,2|0,1:2|1:1,0:0:0:0:
422,104,31929,2,0,P|432:78|430:30,1,62.9999980773926,8|0,2:2|0:0,0:0:0:0:
345,6,32293,6,0,P|283:58|224:63,1,125.999996154785,2|10,1:2|2:2,0:0:0:0:
166,111,32838,2,0,P|113:98|59:32,1,125.999996154785,2|2,0:0|1:2,0:0:0:0:
8,109,33384,1,10,2:2:0:0:
8,109,33566,1,2,2:2:0:0:
62,182,33748,6,0,B|35:239|53:251|28:310,1,125.999996154785,2|12,1:2|0:0,0:0:0:0:
106,371,34293,1,8,0:0:0:0:
106,371,34384,1,8,0:0:0:0:
106,371,34475,2,0,P|143:368|189:347,1,62.9999980773926,0|2,1:2|2:2,0:0:0:0:
224,283,34838,2,0,P|259:289|296:308,1,62.9999980773926,10|2,2:2|2:2,0:0:0:0:
352,368,35202,5,2,1:2:0:0:
427,320,35384,2,0,P|448:280|438:191,1,125.999996154785,2|2,2:2|1:2,0:0:0:0:
432,179,35838,1,0,1:1:0:0:
432,179,35929,1,2,1:2:0:0:
351,206,36111,1,2,1:2:0:0:
327,123,36293,1,10,2:2:0:0:
209,168,36657,6,0,L|75:139,1,125.999996154785,6|10,1:2|2:2,0:0:0:0:
34,67,37202,1,0,1:1:0:0:
34,67,37293,1,0,1:1:0:0:
34,67,37384,2,0,P|69:63|107:34,1,62.9999980773926,2|0,1:2|1:0,0:0:0:0:
162,7,37748,2,0,P|206:17|249:42,1,94.499997116089,8|0,2:2|0:0,0:0:0:0:
276,59,38111,6,0,P|318:57|391:7,1,125.999996154785,2|10,1:2|2:2,0:0:0:0:
475,15,38657,2,0,P|448:51|425:152,1,125.999996154785,2|2,1:2|1:2,0:0:0:0:
372,191,39202,2,0,P|381:229|399:257,1,62.9999980773926,10|10,2:2|0:0,0:0:0:0:
412,275,39475,1,8,0:0:0:0:
412,275,39566,5,2,1:2:0:0:
344,334,39748,1,2,1:2:0:0:
274,283,39929,2,0,P|245:273|199:265,1,62.9999980773926,10|10,2:2|0:0,0:0:0:0:
181,268,40202,1,8,0:0:0:0:
181,268,40293,2,0,P|144:309|60:334,1,125.999996154785,2|10,1:2|2:2,0:0:0:0:
23,270,40838,6,0,P|16:219|86:152,1,125.999996154785,6|2,1:2|2:2,0:0:0:0:
135,122,41384,2,0,P|167:136|215:148,1,62.9999980773926,10|8,2:2|2:0,0:0:0:0:
223,152,41657,1,8,0:0:0:0:
223,152,41748,1,10,2:2:0:0:
292,96,41929,1,0,1:1:0:0:
250,24,42111,1,8,2:2:0:0:
368,37,42475,6,0,P|400:48|434:57,1,59.5000011348725,6|2,1:2|2:2,0:0:0:0:
461,127,42838,2,0,P|454:160|437:192,1,59.5000011348725,2|2,1:2|2:2,0:0:0:0:
370,210,43202,2,0,P|341:205|299:183,1,59.5000011348725,0|2,1:2|2:2,0:0:0:0:
248,147,43566,2,0,P|199:152|157:193,1,89.2500017023087,2|0,1:2|0:0,0:0:0:0:
154,206,43929,6,0,P|163:239|183:276,1,59.5000011348725,2|0,1:2|2:2,0:0:0:0:
181,339,44293,2,0,P|213:326|254:303,1,59.5000011348725,2|2,1:2|2:2,0:0:0:0:
306,279,44657,2,0,P|337:286|375:310,1,59.5000011348725,0|2,1:2|2:2,0:0:0:0:
426,346,45020,2,0,P|456:319|463:262,1,89.2500017023087,2|0,1:2|0:0,0:0:0:0:
454,236,45384,6,0,P|445:172|485:119,1,119.000002269745,2|0,1:2|1:2,0:0:0:0:
497,41,45929,1,0,0:2:0:0:
411,67,46111,2,0,L|268:31,1,119.000002269745,2|0,1:2|1:2,0:0:0:0:
224,4,46657,1,0,0:0:0:0:
224,4,46838,2,0,P|201:37|196:78,1,59.5000011348725,2|2,1:2|0:2,0:0:0:0:
140,110,47202,2,0,P|146:147|167:176,1,59.5000011348725,2|2,1:2|2:2,0:0:0:0:
228,223,47566,1,2,1:2:0:0:
282,148,47748,1,2,1:2:0:0:
372,177,47929,1,10,2:2:0:0:
365,265,48111,1,2,3:2:0:0:
365,265,48202,1,2,3:2:0:0:
365,265,48293,6,0,B|305:276|325:308|237:317,1,119.000002269745,6|2,1:2|0:2,0:0:0:0:
192,361,48838,1,2,1:2:0:0:
126,314,49020,2,0,P|115:292|106:241,1,59.5000011348725,8|0,0:0|2:2,0:0:0:0:
40,221,49384,1,2,2:2:0:0:
84,102,49748,5,2,1:2:0:0:
158,139,49929,2,0,P|216:132|280:87,1,119.000002269745,10|2,2:2|1:2,0:0:0:0:
355,62,50475,2,0,P|344:92|334:133,1,59.5000011348725,8|2,2:2|1:2,0:0:0:0:
391,185,50838,2,0,P|421:173|455:151,1,59.5000011348725,10|8,2:2|2:2,0:0:0:0:
481,141,51111,1,8,2:2:0:0:
481,141,51202,5,6,1:2:0:0:
512,220,51384,1,2,1:2:0:0:
442,274,51566,2,0,P|407:265|372:246,1,59.5000011348725,10|2,2:2|1:2,0:0:0:0:
347,240,51838,1,8,2:2:0:0:
347,240,51929,1,2,1:2:0:0:
267,280,52111,1,0,1:1:0:0:
266,367,52293,1,10,2:2:0:0:
134,272,52657,5,10,2:2:0:0:
91,196,52838,1,10,2:2:0:0:
138,124,53020,1,10,2:2:0:0:
227,138,53202,1,10,2:2:0:0:
419,224,53748,6,0,P|425:190|428:148,1,59.5000011348725,2|2,0:0|0:0,0:0:0:0:
512,126,54111,2,0,P|437:123|393:74,1,140,6|10,1:2|2:2,0:0:0:0:
339,8,54657,1,0,1:1:0:0:
288,80,54838,2,0,P|278:112|279:174,1,70,10|0,2:2|1:1,0:0:0:0:
203,201,55202,2,0,P|196:169|157:115,1,70,10|0,2:2|1:1,0:0:0:0:
103,88,55566,5,10,2:2:0:0:
27,138,55748,1,0,1:1:0:0:
36,229,55929,1,10,2:2:0:0:
103,284,56111,2,0,B|184:304|157:332|246:347,1,140,2|0,1:2|1:1,0:0:0:0:
313,374,56657,2,0,P|330:345|335:298,1,70,10|2,2:2|1:2,0:0:0:0:
278,243,57020,6,0,L|356:229,1,70,10|2,2:2|1:2,0:0:0:0:
411,169,57384,2,0,P|377:165|342:156,1,70,10|2,2:2|1:2,0:0:0:0:
277,96,57748,1,10,2:2:0:0:
315,21,57929,1,2,1:2:0:0:
401,37,58111,2,0,P|424:61|436:109,1,70,10|2,2:2|1:2,0:0:0:0:
511,169,58475,6,0,B|487:223|450:225|433:303,1,140,10|10,2:2|2:2,0:0:0:0:
499,357,59020,1,0,1:1:0:0:
499,357,59111,1,0,1:1:0:0:
499,357,59202,2,0,P|473:380|431:382,1,70,8|0,2:2|1:1,0:0:0:0:
357,346,59566,1,10,2:2:0:0:
307,277,59748,1,2,1:2:0:0:
307,277,59838,1,0,1:0:0:0:
307,277,59929,6,0,P|255:247|169:251,1,140,14|10,2:2|2:2,0:0:0:0:
94,287,60475,1,2,1:2:0:0:
94,202,60657,2,0,P|83:165|52:132,1,70,10|2,2:2|1:2,0:0:0:0:
13,65,61020,2,0,P|48:87|96:90,1,70,10|2,2:2|1:2,0:0:0:0:
149,38,61384,1,10,2:2:0:0:
241,21,61566,1,0,1:1:0:0:
307,83,61748,1,10,2:2:0:0:
251,154,61929,2,0,P|246:200|309:285,1,140,2|0,1:2|1:1,0:0:0:0:
370,310,62475,2,0,P|400:296|459:279,1,70,10|2,2:2|1:2,0:0:0:0:
510,219,62838,6,0,P|472:206|445:108,1,140,8|10,2:2|2:2,0:0:0:0:
466,7,63384,1,0,1:1:0:0:
501,85,63566,2,0,P|460:84|420:69,1,70,10|2,2:2|1:2,0:0:0:0:
360,15,63929,1,10,2:2:0:0:
339,101,64111,6,0,B|367:153|330:181|366:251,1,140,6|0,1:2|1:1,0:0:0:0:
400,165,64657,1,8,2:2:0:0:
308,183,64838,2,0,P|266:178|166:137,1,140,4|8,1:2|2:2,0:0:0:0:
106,77,65384,1,10,2:2:0:0:
60,151,65566,1,10,2:2:0:0:
108,223,65748,1,2,2:2:0:0:
256,192,71566,12,2,75748,2:2:0:0:
263,368,77020,5,2,2:2:0:0:
295,283,77202,1,2,2:2:0:0:
207,302,77384,2,0,P|163:302|65:249,1,140,14|10,2:2|2:2,0:0:0:0:
35,188,77929,1,0,1:1:0:0:
124,193,78111,2,0,P|154:189|185:158,1,70,10|0,2:2|1:1,0:0:0:0:
171,74,78475,1,10,2:2:0:0:
171,74,78657,1,0,1:1:0:0:
256,108,78838,6,0,P|294:124|333:146,1,70,10|0,2:2|1:1,0:0:0:0:
394,198,79202,1,10,2:2:0:0:
386,118,79384,2,0,P|372:164|304:242,1,140,2|0,1:2|1:1,0:0:0:0:
235,270,79929,2,0,P|265:286|298:318,1,70,10|0,2:2|1:1,0:0:0:0:
355,371,80293,5,10,2:2:0:0:
444,364,80475,1,2,1:2:0:0:
463,279,80657,2,0,P|457:245|438:212,1,70,10|2,2:2|1:2,0:0:0:0:
375,156,81020,1,10,2:2:0:0:
443,94,81202,1,2,1:2:0:0:
398,15,81384,1,10,2:2:0:0:
316,64,81566,1,2,1:2:0:0:
238,13,81748,6,0,P|175:20|95:90,1,140,10|8,2:2|2:2,0:0:0:0:
28,107,82293,1,0,1:1:0:0:
106,157,82475,1,8,2:2:0:0:
106,157,82566,2,0,P|134:150|181:125,1,70,8|0,2:2|2:2,0:0:0:0:
196,116,82838,2,0,P|225:140|225:206,1,105,10|8,2:2|1:2,0:0:0:0:
205,230,83202,6,0,B|181:290|234:296|198:388,1,140,14|10,2:2|2:2,0:0:0:0:
291,319,83748,1,0,1:1:0:0:
371,354,83929,2,0,P|402:346|452:323,1,70,10|2,2:2|1:2,0:0:0:0:
512,265,84293,2,0,P|474:258|428:235,1,70,10|2,2:2|1:2,0:0:0:0:
368,195,84657,1,10,2:2:0:0:
386,104,84838,1,2,1:2:0:0:
475,88,85020,1,10,2:2:0:0:
421,17,85202,2,0,P|376:48|287:51,1,140,2|0,1:2|1:1,0:0:0:0:
200,7,85748,2,0,P|216:43|213:92,1,70,10|0,2:2|1:1,0:0:0:0:
144,135,86111,6,0,B|121:201|148:205|121:286,1,140,14|10,2:2|2:2,0:0:0:0:
90,364,86657,1,2,1:2:0:0:
90,364,86748,1,0,1:1:0:0:
90,364,86838,2,0,P|121:359|165:327,1,70,10|2,2:2|1:2,0:0:0:0:
225,273,87202,1,10,2:2:0:0:
306,309,87384,2,0,P|349:317|426:380,1,140,4|0,1:2|1:1,0:0:0:0:
493,305,87929,1,8,2:2:0:0:
417,249,88111,2,0,P|374:241|297:178,1,140,4|8,1:2|2:2,0:0:0:0:
328,92,88657,1,8,2:2:0:0:
