osu file format v14

[General]
AudioFilename: audio.mp3
AudioLeadIn: 0
PreviewTime: 53657
Countdown: 0
SampleSet: Soft
StackLeniency: 0.7
Mode: 0
LetterboxInBreaks: 0
WidescreenStoryboard: 0

[Editor]
DistanceSpacing: 1
BeatDivisor: 4
GridSize: 4
TimelineZoom: 1

[Metadata]
Title:Himitsu Koigokoro (TV Size)
TitleUnicode:ヒミツ恋ゴコロ (TV Size)
Artist:CHiCO with HoneyWorks
ArtistUnicode:CHiCO with HoneyWorks
Creator:Zekk
Version:Affection
Source:彼女、お借りします
Tags:rent a girlfriend kanokari i'd id like to borrow a girlfriend second season 2 two op opening kanojo okarishimasu jpop japanese pop j-pop anime secret romance
BeatmapID:3688760
BeatmapSetID:1799410

[Difficulty]
HPDrainRate:5.5
CircleSize:4
OverallDifficulty:8
ApproachRate:9
SliderMultiplier:1.7
SliderTickRate:1

[Events]
//Background and Video events
0,0,"dfgdfghdghfghjfhj.jpg",0,0
//Break Periods
2,65948,70966
//Storyboard Layer 0 (Background)
//Storyboard Layer 1 (Fail)
//Storyboard Layer 2 (Pass)
//Storyboard Layer 3 (Foreground)
//Storyboard Layer 4 (Overlay)
//Storyboard Sound Samples

[TimingPoints]
1748,363.636363636364,4,2,1,70,1,0
1748,-125,4,2,1,70,0,0
7566,-111.111111111111,4,2,1,65,0,0
10475,-100,4,2,1,65,0,0
13384,-100,4,2,1,70,0,0
19202,-117.647058823529,4,2,1,60,0,0
29202,-100,4,2,1,60,0,0
30838,-100,4,2,1,65,0,0
42475,-117.647058823529,4,2,1,60,0,0
54111,-90.9090909090909,4,2,1,80,0,1
65748,-125,4,2,1,40,0,0
77020,-117.647058823529,4,2,1,80,0,0
77384,-90.9090909090909,4,2,1,90,0,1
88657,-90.9090909090909,4,2,1,90,0,0

[Colours]
Combo1 : 255,188,64
Combo2 : 253,53,138

[HitObjects]
367,276,1748,6,0,P|382:178|425:34,1,238,6|0,1:2|2:2,0:0:0:0:
331,12,2475,2,0,P|316:110|273:254,1,238,6|0,1:2|2:2,0:0:0:0:
202,356,3202,6,0,P|142:366|6:247,1,238,6|0,1:2|2:2,0:0:0:0:
43,194,3929,2,0,P|103:184|239:303,1,238,4|0,1:2|2:2,0:0:0:0:
319,329,4657,6,0,B|349:192|413:270|422:87,1,238,6|0,1:2|2:2,0:0:0:0:
488,175,5384,2,0,B|458:312|394:234|385:417,1,238,6|0,1:2|2:2,0:0:0:0:
328,229,6111,6,0,P|269:222|91:157,1,238,6|0,1:2|2:2,0:0:0:0:
118,91,6838,2,0,P|177:98|355:163,1,238,6|0,1:2|2:2,0:0:0:0:
449,119,7566,6,0,P|470:81|466:32,1,76.4999976654053,6|0,1:2|2:2,0:0:0:0:
302,0,7929,2,0,P|322:27|332:85,1,76.4999976654053,2|2,1:2|2:2,0:0:0:0:
200,179,8293,1,2,1:2:0:0:
250,56,8475,1,2,2:2:0:0:
61,80,8657,2,0,P|87:87|160:98,1,76.4999976654053,2|2,1:2|2:2,0:0:0:0:
287,249,9020,5,2,1:2:0:0:
227,150,9202,1,0,2:2:0:0:
118,205,9384,1,2,1:2:0:0:
225,336,9566,2,0,P|281:313|398:289,1,152.999995330811,2|0,2:2|2:2,0:0:0:0:
507,199,10111,2,0,P|485:226|484:286,1,76.4999976654053,2|2,1:2|2:2,0:0:0:0:
331,147,10475,5,6,1:2:0:0:
429,92,10657,1,0,0:2:0:0:
406,206,10838,1,10,0:2:0:0:
207,59,11020,1,8,2:2:0:0:
381,13,11202,1,10,0:2:0:0:
213,209,11384,1,10,2:2:0:0:
336,73,11566,1,10,1:2:0:0:
67,118,11748,2,0,P|110:127|165:131,1,85,6|0,1:2|0:2,0:0:0:0:
370,280,12111,5,10,2:2:0:0:
267,100,12293,1,10,2:2:0:0:
86,202,12475,1,10,2:2:0:0:
86,202,12657,1,2,2:2:0:0:
167,380,13020,1,2,2:2:0:0:
167,380,13111,1,2,2:2:0:0:
167,380,13202,1,2,2:2:0:0:
167,380,13293,1,2,2:2:0:0:
167,380,13384,6,0,P|218:347|192:227,1,170,6|8,1:2|0:0,0:0:0:0:
127,303,13929,1,0,1:0:0:0:
351,334,14111,2,0,P|301:328|234:311,1,85,8|0,0:0|1:0,0:0:0:0:
326,138,14475,2,0,P|339:175|350:229,1,85,8|0,0:0|1:0,0:0:0:0:
385,34,14838,1,8,0:0:0:0:
220,87,15020,1,0,1:0:0:0:
427,132,15202,1,8,0:0:0:0:
130,31,15384,2,0,P|166:88|162:201,1,170,0|0,1:0|1:0,0:0:0:0:
25,298,15929,1,8,0:0:0:0:
53,210,16111,1,0,1:0:0:0:
161,344,16293,5,8,0:0:0:0:
145,196,16475,1,0,1:0:0:0:
353,290,16657,1,8,0:0:0:0:
216,274,16838,1,0,1:0:0:0:
216,274,16929,1,0,1:0:0:0:
216,274,17020,1,8,0:0:0:0:
412,195,17202,1,0,1:0:0:0:
277,362,17384,1,8,0:0:0:0:
304,94,17566,6,0,P|310:131|316:204,1,85,4|0,1:2|0:0,0:0:0:0:
434,79,17929,1,0,1:0:0:0:
194,142,18111,1,8,0:0:0:0:
434,79,18293,2,0,P|464:96|517:112,1,85,4|0,1:2|0:0,0:0:0:0:
320,221,18657,1,8,0:0:0:0:
280,236,18748,1,8,0:0:0:0:
234,229,18838,1,8,0:0:0:0:
197,202,18929,1,8,0:3:0:0:
150,192,19020,1,0,1:0:0:0:
104,200,19111,1,0,1:0:0:0:
67,220,19202,6,0,P|69:257|149:324,1,144.500002756119,4|2,1:2|1:2,0:0:0:0:
242,270,19748,1,0,2:2:0:0:
226,370,19929,2,0,P|218:340|231:277,1,72.2500013780594,2|0,1:2|2:2,0:0:0:0:
359,233,20293,2,0,P|336:263|328:303,1,72.2500013780594,2|0,1:2|2:2,0:0:0:0:
424,290,20657,1,2,1:2:0:0:
284,196,20838,1,0,2:2:0:0:
424,290,21020,1,2,1:2:0:0:
464,137,21202,6,0,P|414:165|327:182,1,144.500002756119,2|2,2:2|2:2,0:0:0:0:
286,14,21748,1,2,1:2:0:0:
365,53,21929,1,2,2:2:0:0:
231,141,22111,6,0,P|216:100|211:61,1,72.2500013780594,2|2,1:2|2:2,0:0:0:0:
67,108,22475,2,0,P|112:118|153:139,1,72.2500013780594,0|0,1:1|2:2,0:0:0:0:
303,98,22838,1,0,1:1:0:0:
303,98,23020,1,2,2:2:0:0:
211,228,23202,1,2,1:2:0:0:
280,186,23384,1,2,2:2:0:0:
115,208,23566,5,2,1:2:0:0:
291,268,23748,2,0,L|126:293,1,144.500002756119,2|2,2:2|2:2,0:0:0:0:
271,384,24293,2,0,L|282:344,1,36.1250006890297,2|0,1:2|2:2,0:0:0:0:
356,333,24475,2,0,L|400:346,1,36.1250006890297,2|0,2:2|2:2,0:0:0:0:
454,302,24657,2,0,L|461:262,1,36.1250006890297,2|0,1:2|2:2,0:0:0:0:
375,229,24838,2,0,L|383:264,1,36.1250006890297,2|0,2:2|2:2,0:0:0:0:
475,374,25020,6,0,L|496:207,1,144.500002756119,6|2,1:2|1:2,0:0:0:0:
406,88,25566,1,0,2:2:0:0:
499,124,25748,2,0,P|468:150|414:158,1,72.2500013780594,2|0,1:2|2:2,0:0:0:0:
306,55,26111,2,0,P|321:92|326:148,1,72.2500013780594,2|0,1:2|2:2,0:0:0:0:
363,0,26475,6,0,P|311:25|198:51,1,144.500002756119,2|2,1:2|1:2,0:0:0:0:
102,93,27020,2,0,P|52:78|13:-8,1,144.500002756119,6|2,2:2|2:2,0:0:0:0:
96,13,27566,1,2,1:2:0:0:
18,119,27748,1,0,3:2:0:0:
18,119,27838,1,0,3:2:0:0:
18,119,27929,6,0,P|28:155|35:210,1,72.2500013780594,2|0,1:2|2:2,0:0:0:0:
267,192,28293,2,0,P|229:187|172:165,1,72.2500013780594,10|8,2:2|1:3,0:0:0:0:
196,176,28566,1,8,0:3:0:0:
196,176,28657,1,2,1:2:0:0:
169,93,28838,1,0,1:2:0:0:
171,284,29020,1,10,2:2:0:0:
0,272,29202,6,0,P|50:257|120:166,1,170,6|0,1:2|1:1,0:0:0:0:
301,298,29748,1,8,2:2:0:0:
171,284,29929,2,0,P|220:276|283:273,1,85,2|0,2:2|1:1,0:0:0:0:
413,202,30293,1,8,2:2:0:0:
413,202,30384,1,8,2:2:0:0:
413,202,30475,2,0,L|400:250,1,42.5,8|8,2:2|2:2,0:0:0:0:
453,313,30657,2,0,L|505:323,1,42.5,8|8,2:3|2:3,0:3:0:0:
492,153,30838,6,0,L|317:167,1,170,6|10,1:2|2:2,0:0:0:0:
168,98,31384,1,8,0:0:0:0:
168,98,31475,1,8,0:0:0:0:
168,98,31566,1,2,1:2:0:0:
283,66,31748,1,0,1:1:0:0:
92,16,31929,2,0,P|115:78|110:187,1,170,8|2,2:2|1:2,0:0:0:0:
273,154,32475,6,0,L|207:142,1,42.5,2|0,2:1|2:2,0:0:0:0:
29,117,32657,1,10,2:2:0:0:
190,227,32838,1,2,0:1:0:0:
190,227,32929,1,8,0:0:0:0:
190,227,33020,2,0,P|203:271|202:338,1,85,2|2,1:2|1:2,0:0:0:0:
50,341,33384,1,10,2:2:0:0:
119,266,33566,1,2,2:2:0:0:
255,366,33748,5,2,1:2:0:0:
320,266,33929,2,0,P|341:315|458:340,1,170,2|8,0:2|0:0,0:0:0:0:
445,344,34384,1,8,0:0:0:0:
445,344,34475,1,0,1:2:0:0:
505,193,34657,1,2,1:2:0:0:
390,222,34838,1,10,2:2:0:0:
339,58,35020,1,2,2:2:0:0:
430,118,35202,5,2,1:2:0:0:
281,153,35384,2,0,L|96:132,1,170,2|2,2:2|1:2,0:0:0:0:
61,193,35838,1,0,1:1:0:0:
73,197,35929,2,0,P|109:194|158:163,1,85,2|2,1:2|1:2,0:0:0:0:
229,32,36293,1,10,2:2:0:0:
224,243,36475,1,0,2:2:0:0:
368,186,36657,6,0,B|379:119|330:113|369:8,1,170,6|10,1:2|2:2,0:0:0:0:
512,98,37202,1,0,1:1:0:0:
512,98,37293,1,0,1:1:0:0:
512,98,37384,2,0,P|473:106|411:110,1,85,2|0,1:2|1:0,0:0:0:0:
248,203,37748,2,0,P|287:211|439:227,1,170,8|2,2:2|1:2,0:0:0:0:
286,368,38293,6,0,L|267:311,1,42.5,2|0,2:1|2:2,0:0:0:0:
160,254,38475,1,10,2:2:0:0:
357,314,38657,1,2,1:1:0:0:
135,348,38838,1,10,1:2:0:0:
261,254,39020,1,10,1:2:0:0:
255,241,39111,1,8,2:2:0:0:
248,225,39202,1,10,2:2:0:0:
83,222,39384,2,0,L|148:237,1,42.5,10|8,0:0|0:0,0:0:0:0:
208,72,39566,5,2,1:2:0:0:
158,163,39748,1,2,1:2:0:0:
329,141,39929,2,0,P|333:101|312:35,1,85,10|10,2:2|0:0,0:0:0:0:
323,57,40202,1,8,0:0:0:0:
323,57,40293,1,2,1:2:0:0:
189,98,40475,1,0,1:2:0:0:
256,0,40657,1,10,2:2:0:0:
258,216,40838,6,0,P|187:210|67:186,1,170,6|2,1:2|2:2,0:0:0:0:
176,129,41384,1,10,2:2:0:0:
123,297,41566,1,8,2:2:0:0:
123,297,41657,1,8,0:0:0:0:
123,297,41748,1,10,2:2:0:0:
4,194,41929,1,0,1:1:0:0:
204,146,42111,1,8,2:2:0:0:
204,146,42475,6,0,L|297:159,1,72.2500013780594,6|2,1:2|2:2,0:0:0:0:
413,126,42838,2,0,P|386:156|364:204,1,72.2500013780594,2|2,1:2|2:2,0:0:0:0:
370,183,43111,1,0,2:2:0:0:
370,183,43202,1,0,1:2:0:0:
406,303,43384,2,0,L|416:257,1,36.1250006890297,2|0,2:2|2:2,0:0:0:0:
490,283,43566,1,2,1:2:0:0:
321,286,43748,1,0,1:1:0:0:
476,367,43929,6,0,P|448:373|397:375,1,72.2500013780594,2|0,1:2|2:2,0:0:0:0:
291,233,44293,2,0,L|300:282,1,36.1250006890297,2|0,1:2|2:2,0:0:0:0:
279,343,44475,1,2,2:2:0:0:
196,223,44657,1,0,1:2:0:0:
142,320,44838,2,0,L|148:273,1,36.1250006890297,2|0,2:2|2:2,0:0:0:0:
33,233,45020,2,0,L|120:217,1,72.2500013780594,2|2,1:2|1:2,0:0:0:0:
266,111,45384,6,0,P|185:99|116:83,1,144.500002756119,2|0,1:2|1:2,0:0:0:0:
26,22,45929,1,0,3:2:0:0:
26,22,46020,1,0,3:2:0:0:
26,22,46111,1,2,1:2:0:0:
49,128,46293,1,0,2:2:0:0:
187,34,46475,2,0,L|296:20,1,108.375002067089,0|0,1:2|2:2,0:0:0:0:
294,20,46838,5,2,1:2:0:0:
397,64,47020,1,2,3:2:0:0:
397,64,47111,1,0,3:2:0:0:
397,64,47202,1,2,1:2:0:0:
310,184,47384,2,0,P|305:149|304:94,1,72.2500013780594,2|2,2:2|1:2,0:0:0:0:
303,112,47748,1,2,1:2:0:0:
417,192,47929,1,10,2:2:0:0:
224,263,48111,1,2,3:2:0:0:
224,263,48202,1,2,3:2:0:0:
224,263,48293,6,0,P|184:257|136:248,1,72.2500013780594,6|0,1:2|2:2,0:0:0:0:
319,333,48657,1,2,0:2:0:0:
298,246,48838,2,0,P|295:313|241:383,1,144.500002756119,2|0,1:2|2:2,0:0:0:0:
416,296,49384,2,0,P|423:266|427:214,1,72.2500013780594,2|8,2:2|0:0,0:0:0:0:
426,224,49657,1,8,0:0:0:0:
426,224,49748,1,2,1:2:0:0:
512,184,49929,2,0,P|443:180|347:161,1,144.500002756119,10|2,2:2|1:2,0:0:0:0:
230,124,50475,5,8,2:2:0:0:
339,71,50657,1,2,1:2:0:0:
281,215,50838,1,10,2:2:0:0:
131,154,51020,1,8,2:2:0:0:
131,154,51111,1,8,2:2:0:0:
131,154,51202,5,6,1:2:0:0:
244,198,51384,1,2,1:2:0:0:
37,261,51566,2,0,P|72:259|126:250,1,72.2500013780594,10|2,2:2|1:2,0:0:0:0:
109,254,51838,1,8,2:2:0:0:
109,254,51929,1,2,1:2:0:0:
265,345,52111,1,0,1:1:0:0:
244,198,52293,2,0,P|224:231|211:282,1,72.2500013780594,10|2,2:2|2:2,0:0:0:0:
407,174,52657,5,10,2:2:0:0:
170,90,52838,1,10,2:2:0:0:
407,174,53020,1,10,2:2:0:0:
170,90,53202,1,10,2:2:0:0:
344,225,53748,5,2,0:0:0:0:
392,285,53929,1,2,0:0:0:0:
479,111,54111,2,0,L|282:142,1,187.000005706787,6|10,1:2|2:2,0:0:0:0:
371,181,54657,1,0,1:1:0:0:
364,10,54838,2,0,P|380:40|385:105,1,93.5000028533936,10|0,2:2|1:1,0:0:0:0:
229,232,55202,1,10,2:2:0:0:
205,137,55384,1,0,1:1:0:0:
305,225,55566,5,10,2:2:0:0:
127,305,55748,1,0,1:1:0:0:
208,216,55929,1,10,2:2:0:0:
11,196,56111,2,0,P|56:211|115:219,1,93.5000028533936,2|8,1:2|2:2,0:0:0:0:
303,355,56475,2,0,P|258:370|199:378,1,93.5000028533936,0|10,1:1|2:2,0:0:0:0:
212,377,56838,1,2,1:2:0:0:
293,230,57020,5,10,2:2:0:0:
446,289,57202,1,2,1:2:0:0:
512,142,57384,1,10,2:2:0:0:
360,78,57566,1,2,1:2:0:0:
402,170,57748,1,10,2:2:0:0:
244,108,57929,1,2,1:2:0:0:
360,0,58111,1,10,2:2:0:0:
198,0,58293,2,0,L|207:46,1,46.7500014266968,2|0,1:2|2:2,0:0:0:0:
69,180,58475,6,0,L|94:79,1,93.5000028533936,10|0,2:2|1:1,0:0:0:0:
303,200,58838,2,0,P|256:213|211:223,1,93.5000028533936,10|0,2:2|1:1,0:0:0:0:
212,222,59111,1,0,1:1:0:0:
212,222,59202,1,8,2:2:0:0:
371,299,59384,1,0,1:1:0:0:
398,95,59566,2,0,P|384:135|379:210,1,93.5000028533936,10|2,2:2|1:2,0:0:0:0:
377,185,59838,1,0,1:0:0:0:
377,185,59929,5,14,2:2:0:0:
488,96,60111,1,0,1:1:0:0:
496,331,60293,2,0,P|453:330|381:306,1,93.5000028533936,10|2,2:2|1:2,0:0:0:0:
230,354,60657,1,10,2:2:0:0:
297,238,60838,1,2,1:2:0:0:
131,172,61020,1,10,2:2:0:0:
196,278,61202,1,2,1:2:0:0:
56,294,61384,5,10,2:2:0:0:
251,173,61566,1,0,1:1:0:0:
56,294,61748,1,10,2:2:0:0:
251,173,61929,2,0,P|291:180|377:206,1,93.5000028533936,2|8,1:2|2:2,0:0:0:0:
238,76,62293,1,0,1:1:0:0:
125,204,62475,1,10,2:2:0:0:
2,83,62657,1,2,1:2:0:0:
141,12,62838,6,0,P|133:54|118:111,1,93.5000028533936,8|0,2:2|1:1,0:0:0:0:
299,292,63202,2,0,P|307:250|322:193,1,93.5000028533936,10|0,2:2|1:1,0:0:0:0:
319,200,63475,1,0,1:1:0:0:
319,200,63566,1,10,2:2:0:0:
442,100,63748,1,2,1:2:0:0:
310,14,63929,1,10,2:2:0:0:
509,158,64111,6,0,L|320:125,1,187.000005706787,6|0,1:2|1:1,0:0:0:0:
124,222,64657,2,0,L|183:211,1,46.7500014266968,8|0,2:2|2:2,0:0:0:0:
259,187,64838,2,0,P|243:221|234:294,1,93.5000028533936,4|0,1:2|2:2,0:0:0:0:
341,368,65202,1,8,2:2:0:0:
403,193,65384,1,10,2:2:0:0:
153,294,65566,1,10,2:2:0:0:
319,263,65748,1,2,2:2:0:0:
19,130,71566,6,0,P|60:123|105:108,1,68,2|0,2:2|2:2,0:0:0:0:
175,71,71929,1,2,2:2:0:0:
175,71,72111,1,0,2:2:0:0:
260,125,72293,1,2,2:2:0:0:
201,177,72475,2,0,P|205:134|255:47,1,136,2|2,2:2|2:2,0:0:0:0:
358,1,73020,2,0,P|361:39|360:90,1,68,2|2,2:2|2:2,0:0:0:0:
459,150,73384,1,2,2:2:0:0:
294,154,73566,2,0,P|382:162|449:189,1,136,2|0,2:2|2:2,0:0:0:0:
505,265,74111,2,0,P|462:275|423:278,1,68,2|2,2:2|2:2,0:0:0:0:
329,364,74475,6,0,P|341:334|341:274,1,68,2|0,2:2|2:2,0:0:0:0:
238,317,74838,2,0,P|235:284|206:235,1,68,2|0,2:2|2:2,0:0:0:0:
60,383,75202,1,2,2:2:0:0:
2,309,75384,1,2,2:2:0:0:
67,241,75566,1,2,2:2:0:0:
145,294,75748,1,2,2:2:0:0:
444,91,77020,5,2,2:2:0:0:
246,180,77202,1,2,2:2:0:0:
320,23,77384,2,0,P|340:64|346:127,1,93.5000028533936,14|0,2:2|2:2,0:0:0:0:
77,186,77748,2,0,L|176:209,1,93.5000028533936,10|0,2:2|1:1,0:0:0:0:
328,267,78111,1,10,2:2:0:0:
258,189,78293,1,0,1:1:0:0:
251,353,78475,1,10,2:2:0:0:
433,303,78657,1,0,1:1:0:0:
329,245,78838,5,10,2:2:0:0:
474,130,79020,1,2,1:2:0:0:
416,227,79202,1,10,2:2:0:0:
227,72,79384,1,2,1:2:0:0:
396,116,79566,1,8,2:2:0:0:
191,202,79748,1,0,1:1:0:0:
191,202,79838,1,0,1:2:0:0:
191,202,79929,2,0,P|148:190|91:165,1,93.5000028533936,10|0,2:2|1:1,0:0:0:0:
411,372,80293,5,10,2:2:0:0:
442,255,80475,1,2,1:2:0:0:
213,287,80657,5,10,2:2:0:0:
191,202,80838,1,2,1:2:0:0:
432,132,81020,5,10,2:2:0:0:
451,54,81202,1,2,1:2:0:0:
321,95,81384,5,10,2:2:0:0:
507,199,81566,1,2,1:2:0:0:
324,292,81748,2,0,P|326:256|358:182,1,93.5000028533936,10|0,2:2|1:1,0:0:0:0:
198,361,82111,2,0,P|167:336|130:272,1,93.5000028533936,8|0,2:2|1:1,0:0:0:0:
137,291,82384,1,0,1:2:0:0:
137,291,82475,6,0,L|185:276,1,46.7500014266968,8|8,2:2|2:2,0:0:0:0:
24,198,82657,2,0,L|83:215,1,46.7500014266968,0|0,1:1|2:2,0:0:0:0:
197,82,82838,2,0,P|180:124|175:185,1,93.5000028533936,10|10,2:2|1:2,0:0:0:0:
174,171,83111,1,8,1:2:0:0:
174,171,83202,6,0,P|228:173|319:76,1,187.000005706787,14|10,2:2|2:2,0:0:0:0:
96,72,83748,1,0,1:1:0:0:
350,229,83929,2,0,P|307:216|266:185,1,93.5000028533936,10|2,2:2|1:2,0:0:0:0:
418,156,84293,1,10,2:2:0:0:
439,326,84475,1,2,1:2:0:0:
142,307,84657,5,10,2:2:0:0:
350,229,84838,1,2,1:2:0:0:
144,140,85020,1,10,2:2:0:0:
190,211,85202,1,2,1:2:0:0:
251,15,85384,2,0,P|236:65|224:142,1,93.5000028533936,8|0,2:2|1:1,0:0:0:0:
228,105,85658,1,0,1:1:0:0:
228,105,85748,1,10,2:2:0:0:
101,55,85930,1,0,1:1:0:0:
113,233,86111,5,14,2:2:0:0:
190,211,86293,1,0,2:2:0:0:
450,289,86475,5,10,2:2:0:0:
363,318,86657,1,2,1:2:0:0:
363,318,86748,1,0,1:1:0:0:
363,318,86838,1,10,2:2:0:0:
286,130,87020,2,0,L|294:191,1,46.7500014266968,2|0,1:2|2:2,0:0:0:0:
426,203,87202,2,0,L|349:217,1,46.7500014266968,10|0,2:2|2:2,0:0:0:0:
246,383,87384,6,0,B|230:327|230:327|191:290|191:290|171:197,1,187.000005706787,4|0,1:2|1:1,0:0:0:0:
57,280,87929,2,0,L|102:292,1,46.7500014266968,8|0,2:2|2:2,0:0:0:0:
230,45,88111,6,0,L|210:154,1,93.5000028533936,4|0,1:2|2:2,0:0:0:0:
334,32,88475,1,8,2:2:0:0:
108,78,88657,1,8,2:2:0:0:
