osu file format v14

[General]
AudioFilename: audio.ogg
AudioLeadIn: 0
PreviewTime: 53101
Countdown: 0
SampleSet: Soft
StackLeniency: 0.7
Mode: 3
LetterboxInBreaks: 0
SpecialStyle: 0
WidescreenStoryboard: 0

[Editor]
DistanceSpacing: 0.4
BeatDivisor: 4
GridSize: 32
TimelineZoom: 1.9

[Metadata]
Title:Himitsu Koigokoro (TV Size)
TitleUnicode:ヒミツ恋ゴコロ (TV Size)
Artist:CHiCO with HoneyWorks
ArtistUnicode:CHiCO with HoneyWorks
Creator:Lami-
Version:Sava's Easy
Source:彼女、お借りします
Tags:savageeeee amiichii op opening japanese j-pop jpop pop soundtrack Rent a Girlfriend Kanojo Okarishimasu Kanokari 2nd Season 2 S2 Anime Secret Romance SMCL-780 i'd id like to borrow a girlfriend second two
BeatmapID:3686306
BeatmapSetID:1798275

[Difficulty]
HPDrainRate:6.5
CircleSize:4
OverallDifficulty:6.5
ApproachRate:5
SliderMultiplier:1.4
SliderTickRate:1

[Events]
//Background and Video events
0,0,"Amii.jpg",0,0
Video,-650,"video.mp4"
//Break Periods
//Storyboard Layer 0 (Background)
//Storyboard Layer 1 (Fail)
//Storyboard Layer 2 (Pass)
//Storyboard Layer 3 (Foreground)
//Storyboard Layer 4 (Overlay)
//Storyboard Sound Samples
Sample,29919,0,"soft-hitclap.wav",30
Sample,40828,0,"Tom3.wav",50
Sample,45555,0,"soft-hitfinish.wav",10
Sample,45919,0,"soft-hitfinish.wav",15
Sample,46282,0,"soft-hitfinish.wav",20
Sample,46646,0,"soft-hitfinish.wav",20

[TimingPoints]
1192,363.636363636364,4,2,1,50,1,0
53555,-100,4,2,1,50,0,1
65192,-100,4,2,1,50,0,0
76828,-100,4,2,1,50,0,1
87737,-100,4,2,1,50,0,0

[HitObjects]
64,192,1192,5,4,0:0:0:0:
448,192,1192,128,2,1919:0:0:0:0:
64,192,1919,128,4,2646:0:0:0:0:
192,192,1919,1,2,0:0:0:0:
320,192,2646,128,2,3373:0:0:0:0:
448,192,2646,1,4,0:0:0:0:
192,192,3373,1,0,0:0:0:0:
320,192,3737,1,0,0:0:0:50:Tom3.wav
64,192,4101,128,4,4828:0:0:0:0:
448,192,4101,1,2,0:0:0:0:
192,192,4828,1,2,0:0:0:0:
448,192,4828,128,4,5555:0:0:0:0:
64,192,5555,1,2,0:0:0:0:
320,192,5555,1,4,0:0:0:0:
192,192,5919,1,0,0:0:0:0:
320,192,6282,1,0,0:0:0:0:
448,192,6646,1,4,0:0:0:0:
64,192,7010,1,2,0:0:0:0:
192,192,7010,1,4,0:0:0:0:
320,192,7373,1,2,0:0:0:0:
192,192,7737,1,2,0:0:0:0:
320,192,8101,1,2,0:0:0:0:
64,192,8464,1,2,0:0:0:0:
192,192,8828,1,2,0:0:0:0:
448,192,9192,1,2,0:0:0:0:
320,192,9555,1,2,0:0:0:0:
64,192,9919,1,6,0:0:0:0:
448,192,10282,128,10,10646:0:0:0:0:
192,192,10646,128,10,11010:0:0:0:0:
320,192,11010,1,8,0:0:0:0:
64,192,11192,1,6,0:0:0:0:
448,192,11555,1,10,0:0:0:0:
192,192,11737,1,10,0:0:0:0:
320,192,11919,1,14,0:0:0:0:
64,192,12828,1,2,0:0:0:0:
448,192,12828,1,4,0:0:0:0:
192,192,13192,1,12,0:0:0:0:
320,192,13555,1,12,0:0:0:0:
192,192,13919,1,12,0:0:0:0:
448,192,14282,1,12,0:0:0:0:
320,192,14646,1,12,0:0:0:0:
64,192,15010,1,12,0:0:0:0:
192,192,15373,1,12,0:0:0:0:
320,192,15737,1,12,0:0:0:0:
64,192,16101,1,12,0:0:0:0:
448,192,16464,1,8,0:0:0:0:
320,192,16646,1,6,0:0:0:0:
192,192,16828,1,8,0:0:0:0:
448,192,17010,128,6,17373:0:0:0:0:
64,192,17373,1,2,0:0:0:0:
192,192,17555,1,8,0:0:0:0:
320,192,17737,128,6,18282:0:0:0:0:
64,192,18282,128,10,18646:0:0:0:0:
192,192,18646,1,2,0:0:0:0:
448,192,18646,1,4,0:0:0:0:
320,192,19010,1,2,0:0:0:0:
192,192,19373,1,2,0:0:0:0:
320,192,19737,1,2,0:0:0:0:
64,192,20101,1,2,0:0:0:0:
192,192,20464,1,2,0:0:0:0:
448,192,20828,1,2,0:0:0:0:
320,192,21192,1,2,0:0:0:0:
64,192,21555,1,2,0:0:0:0:
320,192,21919,1,2,0:0:0:0:
192,192,22282,1,2,0:0:0:0:
448,192,22646,1,2,0:0:0:0:
64,192,23010,1,2,0:0:0:0:
192,192,23373,1,2,0:0:0:0:
320,192,23737,1,2,0:0:0:0:
64,192,24101,1,6,0:0:0:0:
192,192,24464,1,4,0:0:0:0:
448,192,24464,1,2,0:0:0:0:
320,192,24828,1,2,0:0:0:0:
192,192,25192,1,2,0:0:0:0:
448,192,25555,1,2,0:0:0:0:
64,192,25919,1,2,0:0:0:0:
320,192,26282,1,2,0:0:0:0:
448,192,26646,1,2,0:0:0:0:
192,192,27010,1,2,0:0:0:0:
320,192,27373,128,2,27737:0:0:0:0:
64,192,27737,1,6,0:0:0:0:
448,192,28101,128,2,28464:0:0:0:0:
192,192,28464,1,8,0:0:0:0:
320,192,28646,1,6,0:0:0:0:
64,192,29010,1,2,0:0:0:0:
448,192,29192,1,12,0:0:0:0:
192,192,29555,128,2,29919:0:0:0:0:
320,192,29919,128,2,30282:0:0:0:0:
64,192,30282,1,2,0:0:0:0:
448,192,30282,1,4,0:0:0:0:
192,192,30646,1,8,0:0:0:0:
448,192,31010,1,0,0:0:0:0:
320,192,31192,1,2,0:0:0:0:
192,192,31373,1,8,0:0:0:0:
448,192,31737,1,2,0:0:0:0:
64,192,32101,1,8,0:0:0:0:
320,192,32464,1,2,0:0:0:0:
192,192,32646,1,2,0:0:0:0:
448,192,32828,1,8,0:0:0:0:
192,192,33192,1,2,0:0:0:0:
320,192,33555,1,8,0:0:0:0:
64,192,33919,1,0,0:0:0:0:
192,192,34101,1,2,0:0:0:0:
320,192,34282,1,8,0:0:0:0:
64,192,34646,1,2,0:0:0:0:
448,192,35010,1,8,0:0:0:0:
192,192,35373,1,2,0:0:0:0:
320,192,35555,1,2,0:0:0:0:
64,192,35737,1,8,0:0:0:0:
448,192,36101,1,6,0:0:0:0:
192,192,36464,1,8,0:0:0:0:
448,192,36828,1,0,0:0:0:0:
320,192,37010,1,2,0:0:0:0:
192,192,37192,1,12,0:0:0:0:
448,192,37555,1,2,0:0:0:0:
64,192,37919,1,12,0:0:0:0:
192,192,38101,1,2,0:0:0:0:
320,192,38282,128,8,38646:0:0:0:0:
64,192,38646,128,2,39010:0:0:0:0:
448,192,39010,1,6,0:0:0:0:
320,192,39192,1,2,0:0:0:0:
192,192,39373,1,8,0:0:0:0:
320,192,39737,1,8,0:0:0:0:
192,192,39919,1,6,0:0:0:0:
64,192,40101,1,8,0:0:0:0:
448,192,40282,128,6,40646:0:0:0:0:
64,192,40646,1,0,0:0:0:50:Tom2.wav
192,192,40828,1,2,0:0:0:0:
320,192,41010,1,8,0:0:0:0:
192,192,41192,1,8,0:0:0:0:
448,192,41555,128,12,41919:0:0:0:0:
64,192,41919,1,6,0:0:0:0:
192,192,42282,1,2,0:0:0:0:
320,192,42646,1,2,0:0:0:0:
448,192,43010,1,2,0:0:0:0:
64,192,43373,1,2,0:0:0:0:
320,192,43737,1,2,0:0:0:0:
192,192,44101,1,2,0:0:0:0:
448,192,44464,1,2,0:0:0:0:
64,192,44828,1,2,0:0:0:0:
64,192,45192,1,2,0:0:0:0:
320,192,45555,1,2,0:0:0:0:
320,192,45919,1,2,0:0:0:0:
192,192,46282,1,2,0:0:0:0:
192,192,46646,1,2,0:0:0:0:
448,192,47010,1,2,0:0:0:0:
320,192,47192,1,0,0:0:0:50:Tom2.wav
192,192,47373,1,8,0:0:0:0:
64,192,47555,1,0,0:0:0:70:Tom3.wav
320,192,47737,1,2,0:0:0:0:
448,192,47737,1,4,0:0:0:0:
320,192,48282,1,2,0:0:0:0:
192,192,48464,1,12,0:0:0:0:
64,192,49192,1,6,0:0:0:0:
320,192,49373,1,8,0:0:0:0:
448,192,49737,1,2,0:0:0:0:
192,192,49919,1,12,0:0:0:0:
320,192,50282,1,12,0:0:0:0:
64,192,50646,1,6,0:0:0:0:
320,192,50828,1,2,0:0:0:0:
192,192,51010,1,8,0:0:0:0:
448,192,51373,1,2,0:0:0:0:
192,192,51555,1,2,0:0:0:0:
320,192,51737,1,8,0:0:0:0:
64,192,52101,1,10,0:0:0:0:
192,192,52282,1,10,0:0:0:0:
448,192,52464,1,10,0:0:0:0:
320,192,52646,1,10,0:0:0:0:
64,192,53555,1,2,0:0:0:0:
448,192,53555,1,4,0:0:0:0:
192,192,53919,1,8,0:0:0:0:
320,192,54282,1,8,0:0:0:0:
192,192,54646,1,12,0:0:0:0:
448,192,55010,1,8,0:0:0:0:
320,192,55373,1,12,0:0:0:0:
64,192,55737,1,12,0:0:0:0:
192,192,56101,1,12,0:0:0:0:
448,192,56464,1,12,0:0:0:0:
64,192,56828,128,12,57192:0:0:0:0:
320,192,57192,128,12,57555:0:0:0:0:
192,192,57555,128,12,57919:0:0:0:0:
448,192,57919,128,12,58282:0:0:0:0:
192,192,58282,1,12,0:0:0:0:
320,192,58464,1,2,0:0:0:0:
64,192,58646,1,12,0:0:0:0:
192,192,58828,1,2,0:0:0:0:
448,192,59010,128,12,59373:0:0:0:0:
64,192,59373,1,2,0:0:0:0:
192,192,59373,1,4,0:0:0:0:
320,192,59737,1,12,0:0:0:0:
192,192,60101,1,12,0:0:0:0:
448,192,60464,1,12,0:0:0:0:
64,192,60828,1,12,0:0:0:0:
192,192,61192,1,12,0:0:0:0:
320,192,61555,1,12,0:0:0:0:
192,192,61919,1,12,0:0:0:0:
448,192,62282,128,12,62646:0:0:0:0:
64,192,62646,128,12,63010:0:0:0:0:
320,192,63010,128,12,63373:0:0:0:0:
192,192,63373,1,8,0:0:0:0:
448,192,63555,1,6,0:0:0:0:
64,192,63919,1,2,0:0:0:0:
320,192,64101,1,8,0:0:0:0:
192,192,64282,1,6,0:0:0:0:
448,192,64646,1,10,0:0:0:0:
320,192,64828,1,10,0:0:0:0:
192,192,65010,1,14,0:0:0:0:
448,192,65192,128,0,65919:0:0:0:0:
64,192,65919,128,0,66646:0:0:0:0:
320,192,66646,128,0,67373:0:0:0:0:
192,192,67373,1,0,0:0:0:0:
448,192,68101,128,0,68828:0:0:0:0:
192,192,68828,128,0,69555:0:0:0:0:
320,192,69555,128,0,70282:0:0:0:0:
64,192,70282,128,0,70646:0:0:0:0:
192,192,70646,128,0,71010:0:0:0:0:
448,192,71010,128,0,71737:0:0:0:0:
64,192,71737,128,0,72464:0:0:0:0:
320,192,72464,128,0,73010:0:0:0:0:
192,192,73010,1,0,0:0:0:0:
64,192,73373,128,0,73919:0:0:0:0:
448,192,73919,128,0,74646:0:0:0:0:
192,192,74646,128,0,75010:0:0:0:0:
320,192,75010,1,0,0:0:0:0:
192,192,76282,128,0,76828:0:0:0:0:
64,192,76828,1,2,0:0:0:0:
448,192,76828,1,4,0:0:0:0:
320,192,77192,1,12,0:0:0:0:
192,192,77555,1,2,0:0:0:0:
448,192,77919,1,12,0:0:0:0:
64,192,78282,128,2,78646:0:0:0:0:
320,192,78646,1,12,0:0:0:0:
192,192,79010,1,0,0:0:0:0:
320,192,79192,1,2,0:0:0:0:
64,192,79373,1,12,0:0:0:0:
448,192,79737,1,2,0:0:0:0:
192,192,80101,128,12,80464:0:0:0:0:
320,192,80464,128,2,80828:0:0:0:0:
64,192,80828,128,12,81192:0:0:0:0:
448,192,81192,128,2,81555:0:0:0:0:
192,192,81555,1,12,0:0:0:0:
320,192,81919,1,6,0:0:0:0:
192,192,82101,1,8,0:0:0:0:
64,192,82282,128,2,82646:0:0:0:0:
448,192,82646,1,2,0:0:0:0:
64,192,83010,1,2,0:0:0:0:
192,192,83010,1,4,0:0:0:0:
320,192,83373,1,2,0:0:0:0:
192,192,83737,1,12,0:0:0:0:
448,192,84101,128,6,84464:0:0:0:0:
320,192,84464,1,8,0:0:0:0:
192,192,84646,1,6,0:0:0:0:
64,192,85010,1,2,0:0:0:0:
448,192,85192,128,8,85555:0:0:0:0:
192,192,85555,1,6,0:0:0:0:
64,192,85919,128,8,86282:0:0:0:0:
320,192,86282,128,10,86646:0:0:0:0:
192,192,86646,1,8,0:0:0:0:
448,192,86828,1,6,0:0:0:0:
192,192,87192,1,10,0:0:0:0:
320,192,87373,1,10,0:0:0:0:
448,192,87555,1,10,0:0:0:0:
64,192,87737,1,14,0:0:0:0:
