osu file format v14

[General]
AudioFilename: audio.ogg
AudioLeadIn: 0
PreviewTime: 53101
Countdown: 0
SampleSet: Soft
StackLeniency: 0.7
Mode: 3
LetterboxInBreaks: 0
SpecialStyle: 0
WidescreenStoryboard: 1

[Editor]
DistanceSpacing: 0.4
BeatDivisor: 4
GridSize: 32
TimelineZoom: 1.9

[Metadata]
Title:Himitsu Koigokoro (TV Size)
TitleUnicode:ヒミツ恋ゴコロ (TV Size)
Artist:CHiCO with HoneyWorks
ArtistUnicode:CHiCO with HoneyWorks
Creator:Lami-
Version:Normal
Source:彼女、お借りします
Tags:savageeeee amiichii op opening japanese j-pop jpop pop soundtrack Rent a Girlfriend Kanojo Okarishimasu Kanokari 2nd Season 2 S2 Anime Secret Romance SMCL-780 i'd id like to borrow a girlfriend second two
BeatmapID:3689913
BeatmapSetID:1798275

[Difficulty]
HPDrainRate:7
CircleSize:4
OverallDifficulty:7
ApproachRate:5
SliderMultiplier:1.4
SliderTickRate:1

[Events]
//Background and Video events
0,0,"Amii.jpg",0,0
Video,-650,"video.mp4"
//Break Periods
//Storyboard Layer 0 (Background)
//Storyboard Layer 1 (Fail)
//Storyboard Layer 2 (Pass)
//Storyboard Layer 3 (Foreground)
//Storyboard Layer 4 (Overlay)
//Storyboard Sound Samples
Sample,29737,0,"soft-hitclap.wav",30
Sample,40828,0,"Tom3.wav",50
Sample,45919,0,"soft-hitfinish.wav",15
Sample,46646,0,"soft-hitfinish.wav",20

[TimingPoints]
1192,363.636363636364,4,2,1,50,1,0
53555,-100,4,2,1,50,0,1
65192,-100,4,2,1,50,0,0
76828,-100,4,2,1,50,0,1
87737,-100,4,2,1,50,0,0

[HitObjects]
192,192,828,128,0,1010:0:0:0:0:
320,192,1010,128,0,1192:0:0:0:0:
64,192,1192,1,4,0:0:0:0:
448,192,1192,128,2,1555:0:0:0:0:
64,192,1555,128,0,1919:0:0:0:0:
320,192,1919,128,4,2282:0:0:0:0:
448,192,1919,1,2,0:0:0:0:
192,192,2282,128,0,2646:0:0:0:0:
64,192,2646,1,2,0:0:0:0:
448,192,2646,128,4,2828:0:0:0:0:
192,192,2828,128,0,3010:0:0:0:0:
320,192,3010,128,0,3192:0:0:0:0:
64,192,3192,128,0,3373:0:0:0:0:
192,192,3373,1,0,0:0:0:0:
448,192,3737,128,0,3919:0:0:0:50:Tom3.wav
320,192,3919,128,0,4101:0:0:0:0:
64,192,4101,128,4,4282:0:0:0:0:
192,192,4101,1,2,0:0:0:0:
448,192,4282,128,0,4464:0:0:0:0:
192,192,4464,128,0,4646:0:0:0:0:
320,192,4646,128,0,4828:0:0:0:0:
192,192,4828,1,2,0:0:0:0:
448,192,4828,128,4,5010:0:0:0:0:
64,192,5010,128,0,5192:0:0:0:0:
320,192,5192,128,0,5373:0:0:0:0:
192,192,5373,128,0,5555:0:0:0:0:
64,192,5555,1,2,0:0:0:0:
448,192,5555,128,4,6282:0:0:0:0:
192,192,5919,1,0,0:0:0:0:
320,192,6282,1,0,0:0:0:0:
64,192,6646,128,4,6828:0:0:0:0:
192,192,6828,128,0,7010:0:0:0:0:
320,192,7010,1,2,0:0:0:0:
448,192,7010,128,4,7373:0:0:0:0:
192,192,7373,128,2,7555:0:0:0:0:
64,192,7555,128,0,7737:0:0:0:0:
320,192,7737,1,2,0:0:0:0:
448,192,7737,128,0,7919:0:0:0:0:
192,192,7919,128,0,8101:0:0:0:0:
64,192,8101,1,2,0:0:0:0:
448,192,8282,128,0,8464:0:0:0:0:
64,192,8464,128,2,8646:0:0:0:0:
192,192,8464,1,0,0:0:0:0:
320,192,8646,128,0,8828:0:0:0:0:
192,192,8828,128,2,9010:0:0:0:0:
64,192,9010,1,4,0:0:0:0:
448,192,9010,128,0,9192:0:0:0:0:
320,192,9192,1,2,0:0:0:0:
64,192,9373,1,4,0:0:0:0:
192,192,9373,1,0,0:0:0:0:
320,192,9555,1,2,0:0:0:0:
192,192,9737,128,4,9919:0:0:0:0:
320,192,9737,1,0,0:0:0:0:
64,192,9919,128,2,10282:0:0:0:0:
448,192,9919,1,4,0:0:0:0:
192,192,10282,1,8,0:0:0:0:
448,192,10282,1,2,0:0:0:0:
320,192,10464,1,8,0:0:0:0:
64,192,10646,1,8,0:0:0:0:
192,192,10646,1,2,0:0:0:0:
448,192,10828,1,8,0:0:0:0:
192,192,11010,1,8,0:0:0:0:
320,192,11010,1,0,0:0:0:0:
64,192,11192,1,2,0:0:0:0:
448,192,11192,128,4,11555:0:0:0:0:
64,192,11555,1,2,0:0:0:0:
320,192,11555,1,8,0:0:0:0:
192,192,11737,1,10,0:0:0:0:
320,192,11919,1,10,0:0:0:0:
448,192,11919,1,4,0:0:0:0:
64,192,12101,128,0,12464:0:0:0:0:
448,192,12464,128,0,12828:0:0:0:0:
64,192,12828,1,2,0:0:0:0:
192,192,12828,1,4,0:0:0:0:
64,192,13192,1,8,0:0:0:0:
448,192,13192,1,4,0:0:0:0:
192,192,13555,1,12,0:0:0:0:
448,192,13737,1,2,0:0:0:0:
64,192,13919,1,12,0:0:0:0:
192,192,14101,1,2,0:0:0:0:
320,192,14282,1,8,0:0:0:0:
448,192,14282,1,4,0:0:0:0:
320,192,14646,1,12,0:0:0:0:
192,192,14828,1,2,0:0:0:0:
448,192,15010,1,12,0:0:0:0:
64,192,15192,1,2,0:0:0:0:
320,192,15373,1,12,0:0:0:0:
448,192,15555,1,2,0:0:0:0:
64,192,15737,1,8,0:0:0:0:
192,192,15737,1,4,0:0:0:0:
64,192,16101,1,12,0:0:0:0:
192,192,16282,1,2,0:0:0:0:
448,192,16464,1,8,0:0:0:0:
320,192,16646,1,6,0:0:0:0:
192,192,16828,1,8,0:0:0:0:
64,192,17010,128,2,17373:0:0:0:0:
448,192,17010,1,4,0:0:0:0:
192,192,17373,1,2,0:0:0:0:
320,192,17555,1,8,0:0:0:0:
64,192,17737,1,2,0:0:0:0:
192,192,17737,1,4,0:0:0:0:
448,192,17919,128,0,18282:0:0:0:0:
320,192,18282,1,10,0:0:0:0:
192,192,18373,1,8,0:0:0:0:
64,192,18464,1,0,0:0:0:70:Tom3.wav
320,192,18646,1,2,0:0:0:0:
448,192,18646,128,4,19010:0:0:0:0:
192,192,19010,128,2,19373:0:0:0:0:
320,192,19373,128,2,19737:0:0:0:0:
64,192,19737,128,2,20101:0:0:0:0:
192,192,20101,128,2,20464:0:0:0:0:
448,192,20101,1,0,0:0:0:0:
448,192,20464,128,2,20646:0:0:0:0:
64,192,20646,128,0,20828:0:0:0:0:
320,192,21010,128,0,21192:0:0:0:0:
192,192,21192,128,2,21373:0:0:0:0:
320,192,21373,128,0,21555:0:0:0:0:
64,192,21555,1,2,0:0:0:0:
448,192,21555,128,0,21737:0:0:0:0:
64,192,21737,128,0,21919:0:0:0:0:
192,192,21919,1,2,0:0:0:0:
448,192,22282,1,2,0:0:0:0:
192,192,22464,128,0,22646:0:0:0:0:
320,192,22646,128,2,22828:0:0:0:0:
192,192,22828,128,0,23010:0:0:0:0:
64,192,23010,128,2,23192:0:0:0:0:
448,192,23010,1,0,0:0:0:0:
448,192,23192,128,0,23373:0:0:0:0:
64,192,23373,1,2,0:0:0:0:
320,192,23555,1,0,0:0:0:0:
192,192,23737,1,2,0:0:0:0:
448,192,23919,1,0,0:0:0:0:
320,192,24101,1,6,0:0:0:0:
64,192,24464,128,4,24828:0:0:0:0:
448,192,24464,1,2,0:0:0:0:
192,192,24828,128,2,25192:0:0:0:0:
320,192,25192,128,2,25555:0:0:0:0:
448,192,25555,128,2,25919:0:0:0:0:
64,192,25919,1,2,0:0:0:0:
192,192,25919,128,0,26282:0:0:0:0:
64,192,26282,128,2,26464:0:0:0:0:
320,192,26464,128,4,26646:0:0:0:0:
192,192,26646,1,2,0:0:0:0:
448,192,26828,128,0,27010:0:0:0:0:
192,192,27010,128,2,27192:0:0:0:0:
320,192,27192,128,0,27373:0:0:0:0:
64,192,27373,128,2,27737:0:0:0:0:
448,192,27373,1,0,0:0:0:0:
320,192,27737,128,6,27919:0:0:0:0:
192,192,27919,128,0,28101:0:0:0:50:Tom1.wav
64,192,28101,1,2,0:0:0:0:
448,192,28101,128,0,28464:0:0:0:0:
320,192,28464,128,8,28646:0:0:0:0:
64,192,28646,128,2,29010:0:0:0:0:
192,192,28646,1,4,0:0:0:0:
320,192,29010,1,2,0:0:0:0:
448,192,29192,1,12,0:0:0:0:
64,192,29373,1,0,0:0:0:0:
320,192,29555,1,2,0:0:0:0:
192,192,29737,1,2,0:0:0:0:
64,192,29919,1,2,0:0:0:0:
448,192,29919,1,0,0:0:0:30:soft-hitclap.wav
320,192,30101,1,0,0:0:0:50:Tom2.wav
64,192,30282,1,2,0:0:0:0:
448,192,30282,128,4,30646:0:0:0:0:
64,192,30646,128,8,31010:0:0:0:0:
192,192,30646,1,0,0:0:0:0:
320,192,31010,128,0,31373:0:0:0:0:
192,192,31373,128,8,31737:0:0:0:0:
448,192,31373,1,0,0:0:0:0:
64,192,31737,1,2,0:0:0:0:
448,192,31737,128,0,32101:0:0:0:0:
64,192,32101,1,8,0:0:0:0:
320,192,32101,128,0,32282:0:0:0:0:
192,192,32282,128,0,32464:0:0:0:0:
448,192,32464,1,2,0:0:0:0:
64,192,32646,128,2,32828:0:0:0:0:
192,192,32828,1,8,0:0:0:0:
448,192,32828,128,0,33010:0:0:0:0:
320,192,33010,128,0,33192:0:0:0:0:
64,192,33192,1,2,0:0:0:0:
192,192,33192,128,0,33373:0:0:0:0:
448,192,33373,128,0,33555:0:0:0:0:
64,192,33555,1,8,0:0:0:0:
192,192,33555,1,0,0:0:0:0:
448,192,33919,128,0,34101:0:0:0:0:
64,192,34101,128,2,34282:0:0:0:0:
320,192,34282,128,8,34464:0:0:0:0:
448,192,34282,1,0,0:0:0:0:
192,192,34464,128,0,34646:0:0:0:0:
64,192,34646,1,2,0:0:0:0:
448,192,34646,128,0,34828:0:0:0:0:
64,192,34828,128,0,35010:0:0:0:0:
320,192,35010,1,8,0:0:0:0:
448,192,35010,1,0,0:0:0:0:
192,192,35192,1,0,0:0:0:0:
64,192,35373,1,2,0:0:0:0:
320,192,35555,1,2,0:0:0:0:
64,192,35737,1,8,0:0:0:0:
448,192,35737,1,0,0:0:0:0:
192,192,36101,1,2,0:0:0:0:
448,192,36101,128,4,36464:0:0:0:0:
64,192,36464,1,8,0:0:0:0:
320,192,36464,128,0,36828:0:0:0:0:
192,192,36828,128,0,37192:0:0:0:0:
64,192,37192,128,8,37555:0:0:0:0:
448,192,37192,1,4,0:0:0:0:
320,192,37555,1,2,0:0:0:0:
448,192,37555,128,0,37919:0:0:0:0:
64,192,37919,1,8,0:0:0:0:
192,192,37919,128,4,38101:0:0:0:0:
320,192,38101,128,2,38282:0:0:0:0:
64,192,38282,1,8,0:0:0:0:
448,192,38282,1,0,0:0:0:0:
192,192,38464,1,8,0:0:0:0:
320,192,38555,1,8,0:0:0:0:
448,192,38646,1,2,0:0:0:0:
320,192,38828,1,8,0:0:0:0:
192,192,38919,1,8,0:0:0:0:
64,192,39010,128,2,39373:0:0:0:0:
448,192,39010,1,4,0:0:0:0:
192,192,39373,1,8,0:0:0:0:
448,192,39373,128,0,39555:0:0:0:0:
320,192,39555,128,2,39737:0:0:0:0:
64,192,39737,1,8,0:0:0:0:
192,192,39737,128,0,40101:0:0:0:0:
448,192,40101,128,8,40282:0:0:0:0:
64,192,40282,128,2,40646:0:0:0:0:
320,192,40282,1,4,0:0:0:0:
192,192,40646,1,0,0:0:0:50:Tom2.wav
448,192,40828,1,2,0:0:0:0:
320,192,41010,1,8,0:0:0:0:
64,192,41192,1,8,0:0:0:0:
192,192,41192,1,0,0:0:0:0:
320,192,41373,1,2,0:0:0:0:
192,192,41555,1,8,0:0:0:0:
448,192,41555,128,4,41919:0:0:0:0:
64,192,41919,1,2,0:0:0:0:
320,192,41919,1,4,0:0:0:0:
192,192,42101,1,0,0:0:0:0:
320,192,42282,1,2,0:0:0:0:
448,192,42464,1,4,0:0:0:0:
192,192,42646,1,2,0:0:0:0:
320,192,42828,1,0,0:0:0:0:
64,192,43010,1,2,0:0:0:0:
448,192,43192,1,0,0:0:0:0:
64,192,43373,1,2,0:0:0:0:
192,192,43373,1,0,0:0:0:0:
320,192,43555,1,0,0:0:0:0:
64,192,43737,1,2,0:0:0:0:
448,192,43919,1,4,0:0:0:0:
192,192,44101,1,2,0:0:0:0:
320,192,44282,1,4,0:0:0:0:
64,192,44464,1,2,0:0:0:0:
448,192,44646,1,4,0:0:0:0:
64,192,44828,1,2,0:0:0:0:
192,192,44828,1,0,0:0:0:0:
448,192,45010,1,0,0:0:0:0:
64,192,45192,1,2,0:0:0:0:
192,192,45373,1,0,0:0:0:0:
320,192,45555,1,2,0:0:0:0:
448,192,45555,1,0,0:0:0:10:soft-hitfinish.wav
64,192,45737,1,0,0:0:0:0:
192,192,45919,1,2,0:0:0:0:
448,192,46101,1,0,0:0:0:0:
64,192,46282,1,2,0:0:0:0:
192,192,46282,1,4,0:0:0:20:soft-hitfinish.wav
320,192,46464,1,0,0:0:0:0:
192,192,46646,1,2,0:0:0:0:
448,192,46828,1,0,0:0:0:0:
64,192,47010,1,2,0:0:0:0:
64,192,47192,1,0,0:0:0:50:Tom2.wav
448,192,47373,1,8,0:0:0:0:
448,192,47555,1,0,0:0:0:70:Tom3.wav
64,192,47737,1,2,0:0:0:0:
192,192,47737,1,4,0:0:0:0:
192,192,48101,1,4,0:0:0:0:
448,192,48282,1,2,0:0:0:0:
64,192,48464,1,4,0:0:0:0:
320,192,48464,1,8,0:0:0:0:
320,192,48828,1,4,0:0:0:0:
64,192,49192,1,2,0:0:0:0:
192,192,49192,1,4,0:0:0:0:
320,192,49373,1,8,0:0:0:0:
192,192,49555,1,4,0:0:0:0:
64,192,49737,1,2,0:0:0:0:
320,192,49919,1,8,0:0:0:0:
448,192,49919,1,4,0:0:0:0:
192,192,50101,1,2,0:0:0:0:
64,192,50282,1,8,0:0:0:0:
448,192,50282,1,4,0:0:0:0:
64,192,50646,1,2,0:0:0:0:
192,192,50646,1,4,0:0:0:0:
320,192,50828,1,2,0:0:0:0:
192,192,51010,1,8,0:0:0:0:
448,192,51010,1,0,0:0:0:0:
320,192,51373,1,2,0:0:0:0:
448,192,51373,1,0,0:0:0:0:
64,192,51555,1,2,0:0:0:0:
192,192,51737,1,8,0:0:0:0:
320,192,51737,1,0,0:0:0:0:
64,192,52101,1,2,0:0:0:0:
448,192,52101,1,8,0:0:0:0:
64,192,52282,1,10,0:0:0:0:
320,192,52464,1,10,0:0:0:0:
192,192,52646,1,2,0:0:0:0:
320,192,52646,1,8,0:0:0:0:
64,192,53192,128,0,53373:0:0:0:0:
192,192,53373,128,0,53555:0:0:0:0:
320,192,53555,1,2,0:0:0:0:
448,192,53555,128,4,53919:0:0:0:0:
64,192,53919,128,8,54282:0:0:0:0:
192,192,53919,1,0,0:0:0:0:
320,192,54282,128,8,54646:0:0:0:0:
448,192,54282,1,0,0:0:0:0:
64,192,54646,1,8,0:0:0:0:
192,192,54646,128,4,55010:0:0:0:0:
320,192,55010,1,8,0:0:0:0:
448,192,55010,128,0,55192:0:0:0:0:
64,192,55192,128,0,55373:0:0:0:0:
320,192,55373,128,8,55555:0:0:0:0:
448,192,55373,1,4,0:0:0:0:
192,192,55555,128,2,55737:0:0:0:0:
64,192,55737,1,8,0:0:0:0:
448,192,55737,1,4,0:0:0:0:
192,192,56101,1,8,0:0:0:0:
448,192,56101,128,4,56282:0:0:0:0:
320,192,56282,128,2,56464:0:0:0:0:
64,192,56464,128,8,56646:0:0:0:0:
192,192,56464,1,4,0:0:0:0:
448,192,56646,128,0,56828:0:0:0:0:
64,192,56828,1,8,0:0:0:0:
320,192,56828,128,4,57010:0:0:0:0:
192,192,57010,128,0,57192:0:0:0:0:
320,192,57192,1,8,0:0:0:0:
448,192,57192,128,4,57373:0:0:0:0:
64,192,57373,128,2,57555:0:0:0:0:
320,192,57555,128,8,57737:0:0:0:0:
448,192,57555,1,4,0:0:0:0:
192,192,57737,128,2,57919:0:0:0:0:
64,192,57919,1,8,0:0:0:0:
448,192,57919,128,4,58282:0:0:0:0:
64,192,58282,1,8,0:0:0:0:
320,192,58282,1,4,0:0:0:0:
192,192,58464,1,2,0:0:0:0:
64,192,58646,1,8,0:0:0:0:
448,192,58646,1,4,0:0:0:0:
320,192,58828,1,2,0:0:0:0:
64,192,59010,1,8,0:0:0:0:
192,192,59010,128,4,59192:0:0:0:0:
320,192,59192,128,8,59373:0:0:0:0:
64,192,59373,1,2,0:0:0:0:
448,192,59373,128,4,59737:0:0:0:0:
64,192,59737,1,8,0:0:0:0:
192,192,59737,128,4,59919:0:0:0:0:
320,192,59919,128,0,60101:0:0:0:0:
64,192,60101,128,8,60282:0:0:0:0:
448,192,60101,1,4,0:0:0:0:
192,192,60282,128,2,60464:0:0:0:0:
320,192,60464,1,8,0:0:0:0:
448,192,60464,1,4,0:0:0:0:
448,192,60646,128,2,60828:0:0:0:0:
64,192,60828,128,8,61010:0:0:0:0:
192,192,60828,1,4,0:0:0:0:
320,192,61010,128,0,61192:0:0:0:0:
64,192,61192,1,8,0:0:0:0:
192,192,61192,128,4,61373:0:0:0:0:
448,192,61373,128,2,61555:0:0:0:0:
64,192,61555,1,8,0:0:0:0:
320,192,61555,1,4,0:0:0:0:
192,192,61737,1,2,0:0:0:0:
320,192,61919,128,8,62101:0:0:0:0:
448,192,61919,1,4,0:0:0:0:
192,192,62101,128,2,62282:0:0:0:0:
64,192,62282,128,8,62646:0:0:0:0:
448,192,62282,1,4,0:0:0:0:
192,192,62646,1,8,0:0:0:0:
320,192,62646,128,4,63010:0:0:0:0:
64,192,63010,1,8,0:0:0:0:
448,192,63010,1,4,0:0:0:0:
320,192,63192,1,6,0:0:0:0:
64,192,63373,1,8,0:0:0:0:
192,192,63373,1,0,0:0:0:0:
320,192,63555,1,2,0:0:0:0:
448,192,63555,128,4,63919:0:0:0:0:
64,192,63919,1,2,0:0:0:0:
192,192,64101,1,8,0:0:0:0:
448,192,64101,1,0,0:0:0:0:
64,192,64282,1,2,0:0:0:0:
320,192,64282,128,4,64646:0:0:0:0:
64,192,64646,1,8,0:0:0:0:
192,192,64646,1,2,0:0:0:0:
320,192,64828,1,8,0:0:0:0:
448,192,64828,1,2,0:0:0:0:
64,192,65010,1,10,0:0:0:0:
192,192,65010,1,4,0:0:0:0:
448,192,65192,128,0,65555:0:0:0:0:
320,192,65555,128,0,65919:0:0:0:0:
64,192,65919,128,0,66282:0:0:0:0:
192,192,66282,128,0,66646:0:0:0:0:
448,192,66646,128,0,67010:0:0:0:0:
64,192,66828,128,0,67010:0:0:0:0:
192,192,67010,128,0,67192:0:0:0:0:
320,192,67192,128,0,67373:0:0:0:0:
448,192,67373,1,0,0:0:0:0:
448,192,67737,128,0,67919:0:0:0:0:
320,192,67919,128,0,68101:0:0:0:0:
64,192,68101,128,0,68282:0:0:0:0:
192,192,68282,128,0,68464:0:0:0:0:
448,192,68464,128,0,68646:0:0:0:0:
64,192,68646,128,0,68828:0:0:0:0:
320,192,68828,128,0,69010:0:0:0:0:
192,192,69010,128,0,69192:0:0:0:0:
448,192,69192,128,0,69373:0:0:0:0:
64,192,69373,128,0,69555:0:0:0:0:
320,192,69555,128,0,69919:0:0:0:0:
192,192,70282,1,0,0:0:0:0:
320,192,70464,1,0,0:0:0:0:
448,192,70646,128,0,70828:0:0:0:0:
192,192,70828,1,0,0:0:0:0:
64,192,71010,1,0,0:0:0:0:
448,192,71010,128,0,71373:0:0:0:0:
192,192,71192,1,0,0:0:0:0:
320,192,71373,128,0,71737:0:0:0:0:
448,192,71555,1,0,0:0:0:0:
64,192,71737,128,0,71919:0:0:0:0:
448,192,71919,128,0,72101:0:0:0:0:
320,192,72101,1,0,0:0:0:0:
192,192,72282,128,0,72464:0:0:0:0:
320,192,72464,128,0,72828:0:0:0:0:
64,192,72646,128,0,72828:0:0:0:0:
192,192,72828,128,0,73010:0:0:0:0:
448,192,73010,128,0,73192:0:0:0:0:
64,192,73373,1,0,0:0:0:0:
320,192,73555,128,0,73737:0:0:0:0:
192,192,73737,128,0,73919:0:0:0:0:
448,192,73919,128,0,74282:0:0:0:0:
320,192,74101,1,0,0:0:0:0:
64,192,74282,128,0,74646:0:0:0:0:
192,192,74464,1,0,0:0:0:0:
320,192,74646,128,0,74828:0:0:0:0:
192,192,74828,128,0,75010:0:0:0:0:
448,192,75010,128,0,75192:0:0:0:0:
64,192,75192,128,0,75373:0:0:0:0:
448,192,76282,128,0,76464:0:0:0:0:
192,192,76464,128,0,76646:0:0:0:0:
320,192,76646,128,0,76828:0:0:0:0:
64,192,76828,128,2,77192:0:0:0:0:
448,192,76828,1,4,0:0:0:0:
320,192,77192,1,8,0:0:0:0:
448,192,77192,128,4,77555:0:0:0:0:
64,192,77555,1,2,0:0:0:0:
192,192,77555,128,0,77919:0:0:0:0:
320,192,77919,128,8,78282:0:0:0:0:
448,192,77919,1,4,0:0:0:0:
64,192,78282,128,2,78464:0:0:0:0:
192,192,78282,1,0,0:0:0:0:
448,192,78464,128,2,78646:0:0:0:0:
192,192,78646,128,8,78828:0:0:0:0:
320,192,78646,1,4,0:0:0:0:
320,192,78828,128,2,79010:0:0:0:0:
64,192,79010,1,0,0:0:0:0:
448,192,79192,1,2,0:0:0:0:
64,192,79373,128,8,79555:0:0:0:0:
320,192,79373,1,4,0:0:0:0:
192,192,79555,128,0,79737:0:0:0:0:
320,192,79737,1,2,0:0:0:0:
448,192,79737,128,0,79919:0:0:0:0:
64,192,79919,128,0,80101:0:0:0:0:
192,192,80101,128,8,80282:0:0:0:0:
448,192,80101,1,4,0:0:0:0:
320,192,80282,128,0,80464:0:0:0:0:
64,192,80464,128,2,80646:0:0:0:0:
192,192,80464,1,0,0:0:0:0:
448,192,80646,128,2,80828:0:0:0:0:
64,192,80828,1,8,0:0:0:0:
192,192,80828,128,4,81010:0:0:0:0:
320,192,81010,128,0,81192:0:0:0:0:
64,192,81192,128,2,81555:0:0:0:0:
448,192,81192,1,0,0:0:0:0:
320,192,81373,1,2,0:0:0:0:
192,192,81555,1,8,0:0:0:0:
448,192,81555,1,4,0:0:0:0:
64,192,81737,1,2,0:0:0:0:
320,192,81919,1,6,0:0:0:0:
64,192,82101,1,8,0:0:0:0:
192,192,82101,1,0,0:0:0:0:
320,192,82282,128,2,82464:0:0:0:0:
448,192,82282,1,0,0:0:0:0:
192,192,82464,128,8,82646:0:0:0:0:
64,192,82646,128,2,83010:0:0:0:0:
448,192,82646,1,0,0:0:0:0:
192,192,82828,1,0,0:0:0:70:Tom2.wav
320,192,83010,128,2,83373:0:0:0:0:
448,192,83010,1,4,0:0:0:0:
64,192,83373,1,2,0:0:0:0:
448,192,83373,128,0,83555:0:0:0:0:
192,192,83555,128,2,83737:0:0:0:0:
320,192,83737,128,8,83919:0:0:0:0:
448,192,83737,1,4,0:0:0:0:
64,192,83919,128,8,84101:0:0:0:0:
320,192,84101,1,2,0:0:0:0:
448,192,84101,128,4,84282:0:0:0:0:
192,192,84282,128,2,84464:0:0:0:0:
64,192,84464,1,8,0:0:0:0:
320,192,84464,128,0,84646:0:0:0:0:
192,192,84646,1,2,0:0:0:0:
448,192,84646,128,4,84828:0:0:0:0:
64,192,85010,1,2,0:0:0:0:
320,192,85192,128,8,85373:0:0:0:0:
448,192,85192,1,0,0:0:0:0:
192,192,85373,128,0,85555:0:0:0:70:Tom2.wav
64,192,85555,1,2,0:0:0:0:
448,192,85555,128,4,85919:0:0:0:0:
64,192,85919,128,8,86101:0:0:0:0:
192,192,85919,1,0,0:0:0:0:
320,192,86101,128,0,86282:0:0:0:0:
64,192,86282,1,8,0:0:0:0:
448,192,86282,128,2,86464:0:0:0:0:
192,192,86464,128,0,86646:0:0:0:20:soft-hitclap.wav
320,192,86646,128,8,86828:0:0:0:0:
448,192,86646,1,0,0:0:0:0:
64,192,86828,128,2,87192:0:0:0:0:
192,192,86828,1,4,0:0:0:0:
320,192,87192,1,8,0:0:0:0:
448,192,87192,1,2,0:0:0:0:
320,192,87373,1,10,0:0:0:0:
192,192,87555,1,10,0:0:0:0:
192,192,87737,1,10,0:0:0:0:
448,192,87737,1,4,0:0:0:0:
