osu file format v14

[General]
AudioFilename: audio.ogg
AudioLeadIn: 0
PreviewTime: 53101
Countdown: 0
SampleSet: Soft
StackLeniency: 0.7
Mode: 3
LetterboxInBreaks: 0
SpecialStyle: 0
WidescreenStoryboard: 1

[Editor]
Bookmarks: 53555
DistanceSpacing: 0.4
BeatDivisor: 4
GridSize: 32
TimelineZoom: 1.7

[Metadata]
Title:Himitsu Koigokoro (TV Size)
TitleUnicode:ヒミツ恋ゴコロ (TV Size)
Artist:CHiCO with HoneyWorks
ArtistUnicode:CHiCO with HoneyWorks
Creator:Lami-
Version:Amii's Secret Love
Source:彼女、お借りします
Tags:savageeeee amiichii op opening japanese j-pop jpop pop soundtrack Rent a Girlfriend Kanojo Okarishimasu Kanokari 2nd Season 2 S2 Anime Secret Romance SMCL-780 i'd id like to borrow a girlfriend second two
BeatmapID:3689170
BeatmapSetID:1798275

[Difficulty]
HPDrainRate:8
CircleSize:4
OverallDifficulty:8
ApproachRate:5
SliderMultiplier:1.4
SliderTickRate:1

[Events]
//Background and Video events
0,0,"Amii.jpg",0,0
Video,-650,"video.mp4"
//Break Periods
//Storyboard Layer 0 (Background)
//Storyboard Layer 1 (Fail)
//Storyboard Layer 2 (Pass)
//Storyboard Layer 3 (Foreground)
//Storyboard Layer 4 (Overlay)
//Storyboard Sound Samples
Sample,82919,0,"Tom3.wav",70

[TimingPoints]
1192,363.636363636364,4,2,1,50,1,0
53555,-100,4,2,1,50,0,1
65192,-100,4,2,1,50,0,0
76828,-100,4,2,1,50,0,1
87737,-100,4,2,1,50,0,0

[HitObjects]
64,192,828,128,0,1010:0:0:0:0:
320,192,1010,128,0,1192:0:0:0:0:
64,192,1192,128,4,1555:0:0:0:0:
192,192,1192,1,2,0:0:0:0:
448,192,1192,128,0,1919:0:0:0:0:
320,192,1555,128,0,1919:0:0:0:0:
64,192,1919,128,4,2646:0:0:0:0:
192,192,1919,128,2,2282:0:0:0:0:
448,192,2282,128,0,2646:0:0:0:0:
192,192,2646,128,2,2737:0:0:0:0:
320,192,2646,128,4,4101:0:0:0:0:
448,192,2828,128,0,2919:0:0:0:0:
64,192,3010,128,0,3101:0:0:0:0:
448,192,3192,128,0,3282:0:0:0:0:
192,192,3373,1,0,0:0:0:0:
64,192,3737,1,0,0:0:0:50:Tom3.wav
448,192,3737,128,0,3828:0:0:0:0:
192,192,3919,128,0,4010:0:0:0:0:
64,192,4101,128,4,4828:0:0:0:0:
448,192,4101,128,2,4192:0:0:0:0:
320,192,4282,128,0,4373:0:0:0:0:
192,192,4464,128,0,4555:0:0:0:0:
320,192,4646,128,0,4737:0:0:0:0:
192,192,4828,128,2,4919:0:0:0:0:
448,192,4828,128,4,5555:0:0:0:0:
64,192,5010,128,0,5101:0:0:0:0:
320,192,5192,128,0,5282:0:0:0:0:
192,192,5373,128,0,5464:0:0:0:0:
64,192,5555,128,2,6919:0:0:0:0:
320,192,5555,128,4,5919:0:0:0:0:
448,192,5919,128,0,6282:0:0:0:0:
192,192,6282,128,0,6646:0:0:0:0:
320,192,6282,1,0,0:0:0:0:
320,192,6646,128,4,6737:0:0:0:0:
448,192,6646,128,0,6919:0:0:0:0:
192,192,6828,128,0,6919:0:0:0:0:
64,192,7010,1,2,0:0:0:0:
320,192,7010,1,4,0:0:0:0:
448,192,7010,128,0,7373:0:0:0:0:
192,192,7192,1,0,0:0:0:0:
64,192,7373,128,2,7464:0:0:0:0:
320,192,7373,1,0,0:0:0:0:
192,192,7555,128,0,7646:0:0:0:0:
64,192,7737,1,2,0:0:0:0:
320,192,7737,1,0,0:0:0:0:
448,192,7737,128,0,7828:0:0:0:0:
192,192,7919,128,0,8010:0:0:0:0:
320,192,8101,1,2,0:0:0:0:
448,192,8101,1,0,0:0:0:0:
64,192,8282,128,0,8373:0:0:0:0:
448,192,8373,1,0,0:0:0:0:
192,192,8464,1,2,0:0:0:0:
320,192,8464,128,0,8555:0:0:0:0:
64,192,8646,128,0,8737:0:0:0:0:
192,192,8828,1,2,0:0:0:0:
448,192,8828,128,0,8919:0:0:0:0:
320,192,9010,128,4,9101:0:0:0:0:
64,192,9192,1,2,0:0:0:0:
192,192,9192,1,0,0:0:0:0:
448,192,9373,1,4,0:0:0:0:
192,192,9555,1,2,0:0:0:0:
320,192,9555,128,0,9646:0:0:0:0:
320,192,9737,128,4,9828:0:0:0:0:
64,192,9919,128,2,10282:0:0:0:0:
448,192,9919,1,4,0:0:0:0:
192,192,10101,1,0,0:0:0:0:
192,192,10282,1,8,0:0:0:0:
320,192,10282,128,2,10646:0:0:0:0:
448,192,10282,1,0,0:0:0:0:
64,192,10464,1,8,0:0:0:0:
448,192,10464,1,0,0:0:0:0:
64,192,10646,128,8,10737:0:0:0:0:
192,192,10646,128,2,10737:0:0:0:0:
448,192,10646,128,0,10737:0:0:0:0:
64,192,10828,128,8,10919:0:0:0:0:
192,192,10828,128,0,10919:0:0:0:0:
320,192,10828,128,0,10919:0:0:0:0:
192,192,11010,128,8,11101:0:0:0:0:
320,192,11010,128,0,11101:0:0:0:0:
448,192,11010,128,0,11101:0:0:0:0:
64,192,11192,128,2,11464:0:0:0:0:
192,192,11192,128,4,11464:0:0:0:0:
320,192,11192,128,0,11464:0:0:0:0:
448,192,11192,128,0,11464:0:0:0:0:
64,192,11555,128,2,11646:0:0:0:0:
320,192,11555,128,8,11646:0:0:0:0:
448,192,11555,128,0,11646:0:0:0:0:
64,192,11737,128,8,11828:0:0:0:0:
192,192,11737,128,2,11828:0:0:0:0:
448,192,11737,128,0,11828:0:0:0:0:
64,192,11919,128,8,12010:0:0:0:0:
192,192,11919,128,2,12010:0:0:0:0:
320,192,11919,128,4,12010:0:0:0:0:
448,192,12101,128,0,12373:0:0:0:0:
64,192,12192,128,0,12373:0:0:0:0:
192,192,12464,1,0,0:0:0:0:
320,192,12464,1,0,0:0:0:0:
448,192,12555,1,0,0:0:0:0:
64,192,12601,1,0,0:0:0:0:
192,192,12646,1,0,0:0:0:0:
320,192,12692,1,0,0:0:0:0:
448,192,12737,1,0,0:0:0:0:
64,192,12828,128,2,13192:0:0:0:0:
192,192,12828,1,4,0:0:0:0:
320,192,12828,1,0,0:0:0:0:
448,192,13010,1,0,0:0:0:0:
192,192,13192,1,8,0:0:0:0:
320,192,13192,1,4,0:0:0:0:
448,192,13192,128,0,13555:0:0:0:0:
64,192,13373,1,0,0:0:0:0:
64,192,13555,1,8,0:0:0:0:
192,192,13555,1,4,0:0:0:0:
320,192,13555,1,0,0:0:0:0:
320,192,13737,1,2,0:0:0:0:
448,192,13737,1,0,0:0:0:0:
64,192,13919,1,8,0:0:0:0:
192,192,13919,1,4,0:0:0:0:
448,192,13919,1,0,0:0:0:0:
64,192,14101,1,2,0:0:0:0:
320,192,14101,1,0,0:0:0:0:
192,192,14192,1,0,0:0:0:0:
64,192,14282,1,8,0:0:0:0:
320,192,14282,1,4,0:0:0:0:
448,192,14282,128,0,14464:0:0:0:0:
192,192,14464,128,0,14646:0:0:0:0:
64,192,14646,1,8,0:0:0:0:
320,192,14646,128,4,14828:0:0:0:0:
448,192,14646,1,0,0:0:0:0:
64,192,14828,128,2,15010:0:0:0:0:
192,192,14828,1,0,0:0:0:0:
192,192,15010,1,8,0:0:0:0:
320,192,15010,1,4,0:0:0:0:
448,192,15010,1,0,0:0:0:0:
64,192,15192,1,2,0:0:0:0:
448,192,15192,128,0,15373:0:0:0:0:
64,192,15373,1,8,0:0:0:0:
192,192,15373,128,4,15555:0:0:0:0:
320,192,15373,1,0,0:0:0:0:
320,192,15555,1,2,0:0:0:0:
448,192,15555,1,0,0:0:0:0:
64,192,15737,1,8,0:0:0:0:
192,192,15737,1,4,0:0:0:0:
448,192,15737,1,0,0:0:0:0:
320,192,15919,128,0,16101:0:0:0:0:
64,192,16101,128,8,16282:0:0:0:0:
192,192,16101,1,4,0:0:0:0:
448,192,16101,1,0,0:0:0:0:
320,192,16282,1,2,0:0:0:0:
448,192,16282,1,0,0:0:0:0:
64,192,16373,1,2,0:0:0:0:
192,192,16373,1,0,0:0:0:0:
320,192,16464,128,8,16646:0:0:0:0:
448,192,16464,1,0,0:0:0:0:
64,192,16646,1,2,0:0:0:0:
192,192,16646,128,4,16828:0:0:0:0:
64,192,16828,1,8,0:0:0:0:
320,192,16828,128,0,17010:0:0:0:0:
448,192,16828,1,0,0:0:0:0:
64,192,17010,1,2,0:0:0:0:
192,192,17010,1,4,0:0:0:0:
448,192,17010,128,0,17373:0:0:0:0:
192,192,17373,1,2,0:0:0:0:
320,192,17373,1,0,0:0:0:0:
64,192,17555,1,8,0:0:0:0:
192,192,17555,1,0,0:0:0:0:
448,192,17555,1,0,0:0:0:0:
64,192,17737,1,2,0:0:0:0:
192,192,17737,1,4,0:0:0:0:
320,192,17737,1,0,0:0:0:0:
448,192,17919,1,0,0:0:0:0:
320,192,17964,1,0,0:0:0:0:
192,192,18010,1,0,0:0:0:0:
64,192,18055,1,0,0:0:0:0:
320,192,18101,1,0,0:0:0:70:Tom3.wav
448,192,18101,1,0,0:0:0:0:
64,192,18192,1,8,0:0:0:0:
192,192,18192,1,0,0:0:0:0:
320,192,18282,1,8,0:0:0:0:
448,192,18282,1,2,0:0:0:0:
320,192,18373,1,8,0:0:0:0:
448,192,18373,1,0,0:0:0:0:
64,192,18464,1,0,0:0:0:70:Tom3.wav
192,192,18464,1,0,0:0:0:0:
448,192,18555,1,0,0:0:0:0:
64,192,18646,1,2,0:0:0:0:
192,192,18646,1,4,0:0:0:0:
320,192,18646,1,0,0:0:0:0:
448,192,18828,128,0,19010:0:0:0:0:
64,192,19010,1,2,0:0:0:0:
320,192,19010,1,0,0:0:0:0:
192,192,19192,128,0,19373:0:0:0:0:
320,192,19373,1,2,0:0:0:0:
448,192,19373,1,0,0:0:0:0:
64,192,19555,128,0,19737:0:0:0:0:
192,192,19737,1,2,0:0:0:0:
448,192,19737,1,0,0:0:0:0:
320,192,19919,128,0,20101:0:0:0:0:
64,192,20101,1,2,0:0:0:0:
192,192,20101,1,0,0:0:0:0:
448,192,20282,128,0,20464:0:0:0:0:
64,192,20464,1,2,0:0:0:0:
320,192,20464,1,0,0:0:0:0:
192,192,20646,128,0,20828:0:0:0:0:
64,192,20828,1,2,0:0:0:0:
448,192,20828,1,0,0:0:0:0:
320,192,21010,128,0,21192:0:0:0:0:
192,192,21192,1,2,0:0:0:0:
448,192,21192,1,0,0:0:0:0:
64,192,21373,128,0,21555:0:0:0:0:
192,192,21555,1,2,0:0:0:0:
320,192,21555,1,0,0:0:0:0:
448,192,21737,128,0,21919:0:0:0:0:
64,192,21919,1,2,0:0:0:0:
192,192,21919,1,0,0:0:0:0:
320,192,22101,128,0,22282:0:0:0:0:
64,192,22282,1,2,0:0:0:0:
448,192,22282,1,0,0:0:0:0:
192,192,22464,128,0,22646:0:0:0:0:
320,192,22646,1,2,0:0:0:0:
448,192,22646,1,0,0:0:0:0:
64,192,22828,128,0,23010:0:0:0:0:
192,192,23010,1,2,0:0:0:0:
320,192,23010,1,0,0:0:0:0:
448,192,23192,128,0,23373:0:0:0:0:
64,192,23373,128,2,23555:0:0:0:0:
192,192,23373,1,0,0:0:0:0:
320,192,23555,128,0,23737:0:0:0:0:
64,192,23737,1,2,0:0:0:0:
448,192,23737,128,0,23919:0:0:0:0:
192,192,23919,128,0,24101:0:0:0:0:
320,192,24010,1,0,0:0:0:0:
64,192,24101,128,2,24282:0:0:0:0:
448,192,24101,1,4,0:0:0:0:
320,192,24282,128,0,24464:0:0:0:0:
64,192,24464,1,4,0:0:0:0:
192,192,24464,1,2,0:0:0:0:
448,192,24464,1,0,0:0:0:0:
192,192,24646,128,0,24828:0:0:0:0:
320,192,24828,1,2,0:0:0:0:
448,192,24828,1,0,0:0:0:0:
64,192,25010,128,0,25192:0:0:0:0:
192,192,25192,1,2,0:0:0:0:
320,192,25192,1,0,0:0:0:0:
448,192,25373,128,0,25555:0:0:0:0:
64,192,25555,1,2,0:0:0:0:
192,192,25555,1,0,0:0:0:0:
320,192,25737,128,0,25919:0:0:0:0:
192,192,25828,1,0,0:0:0:0:
64,192,25919,1,2,0:0:0:0:
448,192,25919,1,0,0:0:0:0:
192,192,26101,128,0,26282:0:0:0:0:
320,192,26282,1,2,0:0:0:0:
448,192,26282,1,0,0:0:0:0:
64,192,26464,128,4,26646:0:0:0:0:
192,192,26646,1,2,0:0:0:0:
448,192,26646,1,0,0:0:0:0:
320,192,26828,128,0,27010:0:0:0:0:
64,192,27010,128,2,27192:0:0:0:0:
192,192,27010,1,0,0:0:0:0:
320,192,27192,128,0,27373:0:0:0:0:
192,192,27282,1,0,0:0:0:0:
64,192,27373,1,2,0:0:0:0:
448,192,27373,128,0,27464:0:0:0:0:
448,192,27555,128,0,27737:0:0:0:0:
64,192,27737,1,2,0:0:0:0:
192,192,27737,1,4,0:0:0:0:
320,192,27919,1,0,0:0:0:50:Tom1.wav
448,192,27919,1,0,0:0:0:0:
64,192,28010,1,0,0:0:0:50:Tom2.wav
192,192,28010,1,0,0:0:0:0:
320,192,28101,128,2,28192:0:0:0:0:
448,192,28101,1,0,0:0:0:0:
192,192,28282,1,0,0:0:0:70:Tom3.wav
320,192,28282,128,0,28464:0:0:0:0:
64,192,28464,1,8,0:0:0:0:
192,192,28464,1,0,0:0:0:0:
448,192,28464,1,0,0:0:0:0:
64,192,28646,128,2,29010:0:0:0:0:
320,192,28646,1,4,0:0:0:0:
448,192,28646,1,0,0:0:0:0:
192,192,29010,1,2,0:0:0:0:
448,192,29010,1,0,0:0:0:0:
64,192,29192,1,8,0:0:0:0:
192,192,29192,1,4,0:0:0:0:
320,192,29192,1,0,0:0:0:0:
448,192,29373,1,0,0:0:0:0:
320,192,29419,1,0,0:0:0:0:
192,192,29464,1,0,0:0:0:0:
64,192,29510,1,0,0:0:0:0:
320,192,29555,1,2,0:0:0:0:
448,192,29555,1,0,0:0:0:0:
64,192,29646,1,0,0:0:0:25:soft-hitclap.wav
192,192,29646,1,0,0:0:0:0:
320,192,29737,1,2,0:0:0:0:
448,192,29737,1,0,0:0:0:30:soft-hitclap.wav
64,192,29828,1,0,0:0:0:30:soft-hitclap.wav
192,192,29828,1,0,0:0:0:0:
320,192,29919,1,2,0:0:0:0:
448,192,29919,1,0,0:0:0:30:soft-hitclap.wav
320,192,30010,1,0,0:0:0:30:soft-hitclap.wav
448,192,30010,1,0,0:0:0:0:
64,192,30101,1,0,0:0:0:50:Tom2.wav
192,192,30101,1,0,0:0:0:0:
320,192,30192,1,0,0:0:0:0:
64,192,30282,1,2,0:0:0:0:
192,192,30282,1,4,0:0:0:0:
448,192,30282,1,0,0:0:0:0:
320,192,30464,1,0,0:0:0:0:
64,192,30646,1,8,0:0:0:0:
192,192,30646,1,0,0:0:0:0:
448,192,30646,128,0,30737:0:0:0:0:
320,192,30828,1,0,0:0:0:20:soft-hitclap.wav
192,192,30919,1,0,0:0:0:25:soft-hitclap.wav
448,192,31010,1,0,0:0:0:0:
64,192,31101,1,0,0:0:0:30:soft-hitclap.wav
192,192,31192,128,2,31282:0:0:0:0:
320,192,31192,1,0,0:0:0:0:
64,192,31373,1,8,0:0:0:0:
320,192,31373,1,0,0:0:0:0:
448,192,31373,1,0,0:0:0:0:
192,192,31555,1,0,0:0:0:0:
64,192,31737,1,2,0:0:0:0:
320,192,31737,1,0,0:0:0:0:
448,192,31919,128,0,32101:0:0:0:0:
64,192,32101,128,8,32282:0:0:0:0:
192,192,32101,1,0,0:0:0:0:
320,192,32101,1,0,0:0:0:0:
448,192,32282,128,0,32464:0:0:0:0:
192,192,32373,1,8,0:0:0:0:
64,192,32464,1,2,0:0:0:0:
320,192,32464,1,0,0:0:0:0:
192,192,32646,1,2,0:0:0:0:
320,192,32646,1,0,0:0:0:0:
64,192,32828,1,8,0:0:0:0:
192,192,32828,1,0,0:0:0:0:
448,192,32828,128,0,33192:0:0:0:0:
320,192,33010,1,0,0:0:0:0:
64,192,33192,1,2,0:0:0:0:
192,192,33192,1,0,0:0:0:0:
320,192,33373,1,0,0:0:0:0:
64,192,33555,128,8,33646:0:0:0:0:
192,192,33555,1,0,0:0:0:0:
448,192,33555,1,0,0:0:0:0:
320,192,33737,1,0,0:0:0:20:soft-hitclap.wav
64,192,33828,1,0,0:0:0:25:soft-hitclap.wav
192,192,33919,1,0,0:0:0:0:
320,192,34010,1,0,0:0:0:30:soft-hitclap.wav
64,192,34101,1,2,0:0:0:0:
448,192,34101,128,0,34192:0:0:0:0:
64,192,34282,1,8,0:0:0:0:
192,192,34282,1,0,0:0:0:0:
320,192,34282,1,0,0:0:0:0:
448,192,34464,1,0,0:0:0:0:
192,192,34646,1,2,0:0:0:0:
448,192,34646,1,0,0:0:0:0:
64,192,34828,128,0,35010:0:0:0:0:
192,192,35010,1,8,0:0:0:0:
320,192,35010,128,0,35192:0:0:0:0:
448,192,35010,1,0,0:0:0:0:
448,192,35192,128,0,35373:0:0:0:0:
192,192,35282,1,8,0:0:0:0:
64,192,35373,1,2,0:0:0:0:
320,192,35373,1,0,0:0:0:0:
64,192,35555,128,2,35737:0:0:0:0:
192,192,35555,1,0,0:0:0:0:
192,192,35737,1,8,0:0:0:0:
320,192,35737,1,0,0:0:0:0:
448,192,35737,128,0,35919:0:0:0:0:
64,192,35919,1,0,0:0:0:0:
320,192,36010,1,0,0:0:0:0:
192,192,36101,1,2,0:0:0:0:
448,192,36101,1,4,0:0:0:0:
64,192,36282,1,0,0:0:0:0:
192,192,36464,1,8,0:0:0:0:
320,192,36464,128,0,36555:0:0:0:0:
448,192,36464,1,0,0:0:0:0:
64,192,36646,1,0,0:0:0:20:soft-hitclap.wav
192,192,36737,1,0,0:0:0:25:soft-hitclap.wav
448,192,36828,1,0,0:0:0:0:
320,192,36919,1,0,0:0:0:30:soft-hitclap.wav
64,192,37010,1,2,0:0:0:0:
192,192,37010,128,0,37101:0:0:0:0:
64,192,37192,1,8,0:0:0:0:
320,192,37192,1,4,0:0:0:0:
448,192,37192,1,0,0:0:0:0:
192,192,37373,1,0,0:0:0:0:
320,192,37555,1,2,0:0:0:0:
448,192,37555,1,0,0:0:0:0:
64,192,37737,128,0,37919:0:0:0:0:
192,192,37919,1,8,0:0:0:0:
320,192,37919,1,4,0:0:0:0:
448,192,37919,128,0,38101:0:0:0:0:
64,192,38101,1,2,0:0:0:0:
192,192,38101,128,0,38282:0:0:0:0:
64,192,38282,1,8,0:0:0:0:
320,192,38282,1,0,0:0:0:0:
448,192,38282,1,0,0:0:0:0:
192,192,38464,1,8,0:0:0:0:
448,192,38464,1,0,0:0:0:0:
64,192,38555,1,8,0:0:0:0:
320,192,38555,1,0,0:0:0:0:
192,192,38646,1,2,0:0:0:0:
448,192,38646,1,0,0:0:0:0:
64,192,38828,1,8,0:0:0:0:
320,192,38828,1,0,0:0:0:0:
192,192,38919,1,8,0:0:0:0:
64,192,39010,1,2,0:0:0:0:
320,192,39010,1,4,0:0:0:0:
448,192,39010,1,0,0:0:0:0:
64,192,39192,1,2,0:0:0:0:
320,192,39192,1,0,0:0:0:0:
448,192,39192,1,0,0:0:0:0:
64,192,39373,1,8,0:0:0:0:
192,192,39373,1,0,0:0:0:0:
448,192,39373,1,0,0:0:0:0:
192,192,39555,1,2,0:0:0:0:
320,192,39555,1,0,0:0:0:0:
448,192,39646,1,2,0:0:0:0:
64,192,39737,1,8,0:0:0:0:
192,192,39737,1,0,0:0:0:0:
320,192,39737,1,0,0:0:0:0:
64,192,39919,1,2,0:0:0:0:
192,192,39919,1,4,0:0:0:0:
320,192,39919,1,0,0:0:0:0:
64,192,40101,1,8,0:0:0:0:
320,192,40101,1,0,0:0:0:0:
448,192,40101,1,0,0:0:0:0:
64,192,40282,128,2,40737:0:0:0:0:
192,192,40282,1,4,0:0:0:0:
320,192,40282,1,0,0:0:0:0:
448,192,40282,128,0,40737:0:0:0:0:
192,192,40646,1,0,0:0:0:50:Tom2.wav
320,192,40646,1,0,0:0:0:0:
64,192,40828,1,2,0:0:0:0:
448,192,40828,1,0,0:0:0:50:Tom3.wav
320,192,40919,1,0,0:0:0:25:soft-hitclap.wav
64,192,41010,1,8,0:0:0:0:
192,192,41010,1,0,0:0:0:0:
320,192,41101,1,8,0:0:0:0:
448,192,41101,1,0,0:0:0:0:
64,192,41192,1,8,0:0:0:0:
192,192,41192,1,0,0:0:0:0:
192,192,41373,1,2,0:0:0:0:
320,192,41373,1,0,0:0:0:0:
64,192,41555,128,8,41828:0:0:0:0:
320,192,41555,1,4,0:0:0:0:
448,192,41555,128,0,41828:0:0:0:0:
192,192,41737,1,0,0:0:0:0:
320,192,41828,1,0,0:0:0:0:
64,192,41919,1,2,0:0:0:0:
192,192,41919,1,4,0:0:0:0:
448,192,41919,1,0,0:0:0:0:
320,192,42010,1,0,0:0:0:0:
192,192,42101,1,0,0:0:0:0:
64,192,42192,1,0,0:0:0:0:
320,192,42282,1,2,0:0:0:0:
448,192,42282,1,0,0:0:0:0:
192,192,42373,1,0,0:0:0:0:
320,192,42464,1,4,0:0:0:0:
192,192,42555,1,0,0:0:0:0:
64,192,42646,1,2,0:0:0:0:
448,192,42646,1,0,0:0:0:0:
320,192,42737,1,0,0:0:0:0:
192,192,42828,1,0,0:0:0:0:
320,192,42919,1,0,0:0:0:0:
64,192,43010,1,2,0:0:0:0:
192,192,43010,1,0,0:0:0:0:
448,192,43101,1,0,0:0:0:0:
320,192,43192,1,0,0:0:0:0:
64,192,43282,1,0,0:0:0:0:
192,192,43373,1,2,0:0:0:0:
448,192,43373,1,0,0:0:0:0:
320,192,43464,1,0,0:0:0:0:
64,192,43555,1,0,0:0:0:0:
192,192,43646,1,0,0:0:0:0:
320,192,43737,1,2,0:0:0:0:
448,192,43737,1,0,0:0:0:0:
192,192,43828,1,0,0:0:0:0:
320,192,43919,1,4,0:0:0:0:
448,192,44010,1,0,0:0:0:0:
64,192,44101,1,2,0:0:0:0:
192,192,44101,1,0,0:0:0:0:
320,192,44192,1,0,0:0:0:0:
192,192,44282,1,4,0:0:0:0:
320,192,44373,1,0,0:0:0:0:
64,192,44464,1,2,0:0:0:0:
448,192,44464,1,0,0:0:0:0:
192,192,44555,1,0,0:0:0:0:
320,192,44646,1,4,0:0:0:0:
192,192,44737,1,0,0:0:0:0:
64,192,44828,1,2,0:0:0:0:
320,192,44828,1,0,0:0:0:0:
448,192,44828,128,0,45192:0:0:0:0:
192,192,44919,1,0,0:0:0:0:
320,192,45010,1,0,0:0:0:0:
64,192,45101,1,0,0:0:0:0:
192,192,45192,1,2,0:0:0:0:
320,192,45192,1,0,0:0:0:0:
64,192,45282,1,0,0:0:0:0:
192,192,45373,1,0,0:0:0:0:
448,192,45464,1,0,0:0:0:0:
64,192,45555,128,2,45919:0:0:0:0:
320,192,45555,1,0,0:0:0:10:soft-hitfinish.wav
192,192,45646,1,0,0:0:0:0:
448,192,45737,1,0,0:0:0:0:
320,192,45828,1,0,0:0:0:0:
192,192,45919,1,2,0:0:0:0:
448,192,45919,1,4,0:0:0:15:soft-hitfinish.wav
320,192,46010,1,0,0:0:0:0:
192,192,46101,1,0,0:0:0:0:
64,192,46192,1,0,0:0:0:0:
320,192,46282,1,2,0:0:0:0:
448,192,46282,128,4,46464:0:0:0:20:soft-hitfinish.wav
192,192,46373,1,0,0:0:0:0:
64,192,46464,128,0,46646:0:0:0:0:
320,192,46555,1,0,0:0:0:0:
192,192,46646,128,2,46828:0:0:0:0:
448,192,46646,1,4,0:0:0:20:soft-hitfinish.wav
320,192,46828,128,0,47010:0:0:0:0:
64,192,47010,128,2,47101:0:0:0:0:
448,192,47010,128,0,47101:0:0:0:0:
192,192,47192,128,0,47282:0:0:0:50:Tom2.wav
448,192,47192,128,0,47282:0:0:0:0:
64,192,47373,128,8,47464:0:0:0:0:
320,192,47373,128,0,47464:0:0:0:0:
448,192,47373,1,0,0:0:0:0:
64,192,47555,128,0,47646:0:0:0:70:Tom3.wav
192,192,47555,128,0,47646:0:0:0:0:
320,192,47646,1,0,0:0:0:70:Tom3.wav
64,192,47737,1,2,0:0:0:0:
192,192,47737,1,4,0:0:0:0:
448,192,47737,1,0,0:0:0:0:
320,192,47828,1,0,0:0:0:0:
192,192,47919,1,0,0:0:0:0:
64,192,48010,1,0,0:0:0:0:
320,192,48101,1,4,0:0:0:0:
448,192,48101,1,0,0:0:0:0:
192,192,48192,1,0,0:0:0:0:
320,192,48282,1,2,0:0:0:0:
192,192,48373,1,0,0:0:0:0:
64,192,48464,1,4,0:0:0:0:
448,192,48464,1,8,0:0:0:0:
320,192,48555,1,0,0:0:0:0:
192,192,48646,1,0,0:0:0:0:
320,192,48737,1,0,0:0:0:0:
64,192,48828,1,4,0:0:0:0:
192,192,48828,1,0,0:0:0:0:
448,192,48919,1,0,0:0:0:0:
320,192,49010,1,0,0:0:0:25:soft-hitclap.wav
192,192,49101,1,0,0:0:0:25:soft-hitclap.wav
64,192,49192,1,2,0:0:0:0:
448,192,49192,1,4,0:0:0:0:
192,192,49282,1,0,0:0:0:0:
320,192,49373,1,8,0:0:0:0:
448,192,49464,1,0,0:0:0:0:
64,192,49555,1,4,0:0:0:0:
192,192,49555,1,0,0:0:0:0:
320,192,49646,1,0,0:0:0:0:
64,192,49737,1,2,0:0:0:0:
192,192,49828,1,0,0:0:0:0:
320,192,49919,1,8,0:0:0:0:
448,192,49919,1,4,0:0:0:0:
192,192,50010,1,0,0:0:0:0:
320,192,50101,1,2,0:0:0:0:
448,192,50192,1,0,0:0:0:0:
64,192,50282,1,8,0:0:0:0:
192,192,50282,1,4,0:0:0:0:
320,192,50373,1,0,0:0:0:0:
64,192,50464,1,0,0:0:0:70:Tom3.wav
448,192,50464,1,0,0:0:0:0:
192,192,50555,1,0,0:0:0:70:Tom2.wav
64,192,50646,1,2,0:0:0:0:
320,192,50646,1,4,0:0:0:0:
448,192,50646,1,0,0:0:0:0:
192,192,50828,1,2,0:0:0:0:
320,192,50828,1,0,0:0:0:0:
64,192,51010,1,8,0:0:0:0:
192,192,51010,1,0,0:0:0:0:
448,192,51010,1,0,0:0:0:0:
320,192,51192,1,0,0:0:0:0:
64,192,51282,1,8,0:0:0:0:
192,192,51282,1,0,0:0:0:0:
320,192,51373,1,2,0:0:0:0:
448,192,51373,1,0,0:0:0:0:
192,192,51555,1,2,0:0:0:0:
448,192,51555,1,0,0:0:0:0:
64,192,51737,1,8,0:0:0:0:
192,192,51737,1,0,0:0:0:0:
320,192,51737,1,0,0:0:0:0:
448,192,51919,1,0,0:0:0:0:
64,192,52101,1,2,0:0:0:0:
192,192,52101,1,8,0:0:0:0:
320,192,52101,1,0,0:0:0:0:
64,192,52282,1,8,0:0:0:0:
192,192,52282,1,2,0:0:0:0:
448,192,52282,1,0,0:0:0:0:
64,192,52464,1,2,0:0:0:0:
320,192,52464,1,8,0:0:0:0:
448,192,52464,1,0,0:0:0:0:
192,192,52646,1,2,0:0:0:0:
320,192,52646,1,8,0:0:0:0:
448,192,52646,1,0,0:0:0:0:
64,192,53192,128,0,53373:0:0:0:0:
448,192,53373,128,0,53555:0:0:0:0:
64,192,53555,128,2,53828:0:0:0:0:
192,192,53555,1,4,0:0:0:0:
320,192,53555,1,0,0:0:0:0:
64,192,53919,1,8,0:0:0:0:
192,192,53919,128,0,54192:0:0:0:0:
448,192,53919,1,0,0:0:0:0:
64,192,54282,1,8,0:0:0:0:
192,192,54282,1,0,0:0:0:0:
320,192,54282,128,0,54555:0:0:0:0:
64,192,54464,1,2,0:0:0:0:
448,192,54464,1,0,0:0:0:0:
192,192,54646,1,8,0:0:0:0:
320,192,54646,1,4,0:0:0:0:
448,192,54646,128,0,54919:0:0:0:0:
64,192,54828,1,2,0:0:0:0:
192,192,54828,1,0,0:0:0:0:
320,192,54919,1,0,0:0:0:0:
64,192,55010,1,8,0:0:0:0:
192,192,55010,128,0,55101:0:0:0:0:
448,192,55010,1,0,0:0:0:0:
320,192,55192,128,0,55282:0:0:0:0:
64,192,55373,128,8,55464:0:0:0:0:
192,192,55373,1,4,0:0:0:0:
448,192,55373,1,0,0:0:0:0:
320,192,55555,1,2,0:0:0:0:
448,192,55555,128,0,55646:0:0:0:0:
64,192,55737,1,8,0:0:0:0:
192,192,55737,1,4,0:0:0:0:
320,192,55737,1,0,0:0:0:0:
64,192,55919,1,2,0:0:0:0:
448,192,55919,1,0,0:0:0:0:
192,192,56101,1,8,0:0:0:0:
320,192,56101,1,4,0:0:0:0:
448,192,56101,128,0,56192:0:0:0:0:
64,192,56282,1,2,0:0:0:0:
192,192,56282,128,0,56373:0:0:0:0:
64,192,56464,128,8,56555:0:0:0:0:
320,192,56464,1,4,0:0:0:0:
448,192,56464,1,0,0:0:0:0:
320,192,56646,128,0,56737:0:0:0:0:
64,192,56828,1,8,0:0:0:0:
192,192,56828,1,4,0:0:0:0:
448,192,56828,128,0,56919:0:0:0:0:
192,192,57010,128,0,57101:0:0:0:0:
64,192,57192,1,8,0:0:0:0:
320,192,57192,128,4,57282:0:0:0:0:
448,192,57192,1,0,0:0:0:0:
64,192,57373,128,2,57464:0:0:0:0:
192,192,57373,1,0,0:0:0:0:
192,192,57555,1,8,0:0:0:0:
320,192,57555,1,4,0:0:0:0:
448,192,57555,128,0,57646:0:0:0:0:
64,192,57737,128,2,57828:0:0:0:0:
320,192,57737,1,0,0:0:0:0:
64,192,57919,1,8,0:0:0:0:
192,192,57919,1,4,0:0:0:0:
448,192,57919,128,0,58010:0:0:0:0:
320,192,58101,1,0,0:0:0:0:
64,192,58282,1,8,0:0:0:0:
320,192,58282,1,4,0:0:0:0:
448,192,58282,1,0,0:0:0:0:
64,192,58464,1,2,0:0:0:0:
192,192,58464,1,0,0:0:0:0:
320,192,58555,1,2,0:0:0:0:
64,192,58646,1,8,0:0:0:0:
192,192,58646,1,4,0:0:0:0:
448,192,58646,1,0,0:0:0:0:
192,192,58828,1,2,0:0:0:0:
320,192,58828,1,0,0:0:0:0:
64,192,59010,128,8,59101:0:0:0:0:
320,192,59010,1,4,0:0:0:0:
448,192,59010,1,0,0:0:0:0:
64,192,59192,1,8,0:0:0:0:
192,192,59192,128,0,59282:0:0:0:0:
320,192,59282,1,8,0:0:0:0:
448,192,59282,1,0,0:0:0:0:
64,192,59373,1,2,0:0:0:0:
192,192,59373,1,4,0:0:0:0:
448,192,59373,128,0,59646:0:0:0:0:
320,192,59555,1,0,0:0:0:0:
64,192,59737,128,8,59828:0:0:0:0:
192,192,59737,1,4,0:0:0:0:
448,192,59737,1,0,0:0:0:0:
448,192,59919,128,0,60010:0:0:0:0:
64,192,60101,1,8,0:0:0:0:
192,192,60101,1,4,0:0:0:0:
320,192,60101,128,0,60192:0:0:0:0:
192,192,60282,128,2,60373:0:0:0:0:
448,192,60282,1,0,0:0:0:0:
64,192,60464,1,8,0:0:0:0:
320,192,60464,1,4,0:0:0:0:
448,192,60464,1,0,0:0:0:0:
192,192,60646,1,2,0:0:0:0:
320,192,60646,128,0,60737:0:0:0:0:
64,192,60828,1,8,0:0:0:0:
192,192,60828,1,4,0:0:0:0:
448,192,60828,128,0,60919:0:0:0:0:
64,192,61010,128,0,61101:0:0:0:0:
192,192,61192,128,8,61282:0:0:0:0:
320,192,61192,1,4,0:0:0:0:
448,192,61192,1,0,0:0:0:0:
64,192,61373,1,2,0:0:0:0:
448,192,61373,128,0,61464:0:0:0:0:
64,192,61555,1,8,0:0:0:0:
192,192,61555,1,4,0:0:0:0:
320,192,61555,1,0,0:0:0:0:
192,192,61737,1,2,0:0:0:0:
448,192,61737,1,0,0:0:0:0:
64,192,61919,1,8,0:0:0:0:
320,192,61919,1,4,0:0:0:0:
448,192,61919,128,0,62010:0:0:0:0:
192,192,62101,1,2,0:0:0:0:
448,192,62101,128,0,62192:0:0:0:0:
64,192,62282,128,8,62555:0:0:0:0:
192,192,62282,1,4,0:0:0:0:
320,192,62282,1,0,0:0:0:0:
448,192,62464,1,0,0:0:0:0:
192,192,62646,1,8,0:0:0:0:
320,192,62646,128,4,62919:0:0:0:0:
448,192,62646,1,0,0:0:0:0:
64,192,62828,1,2,0:0:0:0:
192,192,62828,1,0,0:0:0:0:
448,192,62919,1,2,0:0:0:0:
64,192,63010,1,8,0:0:0:0:
192,192,63010,128,4,63101:0:0:0:0:
320,192,63010,1,0,0:0:0:0:
64,192,63192,1,2,0:0:0:0:
448,192,63192,128,4,63282:0:0:0:0:
192,192,63373,1,8,0:0:0:0:
320,192,63373,128,0,63464:0:0:0:0:
448,192,63373,1,0,0:0:0:0:
64,192,63555,128,2,63919:0:0:0:0:
192,192,63555,1,4,0:0:0:0:
448,192,63555,1,0,0:0:0:0:
192,192,63919,1,2,0:0:0:0:
320,192,63919,1,0,0:0:0:0:
64,192,64101,1,8,0:0:0:0:
320,192,64101,1,0,0:0:0:0:
448,192,64101,1,0,0:0:0:0:
64,192,64282,1,2,0:0:0:0:
192,192,64282,1,4,0:0:0:0:
448,192,64282,1,0,0:0:0:0:
320,192,64464,1,0,0:0:0:0:
64,192,64646,1,8,0:0:0:0:
192,192,64646,1,2,0:0:0:0:
448,192,64646,1,0,0:0:0:0:
64,192,64828,1,8,0:0:0:0:
192,192,64828,1,2,0:0:0:0:
448,192,64828,1,0,0:0:0:0:
64,192,65010,1,2,0:0:0:0:
320,192,65010,1,8,0:0:0:0:
448,192,65010,1,4,0:0:0:0:
192,192,65192,1,0,0:0:0:0:
320,192,65192,128,0,65282:0:0:0:0:
448,192,65222,128,0,65313:0:0:0:0:
64,192,65555,128,0,65646:0:0:0:0:
192,192,65919,128,0,66010:0:0:0:0:
448,192,65919,128,0,66010:0:0:0:0:
64,192,66282,128,0,66373:0:0:0:0:
320,192,66646,128,0,66737:0:0:0:0:
448,192,66646,128,0,66737:0:0:0:0:
192,192,66828,128,0,66919:0:0:0:0:
320,192,67010,128,0,67101:0:0:0:0:
64,192,67192,128,0,67282:0:0:0:0:
192,192,67373,1,0,0:0:0:0:
448,192,67373,128,0,67464:0:0:0:0:
64,192,67737,128,0,67828:0:0:0:0:
320,192,67919,128,0,68010:0:0:0:0:
64,192,68101,128,0,68192:0:0:0:0:
192,192,68101,128,0,68192:0:0:0:0:
448,192,68282,128,0,68373:0:0:0:0:
192,192,68464,128,0,68555:0:0:0:0:
320,192,68646,128,0,68737:0:0:0:0:
64,192,68828,128,0,68919:0:0:0:0:
448,192,68828,128,0,68919:0:0:0:0:
192,192,69010,128,0,69101:0:0:0:0:
320,192,69192,128,0,69282:0:0:0:0:
64,192,69373,128,0,69464:0:0:0:0:
320,192,69464,128,0,69555:0:0:0:0:
192,192,69510,128,0,69601:0:0:0:0:
64,192,69555,128,0,69646:0:0:0:0:
448,192,69555,128,0,69646:0:0:0:0:
192,192,70282,128,0,70373:0:0:0:0:
320,192,70464,128,0,70555:0:0:0:0:
448,192,70646,128,0,70919:0:0:0:0:
64,192,70828,128,0,70919:0:0:0:0:
320,192,70919,1,0,0:0:0:0:
64,192,71010,128,0,71373:0:0:0:0:
448,192,71010,128,0,71101:0:0:0:0:
320,192,71192,128,0,71282:0:0:0:0:
192,192,71373,128,0,71464:0:0:0:0:
448,192,71373,128,0,71737:0:0:0:0:
320,192,71555,128,0,71646:0:0:0:0:
64,192,71737,128,0,71919:0:0:0:0:
192,192,71737,128,0,71828:0:0:0:0:
320,192,71919,128,0,72010:0:0:0:0:
448,192,71919,128,0,72101:0:0:0:0:
192,192,72101,128,0,72192:0:0:0:0:
64,192,72282,128,0,72464:0:0:0:0:
320,192,72282,128,0,72373:0:0:0:0:
320,192,72464,128,0,72555:0:0:0:0:
448,192,72464,128,0,72646:0:0:0:0:
64,192,72646,128,0,72828:0:0:0:0:
192,192,72646,128,0,72737:0:0:0:0:
192,192,72828,128,0,72919:0:0:0:0:
320,192,72828,128,0,73010:0:0:0:0:
64,192,73010,128,0,73101:0:0:0:0:
448,192,73010,128,0,73192:0:0:0:0:
192,192,73373,128,0,73464:0:0:0:0:
64,192,73555,128,0,73646:0:0:0:0:
448,192,73555,128,0,73737:0:0:0:0:
192,192,73737,128,0,73828:0:0:0:0:
320,192,73737,128,0,73919:0:0:0:0:
64,192,73919,128,0,74282:0:0:0:0:
192,192,73919,128,0,74010:0:0:0:0:
448,192,74101,128,0,74192:0:0:0:0:
192,192,74282,128,0,74373:0:0:0:0:
320,192,74282,128,0,74646:0:0:0:0:
64,192,74464,128,0,74555:0:0:0:0:
192,192,74646,128,0,74737:0:0:0:0:
448,192,74646,128,0,74828:0:0:0:0:
64,192,74828,128,0,74919:0:0:0:0:
320,192,74828,128,0,75010:0:0:0:0:
64,192,75010,128,0,75192:0:0:0:0:
192,192,75010,128,0,75101:0:0:0:0:
448,192,75192,128,0,75373:0:0:0:0:
192,192,76282,1,0,0:0:0:0:
320,192,76373,1,0,0:0:0:0:
64,192,76464,1,0,0:0:0:0:
192,192,76555,1,0,0:0:0:0:
320,192,76646,1,0,0:0:0:0:
448,192,76737,1,0,0:0:0:0:
64,192,76828,128,2,77192:0:0:0:0:
192,192,76828,1,4,0:0:0:0:
320,192,76828,1,0,0:0:0:0:
192,192,77192,1,8,0:0:0:0:
320,192,77192,1,4,0:0:0:0:
448,192,77192,128,0,77555:0:0:0:0:
64,192,77373,1,0,0:0:0:0:
192,192,77555,128,2,77919:0:0:0:0:
320,192,77555,1,0,0:0:0:0:
64,192,77737,1,2,0:0:0:0:
448,192,77737,1,0,0:0:0:0:
64,192,77919,128,8,78101:0:0:0:0:
320,192,77919,1,4,0:0:0:0:
448,192,77919,128,0,78282:0:0:0:0:
320,192,78101,1,0,0:0:0:0:
192,192,78192,1,0,0:0:0:0:
64,192,78282,128,2,78464:0:0:0:0:
320,192,78282,1,0,0:0:0:0:
192,192,78464,1,2,0:0:0:0:
448,192,78464,128,0,78646:0:0:0:0:
64,192,78646,1,8,0:0:0:0:
192,192,78646,128,4,78828:0:0:0:0:
320,192,78646,1,0,0:0:0:0:
320,192,78828,1,2,0:0:0:0:
448,192,78828,128,0,79010:0:0:0:0:
64,192,78919,1,0,0:0:0:20:soft-hitclap.wav
192,192,79010,1,0,0:0:0:0:
320,192,79192,1,2,0:0:0:0:
448,192,79192,1,0,0:0:0:0:
64,192,79373,128,8,79737:0:0:0:0:
192,192,79373,1,4,0:0:0:0:
320,192,79373,1,0,0:0:0:0:
448,192,79555,1,0,0:0:0:0:
192,192,79737,128,2,79828:0:0:0:0:
320,192,79737,1,0,0:0:0:0:
448,192,79919,128,0,80010:0:0:0:0:
64,192,80101,128,8,80192:0:0:0:0:
192,192,80101,1,4,0:0:0:0:
320,192,80101,1,0,0:0:0:0:
448,192,80282,128,0,80373:0:0:0:0:
64,192,80464,1,2,0:0:0:0:
192,192,80464,128,0,80555:0:0:0:0:
320,192,80555,1,8,0:0:0:0:
448,192,80555,1,0,0:0:0:0:
64,192,80646,128,2,80737:0:0:0:0:
192,192,80646,1,0,0:0:0:0:
192,192,80828,1,8,0:0:0:0:
320,192,80828,1,4,0:0:0:0:
448,192,80828,128,0,80919:0:0:0:0:
64,192,81010,128,0,81101:0:0:0:0:
320,192,81192,128,2,81555:0:0:0:0:
448,192,81192,1,0,0:0:0:0:
64,192,81373,1,2,0:0:0:0:
192,192,81373,1,0,0:0:0:0:
64,192,81555,1,8,0:0:0:0:
192,192,81555,1,4,0:0:0:0:
448,192,81555,1,0,0:0:0:0:
320,192,81737,1,2,0:0:0:0:
448,192,81737,1,0,0:0:0:0:
64,192,81919,1,2,0:0:0:0:
192,192,81919,1,4,0:0:0:0:
320,192,82101,1,8,0:0:0:0:
448,192,82101,1,0,0:0:0:0:
64,192,82192,1,8,0:0:0:0:
192,192,82192,1,0,0:0:0:0:
320,192,82282,1,2,0:0:0:0:
448,192,82282,1,0,0:0:0:0:
64,192,82464,1,8,0:0:0:0:
192,192,82464,1,0,0:0:0:0:
320,192,82555,1,8,0:0:0:0:
448,192,82555,1,0,0:0:0:0:
64,192,82646,1,2,0:0:0:0:
192,192,82646,1,0,0:0:0:0:
320,192,82737,1,0,0:0:0:70:Tom1.wav
448,192,82737,1,0,0:0:0:0:
64,192,82828,1,0,0:0:0:70:Tom2.wav
192,192,82828,1,0,0:0:0:0:
320,192,82919,1,2,0:0:0:0:
64,192,83010,1,2,0:0:0:0:
192,192,83010,1,4,0:0:0:0:
448,192,83010,128,0,83373:0:0:0:0:
320,192,83192,1,0,0:0:0:0:
64,192,83373,128,2,83464:0:0:0:0:
192,192,83373,1,0,0:0:0:0:
192,192,83555,128,2,83646:0:0:0:0:
320,192,83555,1,0,0:0:0:0:
64,192,83737,1,8,0:0:0:0:
320,192,83737,128,4,83828:0:0:0:0:
448,192,83737,1,0,0:0:0:0:
192,192,83919,1,8,0:0:0:0:
448,192,83919,128,0,84010:0:0:0:0:
64,192,84010,1,8,0:0:0:0:
320,192,84010,1,0,0:0:0:0:
192,192,84101,128,2,84192:0:0:0:0:
448,192,84101,1,4,0:0:0:0:
64,192,84282,1,2,0:0:0:0:
320,192,84282,128,0,84373:0:0:0:0:
64,192,84464,128,8,84555:0:0:0:0:
192,192,84464,1,0,0:0:0:0:
448,192,84464,1,0,0:0:0:0:
192,192,84646,1,2,0:0:0:0:
320,192,84646,1,4,0:0:0:0:
448,192,84646,128,0,84737:0:0:0:0:
64,192,84828,1,0,0:0:0:0:
192,192,85010,1,2,0:0:0:0:
320,192,85010,1,0,0:0:0:0:
320,192,85192,1,8,0:0:0:0:
448,192,85192,128,0,85282:0:0:0:0:
64,192,85282,1,0,0:0:0:70:Tom1.wav
192,192,85282,1,0,0:0:0:0:
320,192,85373,1,0,0:0:0:70:Tom2.wav
448,192,85373,1,0,0:0:0:0:
64,192,85464,1,0,0:0:0:70:Tom3.wav
192,192,85464,1,0,0:0:0:0:
320,192,85555,1,2,0:0:0:0:
448,192,85555,128,4,85919:0:0:0:0:
64,192,85737,1,2,0:0:0:0:
192,192,85737,1,0,0:0:0:0:
64,192,85919,128,8,86101:0:0:0:0:
192,192,85919,1,0,0:0:0:0:
320,192,85919,1,0,0:0:0:0:
448,192,86101,128,0,86464:0:0:0:0:
192,192,86282,1,8,0:0:0:0:
320,192,86282,128,2,86464:0:0:0:0:
64,192,86464,1,0,0:0:0:20:soft-hitclap.wav
192,192,86464,1,0,0:0:0:0:
320,192,86555,1,8,0:0:0:0:
448,192,86555,1,0,0:0:0:0:
64,192,86646,1,8,0:0:0:0:
192,192,86646,1,0,0:0:0:0:
64,192,86828,1,2,0:0:0:0:
320,192,86828,1,4,0:0:0:0:
448,192,86828,1,0,0:0:0:0:
64,192,87192,1,8,0:0:0:0:
320,192,87192,1,2,0:0:0:0:
448,192,87192,1,0,0:0:0:0:
64,192,87373,1,2,0:0:0:0:
320,192,87373,1,8,0:0:0:0:
448,192,87373,1,0,0:0:0:0:
64,192,87555,1,2,0:0:0:0:
320,192,87555,1,8,0:0:0:0:
448,192,87555,1,0,0:0:0:0:
192,192,87646,1,0,0:0:0:0:
64,192,87737,1,2,0:0:0:0:
320,192,87737,128,8,88010:0:0:0:0:
448,192,87737,128,4,88055:0:0:0:0:
