osu file format v14

[General]
AudioFilename: audio.mp3
AudioLeadIn: 0
PreviewTime: 52136
Countdown: 0
SampleSet: Soft
StackLeniency: 0.7
Mode: 0
LetterboxInBreaks: 0
WidescreenStoryboard: 1

[Editor]
DistanceSpacing: 1.4
BeatDivisor: 4
GridSize: 32
TimelineZoom: 1.4

[Metadata]
Title:Hikari Shoumeiron (TV Size)
TitleUnicode:ヒカリ証明論 (TV Size)
Artist:CHiCO with HoneyWorks
ArtistUnicode:CHiCO with HoneyWorks
Creator:sanairrt
Version:Wish
Source:銀魂. 銀ノ魂篇
Tags:ending ed 30 japanese anime j-rock rock jrock kagura 神楽 gintama silver soul arc season 2 2018 gintama. Shirogane no Tamashii-hen ぎんたま Gintoki Sakata 坂田 銀時 Shinpachi Shimura 志村 新八 [_lost_] lost conner c_o_n_n_e_r Sarawatlism arronchu1207 Chihara minori time capsule eclipselotus zan zan1to
BeatmapID:2639444
BeatmapSetID:1270077

[Difficulty]
HPDrainRate:6
CircleSize:3.8
OverallDifficulty:9
ApproachRate:9.3
SliderMultiplier:1.8
SliderTickRate:1

[Events]
//Background and Video events
0,0,"ya.jpg",0,0
Video,0,"video.mp4"
//Break Periods
//Storyboard Layer 0 (Background)
//Storyboard Layer 1 (Fail)
//Storyboard Layer 2 (Pass)
//Storyboard Layer 3 (Foreground)
//Storyboard Layer 4 (Overlay)
//Storyboard Sound Samples

[TimingPoints]
605,333.333333333333,4,2,1,40,1,0
605,-142.857142857143,4,2,1,40,0,0
5188,-142.857142857143,4,2,1,5,0,0
5271,-142.857142857143,4,2,1,40,0,0
7854,-142.857142857143,4,2,1,5,0,0
7938,-142.857142857143,4,2,1,40,0,0
9938,-125,4,2,1,40,0,0
11271,-111.111111111111,4,2,1,40,0,0
12604,-249.999999999999,4,2,1,40,0,0
13688,-249.999999999999,4,2,1,5,0,0
13794,300,4,2,1,70,1,0
13811,-100,4,2,1,70,0,0
19811,300,4,2,1,70,1,0
23411,-125,4,2,1,50,0,0
31811,-125,4,2,1,60,0,0
33011,-111.111111111111,4,2,1,60,0,0
42611,-125,4,2,1,50,0,0
49736,-125,4,2,1,5,0,0
49811,-111.111111111111,4,2,1,50,0,0
50411,-111.111111111111,4,2,1,60,0,0
52211,-90.9090909090908,4,2,1,80,0,1
71411,-111.111111111111,4,2,1,70,0,0
81011,-90.9090909090909,4,2,1,80,0,1
86411,-434.782608695652,4,2,1,70,0,0
88661,-434.782608695652,4,2,1,5,0,0

[Colours]
Combo1 : 255,128,128
Combo2 : 255,255,128
Combo3 : 128,64,64

[HitObjects]
83,120,605,6,0,P|96:178|111:258,1,125.999996154785,2|2,0:2|0:2,0:0:0:0:
230,336,1271,2,0,P|241:274|255:212,1,125.999996154785,2|2,0:2|0:2,0:0:0:0:
369,119,1938,2,0,P|422:153|485:127,1,125.999996154785,2|2,0:2|0:2,0:0:0:0:
255,212,2604,2,0,P|202:178|139:204,1,125.999996154785,2|2,0:2|0:2,0:0:0:0:
80,278,3104,1,2,0:2:0:0:
80,278,3271,6,0,P|86:314|96:361,1,62.9999980773926,2|2,0:2|0:2,0:0:0:0:
194,254,3604,2,0,P|200:187|207:128,1,125.999996154785,2|2,0:2|0:2,0:0:0:0:
145,56,4104,1,2,0:2:0:0:
206,128,4271,1,2,0:2:0:0:
267,56,4438,1,2,0:2:0:0:
145,56,4604,6,0,P|100:65|69:72,1,62.9999980773926,2|2,0:2|0:2,0:0:0:0:
206,128,4938,2,0,P|253:124|264:70,1,94.499997116089,2|0,0:2|0:0,0:0:0:0:
267,56,5271,2,0,P|324:57|381:108,1,125.999996154785,2|2,0:2|0:2,0:0:0:0:
430,190,5771,1,2,0:2:0:0:
430,190,5938,6,0,P|414:252|404:332,1,125.999996154785,2|2,0:2|0:2,0:0:0:0:
324,242,6438,1,2,0:2:0:0:
270,356,6604,2,0,B|198:374|223:319|140:347,1,125.999996154785,2|2,0:2|0:2,0:0:0:0:
65,362,7104,1,2,0:2:0:0:
104,211,7271,6,0,P|121:250|130:289,1,62.9999980773926,2|2,0:2|0:2,0:0:0:0:
273,236,7604,2,0,P|259:264|246:330,1,94.499997116089,2|0,0:2|0:0,0:0:0:0:
270,356,7938,2,0,B|331:345|407:341,1,125.999996154785,2|2,0:2|0:2,0:0:0:0:
495,237,8604,6,0,P|458:191|381:212,2,125.999996154785,2|2|2,0:2|0:2|0:2,0:0:0:0:
343,132,9604,1,2,0:2:0:0:
343,132,9938,6,0,P|282:138|246:71,2,144,2|0|2,0:2|0:0|0:2,0:0:0:0:
142,31,10938,1,0,0:0:0:0:
142,31,11271,6,0,P|84:20|77:128,2,161.999995056153,2|2|2,0:2|0:2|0:2,0:0:0:0:
154,204,12271,1,2,0:2:0:0:
154,204,12604,6,0,P|127:256|246:262,1,234,2|0,0:2|0:0,0:0:0:0:
233,187,13794,5,6,3:2:0:0:
352,321,13944,2,0,P|408:306|459:296,1,90,2|8,0:2|0:2,0:0:0:0:
335,77,14244,2,0,B|319:143|319:143|342:182|342:182|319:270,1,180,2|2,0:2|0:2,0:0:0:0:
500,145,14694,2,0,P|459:119|405:131,1,90,8|2,0:2|0:2,0:0:0:0:
244,267,14994,5,2,3:2:0:0:
211,94,15144,1,2,0:2:0:0:
379,204,15294,1,8,0:2:0:0:
197,82,15444,2,0,P|138:90|91:98,1,90,2|0,0:2|3:2,0:0:0:0:
244,267,15744,1,2,0:2:0:0:
340,103,15894,2,0,P|328:58|314:11,1,90,10|0,0:2|0:0,0:0:0:0:
189,183,16194,5,2,3:2:0:0:
354,290,16344,2,0,P|365:246|378:203,1,90,2|8,0:2|0:2,0:0:0:0:
245,369,16644,2,0,B|132:375|195:290|69:307,1,180,2|2,0:2|0:2,0:0:0:0:
31,155,17094,2,0,P|70:130|123:137,1,90,8|2,0:2|0:2,0:0:0:0:
244,267,17394,5,2,3:2:0:0:
197,82,17544,1,2,0:2:0:0:
82,270,17694,1,10,0:2:0:0:
306,206,17844,2,0,P|267:181|214:188,1,90,2|0,0:2|3:2,0:0:0:0:
325,369,18144,1,14,0:2:0:0:
509,222,18294,2,0,P|499:170|486:116,1,90,14|0,0:2|0:0,0:0:0:0:
286,0,18594,5,6,3:2:0:0:
224,183,18744,1,2,0:2:0:0:
359,75,18894,1,10,0:2:0:0:
329,167,19044,1,2,0:2:0:0:
182,84,19194,5,2,3:2:0:0:
244,267,19344,1,2,0:2:0:0:
109,159,19494,1,10,0:2:0:0:
139,251,19644,1,2,0:2:0:0:
306,206,19811,5,2,3:2:0:0:
259,311,19961,1,2,0:2:0:0:
377,288,20111,1,10,0:2:0:0:
368,309,20261,1,2,0:2:0:0:
139,251,20411,5,2,3:2:0:0:
186,356,20561,1,2,0:2:0:0:
68,333,20711,1,14,0:2:0:0:
77,354,20861,1,2,0:2:0:0:
306,206,21011,5,10,0:2:0:0:
93,101,21161,2,0,P|143:91|205:79,2,90,10|0|0,0:2|0:0|0:0,0:0:0:0:
244,267,21611,5,10,0:2:0:0:
457,162,21761,2,0,P|407:152|345:140,2,90,10|0|0,0:2|0:0|3:2,0:0:0:0:
512,223,22136,1,0,3:2:0:0:
512,223,22211,5,10,0:2:0:0:
322,62,22511,5,10,0:2:0:0:
244,267,22811,6,0,P|204:298|184:191,1,180,10|0,0:2|0:0,0:0:0:0:
180,87,23411,6,0,P|247:75|336:59,1,144,6|0,3:2|3:2,0:0:0:0:
485,195,24011,2,0,P|418:183|329:167,1,144,2|0,3:2|3:2,0:0:0:0:
194,244,24461,1,0,0:0:0:0:
194,244,24536,1,0,0:0:0:0:
194,244,24611,6,0,P|161:293|196:384,1,144,2|0,3:2|3:2,0:0:0:0:
356,296,25211,2,0,P|377:229|342:169,1,144,2|0,3:2|3:2,0:0:0:0:
180,87,25661,1,0,0:0:0:0:
180,87,25736,1,0,0:0:0:0:
180,87,25811,6,0,P|145:106|129:152,1,72,2|0,3:2|0:0,0:0:0:0:
54,121,26111,2,0,P|52:160|84:197,1,72,2|0,3:2|0:0,0:0:0:0:
20,247,26411,2,0,P|53:267|101:258,1,72,2|0,3:2|0:0,0:0:0:0:
112,339,26711,2,0,P|146:319|162:274,1,72,2|0,3:2|0:0,0:0:0:0:
197,286,26936,1,0,0:0:0:0:
197,286,27011,6,0,P|271:313|343:287,1,144,2|0,3:2|3:2,0:0:0:0:
477,178,27611,2,0,P|403:151|331:177,1,144,0|0,3:2|3:2,0:0:0:0:
197,286,28061,1,0,0:0:0:0:
197,286,28136,1,0,0:0:0:0:
197,286,28211,6,0,B|188:221|172:139,1,144,2|0,3:2|3:2,0:0:0:0:
366,26,28811,2,0,B|350:102|341:167,1,144,2|0,3:2|3:2,0:0:0:0:
197,286,29261,1,0,0:0:0:0:
197,286,29336,1,0,0:0:0:0:
197,286,29411,2,0,P|154:319|53:279,1,144,2|0,3:2|3:2,0:0:0:0:
223,136,30011,2,0,P|266:103|367:143,1,144,2|0,3:2|3:2,0:0:0:0:
421,210,30461,1,0,0:0:0:0:
421,210,30536,1,0,0:0:0:0:
421,210,30611,5,2,3:2:0:0:
348,120,30761,1,2,0:2:0:0:
275,210,30911,1,2,3:2:0:0:
202,120,31061,2,0,P|127:101|62:132,1,144,2|2,0:2|0:2,0:0:0:0:
6,200,31511,1,0,3:2:0:0:
71,301,31661,1,2,0:2:0:0:
71,301,31736,1,0,0:0:0:0:
71,301,31811,6,0,P|118:292|164:283,1,72,0|0,3:2|0:0,0:0:0:0:
345,223,32111,2,0,P|298:214|252:205,1,72,12|4,0:2|2:3,0:0:0:0:
241,203,32336,1,4,2:3:0:0:
241,203,32411,1,4,3:2:0:0:
352,351,32561,1,8,0:2:0:0:
352,351,32636,1,8,0:2:0:0:
352,351,32711,1,8,0:2:0:0:
429,129,32861,1,8,0:2:0:0:
242,286,33011,6,0,P|193:273|161:207,1,121.499996292114,6|0,3:2|0:0,0:0:0:0:
107,154,33311,2,0,P|142:136|193:142,1,80.9999975280763,8|0,0:2|0:0,0:0:0:0:
241,203,33536,1,0,0:0:0:0:
241,203,33611,1,2,3:2:0:0:
283,52,33761,1,0,3:2:0:0:
402,155,33911,2,0,B|390:192|375:243,1,80.9999975280763,8|0,0:2|0:0,0:0:0:0:
419,336,34136,1,0,0:0:0:0:
419,336,34211,6,0,B|397:311|397:311|356:322|299:338,1,121.499996292114,2|0,3:2|0:0,0:0:0:0:
242,286,34511,2,0,B|214:281|149:270,1,80.9999975280763,8|0,0:2|0:0,0:0:0:0:
98,322,34736,1,0,0:0:0:0:
98,322,34811,1,2,3:2:0:0:
34,160,34961,1,0,3:2:0:0:
162,272,35111,2,0,P|171:232|187:171,1,80.9999975280763,8|0,0:2|0:0,0:0:0:0:
263,149,35336,1,0,0:0:0:0:
263,149,35411,6,0,P|230:114|123:120,2,161.999995056153,2|10|2,3:2|0:2|3:2,0:0:0:0:
333,279,36161,1,0,3:2:0:0:
448,160,36311,2,0,P|458:116|431:64,1,80.9999975280763,10|0,0:2|0:0,0:0:0:0:
363,24,36536,1,0,0:0:0:0:
363,24,36611,6,0,B|305:28|305:28|297:25|297:25|218:33,1,121.499996292114,2|0,3:2|0:0,0:0:0:0:
184,101,36911,2,0,P|141:91|83:77,1,80.9999975280763,8|0,0:2|0:0,0:0:0:0:
56,20,37136,1,0,0:0:0:0:
56,20,37211,1,0,3:2:0:0:
1,191,37361,1,0,3:2:0:0:
204,179,37511,2,0,P|193:135|176:76,1,80.9999975280763,8|0,0:2|0:0,0:0:0:0:
49,311,37811,6,0,P|95:263|164:271,1,121.499996292114,2|0,3:2|0:0,0:0:0:0:
205,333,38111,2,0,P|248:357|299:341,1,80.9999975280763,8|0,0:2|0:0,0:0:0:0:
353,313,38336,1,0,0:0:0:0:
353,313,38411,1,2,3:2:0:0:
229,197,38561,1,0,3:2:0:0:
404,137,38711,2,0,B|447:144|447:144|450:141|450:141|499:150,1,80.9999975280763,8|0,0:2|0:0,0:0:0:0:
436,53,38936,1,0,0:0:0:0:
436,53,39011,6,0,P|376:50|318:119,1,121.499996292114,2|0,3:2|0:0,0:0:0:0:
253,166,39311,2,0,P|210:136|170:129,1,80.9999975280763,8|0,0:2|0:0,0:0:0:0:
116,176,39536,1,0,0:0:0:0:
116,176,39611,1,2,3:2:0:0:
29,22,39761,1,0,3:2:0:0:
212,54,39911,2,0,P|193:103|174:152,1,80.9999975280763,10|0,0:2|0:0,0:0:0:0:
229,197,40136,1,0,0:0:0:0:
229,197,40211,6,0,P|265:222|311:213,1,80.9999975280763,6|0,3:2|0:0,0:0:0:0:
475,158,40511,2,0,P|439:133|393:142,1,80.9999975280763,8|0,0:2|0:0,0:0:0:0:
286,300,40811,1,0,3:2:0:0:
308,140,40961,1,0,3:2:0:0:
429,284,41111,1,8,0:2:0:0:
300,218,41261,1,0,0:0:0:0:
300,218,41336,1,0,0:0:0:0:
300,218,41411,5,0,3:2:0:0:
448,137,41561,1,0,3:2:0:0:
255,58,41711,2,0,P|212:63|147:71,1,80.9999975280763,12|8,0:2|0:2,0:0:0:0:
101,20,41936,1,8,0:2:0:0:
101,20,42011,1,8,0:2:0:0:
42,175,42161,1,8,3:3:0:0:
174,67,42311,1,8,3:3:0:0:
229,197,42461,1,8,3:3:0:0:
229,197,42536,1,8,3:3:0:0:
229,197,42611,6,0,P|217:254|209:297,1,72,6|2,3:2|0:2,0:0:0:0:
93,347,42911,1,2,3:2:0:0:
64,260,43061,1,2,3:2:0:0:
190,342,43211,2,0,P|235:347|271:321,1,72,2|2,0:2|3:2,0:0:0:0:
379,239,43511,2,0,P|334:244|298:218,1,72,2|2,3:2|3:2,0:0:0:0:
310,195,43736,1,0,3:2:0:0:
310,195,43811,6,0,P|322:140|338:60,1,108,2|0,3:2|0:0,0:0:0:0:
390,21,44111,2,0,P|413:51|418:115,1,72,2|0,0:2|3:2,0:0:0:0:
310,195,44411,1,2,0:2:0:0:
232,106,44561,1,0,3:2:0:0:
146,176,44711,1,0,3:2:0:0:
93,107,44861,1,0,3:2:0:0:
93,107,44936,1,0,3:2:0:0:
93,107,45011,6,0,P|65:140|59:184,1,72,2|2,3:2|0:2,0:0:0:0:
96,293,45311,1,2,0:2:0:0:
146,176,45461,1,2,3:2:0:0:
246,281,45611,2,0,P|292:274|351:266,1,72,2|2,0:2|0:2,0:0:0:0:
429,166,45911,1,2,3:2:0:0:
351,105,46061,1,2,3:2:0:0:
351,105,46136,1,0,3:2:0:0:
351,105,46211,6,0,P|313:131|301:165,1,72,2|2,3:2|3:2,0:0:0:0:
427,81,46436,1,0,3:2:0:0:
427,81,46511,2,0,P|409:49|374:30,1,72,2|0,3:2|3:2,0:0:0:0:
351,105,46736,1,0,3:2:0:0:
351,105,46811,2,0,P|281:95|191:85,1,144,2|0,3:2|3:2,0:0:0:0:
173,113,47186,1,0,3:2:0:0:
137,115,47261,1,0,3:2:0:0:
106,97,47336,1,0,3:2:0:0:
91,66,47411,6,0,P|77:136|59:224,1,144,6|2,3:2|0:2,0:0:0:0:
257,315,48011,2,0,P|243:244|228:173,1,144,2|2,0:2|0:2,0:0:0:0:
209,91,48461,1,0,0:0:0:0:
336,186,48611,5,2,0:2:0:0:
405,125,48761,1,0,0:0:0:0:
405,125,48836,1,0,0:0:0:0:
405,125,48911,2,0,P|423:88|396:125,1,144
405,125,49511,6,0,P|395:178|384:257,1,108,2|0,0:2|0:0,0:0:0:0:
374,323,49811,5,6,3:2:0:0:
256,192,49961,1,0,0:0:0:0:
170,374,50111,1,10,0:2:0:0:
311,256,50261,1,0,0:0:0:0:
109,180,50411,2,0,P|119:227|133:287,1,80.9999975280763,2|0,3:2|0:0,0:0:0:0:
307,90,50711,2,0,P|296:137|283:197,1,80.9999975280763,10|0,0:2|0:0,0:0:0:0:
79,16,51011,5,2,3:2:0:0:
256,192,51086,12,0,52061,0:0:0:0:
387,231,52211,5,6,3:2:0:0:
242,141,52361,2,0,P|274:93|321:81,1,99.0000030212403,2|10,0:2|0:2,0:0:0:0:
387,231,52661,1,2,0:2:0:0:
186,202,52811,2,0,P|160:150|170:102,1,99.0000030212403,2|2,3:2|0:2,0:0:0:0:
352,153,53111,1,10,0:2:0:0:
258,318,53261,1,2,0:2:0:0:
438,154,53411,6,0,P|399:83|302:87,1,148.50000453186,2|0,3:2|0:0,0:0:0:0:
242,141,53711,2,0,P|195:167|129:153,1,99.0000030212403,10|0,0:2|0:0,0:0:0:0:
2,106,54011,1,2,3:2:0:0:
161,11,54161,1,0,0:0:0:0:
138,195,54311,2,0,P|155:250|172:315,1,99.0000030212403,8|0,0:2|0:0,0:0:0:0:
352,153,54611,5,2,3:2:0:0:
246,336,54761,2,0,P|206:296|132:300,1,99.0000030212403,2|10,0:2|0:2,0:0:0:0:
352,153,55061,1,2,0:2:0:0:
170,202,55211,2,0,P|115:216|81:282,1,99.0000030212403,2|2,3:2|0:2,0:0:0:0:
246,336,55511,1,10,0:2:0:0:
337,186,55661,1,2,0:2:0:0:
143,106,55811,6,0,P|159:162|174:216,1,99.0000030212403,2|0,3:2|0:0,0:0:0:0:
392,256,56111,2,0,P|421:214|418:160,1,99.0000030212403,10|0,0:2|0:0,0:0:0:0:
249,32,56411,1,2,3:2:0:0:
337,186,56561,1,0,0:0:0:0:
504,17,56711,2,0,B|455:9|455:9|451:6|451:6|378:-5,1,99.0000030212403,12|0,0:2|0:0,0:0:0:0:
255,124,57011,6,0,P|205:60|102:83,1,198.000006042481,6|8,3:2|0:2,0:0:0:0:
2,195,57461,1,0,0:0:0:0:
144,308,57611,2,0,P|134:254|122:201,1,99.0000030212403,2|0,3:2|0:0,0:0:0:0:
337,186,57911,2,0,P|347:132|359:79,1,99.0000030212403,10|0,0:2|0:0,0:0:0:0:
392,256,58211,5,2,3:2:0:0:
238,312,58361,1,0,0:0:0:0:
337,186,58511,1,8,0:2:0:0:
230,145,58661,1,0,0:0:0:0:
369,336,58811,2,0,P|429:333|466:296,1,99.0000030212403,2|0,3:2|0:0,0:0:0:0:
486,102,59111,2,0,P|426:105|389:142,1,99.0000030212403,10|0,0:2|0:0,0:0:0:0:
182,216,59411,6,0,P|150:165|153:115,1,99.0000030212403,2|0,3:2|0:0,0:0:0:0:
321,63,59711,1,8,0:2:0:0:
153,5,59861,1,2,0:2:0:0:
272,175,60011,2,0,P|329:159|381:146,1,99.0000030212403,0|0,3:2|0:0,0:0:0:0:
248,2,60311,1,10,0:2:0:0:
129,148,60461,1,0,0:0:0:0:
275,268,60611,5,2,3:2:0:0:
191,77,60761,1,0,0:0:0:0:
52,221,60911,1,12,0:2:0:0:
272,175,61061,1,0,0:0:0:0:
136,308,61211,1,0,3:2:0:0:
282,202,61361,2,0,P|291:230|299:259,1,49.5000015106202,8|8,0:2|0:2,0:0:0:0:
115,113,61511,2,0,P|106:141|98:170,1,49.5000015106202,8|8,0:2|0:2,0:0:0:0:
321,47,61661,2,0,P|330:75|338:104,1,49.5000015106202,8|8,0:2|0:2,0:0:0:0:
404,277,61811,5,6,3:2:0:0:
197,227,61961,2,0,P|227:186|285:176,1,99.0000030212403,2|8,0:2|0:2,0:0:0:0:
404,277,62261,1,2,0:2:0:0:
288,91,62411,2,0,P|333:113|353:168,1,99.0000030212403,2|0,3:2|0:0,0:0:0:0:
307,351,62711,1,10,0:2:0:0:
197,227,62861,1,2,0:2:0:0:
80,367,63011,6,0,P|30:342|58:230,1,148.50000453186,2|0,3:2|0:0,0:0:0:0:
95,192,63311,2,0,P|86:129|79:80,1,99.0000030212403,10|0,0:2|0:0,0:0:0:0:
243,159,63611,1,2,3:2:0:0:
106,286,63761,1,0,0:0:0:0:
307,351,63911,2,0,P|364:341|395:308,1,99.0000030212403,8|0,0:2|0:0,0:0:0:0:
243,159,64211,5,2,3:2:0:0:
454,98,64361,2,0,P|439:156|424:214,1,99.0000030212403,2|8,0:2|0:2,0:0:0:0:
243,159,64661,1,2,0:2:0:0:
380,38,64811,2,0,P|436:6|491:12,1,99.0000030212403,2|0,3:2|0:0,0:0:0:0:
429,193,65111,1,10,0:2:0:0:
291,71,65261,1,2,0:2:0:0:
209,245,65411,6,0,P|164:195|69:214,1,148.50000453186,2|0,3:2|0:0,0:0:0:0:
44,283,65711,2,0,P|56:356|61:394,1,99.0000030212403,10|0,0:2|0:0,0:0:0:0:
209,245,66011,1,2,3:2:0:0:
292,384,66161,1,0,0:0:0:0:
393,249,66311,2,0,P|418:197|391:111,1,148.50000453186,12|0,0:2|0:0,0:0:0:0:
330,39,66611,6,0,B|228:24|263:122|147:107,1,198.000006042481,6|8,3:2|0:2,0:0:0:0:
36,29,67061,1,0,0:0:0:0:
155,107,67211,1,0,3:2:0:0:
36,185,67361,1,0,0:0:0:0:
153,16,67511,2,0,P|209:28|244:82,1,99.0000030212403,8|0,0:2|0:0,0:0:0:0:
284,235,67811,6,0,P|333:255|403:123,1,198.000006042481,2|8,3:2|0:2,0:0:0:0:
330,39,68261,1,0,0:0:0:0:
253,150,68411,1,0,3:2:0:0:
364,227,68561,1,0,0:0:0:0:
496,98,68711,2,0,B|506:149|506:149|504:154|504:154|511:196,1,99.0000030212403,8|0,0:2|0:0,0:0:0:0:
371,355,69011,6,0,B|255:336|327:244|187:239,1,198.000006042481,6|8,3:2|0:2,0:0:0:0:
130,352,69461,1,0,0:0:0:0:
36,185,69611,2,0,P|105:195|163:131,1,148.50000453186,0|0,3:2|0:0,0:0:0:0:
52,20,69911,2,0,P|71:83|85:135,1,99.0000030212403,12|0,0:2|0:0,0:0:0:0:
219,242,70211,5,2,3:2:0:0:
419,179,70361,1,8,0:2:0:0:
413,130,70436,1,8,0:2:0:0:
379,96,70511,1,8,0:2:0:0:
331,89,70586,1,8,0:2:0:0:
289,113,70661,2,0,P|296:142|305:179,1,49.5000015106202,8|8,0:2|0:2,0:0:0:0:
382,310,70811,2,0,P|387:285|393:261,1,49.5000015106202,8|0,0:2|0:0,0:0:0:0:
281,133,70961,2,0,P|287:156|292:181,1,49.5000015106202,8|0,3:3|0:0,0:0:0:0:
216,320,71111,1,8,3:3:0:0:
119,240,71261,1,8,3:3:0:0:
26,378,71411,6,0,P|-3:299|40:215,1,161.999995056153,6|0,3:2|0:0,0:0:0:0:
99,122,71861,1,0,3:2:0:0:
219,242,72011,2,0,P|294:233|395:226,1,161.999995056153,10|0,0:2|0:0,0:0:0:0:
503,128,72461,1,8,0:2:0:0:
503,128,72536,1,8,0:2:0:0:
503,128,72611,5,2,3:2:0:0:
391,43,72761,2,0,P|343:44|306:91,1,80.9999975280763,10|0,0:2|0:0,0:0:0:0:
234,200,73061,1,2,3:2:0:0:
395,280,73211,2,0,B|384:200|384:200|387:193|387:193|372:89,1,161.999995056153,10|0,0:2|0:0,0:0:0:0:
229,88,73661,1,0,3:2:0:0:
229,88,73736,1,0,3:2:0:0:
229,88,73811,6,0,P|177:141|81:106,1,161.999995056153,6|0,3:2|0:0,0:0:0:0:
19,21,74261,1,0,3:2:0:0:
152,64,74411,2,0,P|138:140|123:240,1,161.999995056153,10|0,0:2|0:0,0:0:0:0:
196,336,74861,1,8,0:2:0:0:
196,336,74936,1,8,0:2:0:0:
196,336,75011,5,2,3:2:0:0:
271,224,75161,1,10,0:2:0:0:
364,305,75311,2,0,P|407:328|454:319,1,80.9999975280763,2|0,0:2|3:2,0:0:0:0:
498,169,75611,2,0,B|458:175|458:175|453:173|453:173|387:183,1,80.9999975280763,10|0,0:2|0:0,0:0:0:0:
270,144,75911,2,0,P|311:96|373:116,1,121.499996292114
418,178,76211,6,0,P|402:249|381:348,1,161.999995056153,6|0,3:2|0:0,0:0:0:0:
271,224,76661,1,0,3:2:0:0:
196,336,76811,2,0,P|155:358|114:350,1,80.9999975280763,10|0,0:2|0:0,0:0:0:0:
34,235,77111,2,0,P|80:226|128:217,1,80.9999975280763,0|8,0:0|0:2,0:0:0:0:
189,203,77336,1,0,3:2:0:0:
189,203,77411,5,2,3:2:0:0:
249,62,77561,1,8,0:2:0:0:
319,217,77711,1,0,0:0:0:0:
182,119,77861,1,0,3:2:0:0:
334,78,78011,1,8,0:2:0:0:
182,119,78161,1,0,0:0:0:0:
319,217,78311,2,0,P|370:211|409:164,1,80.9999975280763,2|0,0:2|3:2,0:0:0:0:
451,137,78536,1,0,3:2:0:0:
451,137,78611,5,2,3:2:0:0:
502,274,78761,1,0,3:2:0:0:
319,217,78911,2,0,P|277:193|219:202,1,80.9999975280763,14|0,0:2|0:0,0:0:0:0:
103,292,79211,1,2,3:2:0:0:
52,120,79361,1,8,3:3:0:0:
213,271,79511,1,8,3:3:0:0:
28,219,79661,1,8,3:3:0:0:
206,77,79811,5,2,3:2:0:0:
206,77,80261,6,0,L|196:134,1,40.4999987640381,8|8,0:2|0:2,0:0:0:0:
286,288,80411,1,10,0:2:0:0:
319,74,80561,1,8,0:2:0:0:
143,226,80711,1,8,0:2:0:0:
403,214,80861,1,8,0:2:0:0:
193,53,81011,5,6,3:2:0:0:
143,226,81161,2,0,P|192:255|246:245,1,99.0000030212403,2|10,0:2|0:2,0:0:0:0:
193,53,81461,1,2,0:2:0:0:
64,199,81611,2,0,P|63:255|98:301,1,99.0000030212403,2|2,3:2|0:2,0:0:0:0:
266,174,81911,1,10,0:2:0:0:
105,111,82061,1,2,0:2:0:0:
268,0,82211,6,0,P|324:6|374:12,1,99.0000030212403,2|0,3:2|0:0,0:0:0:0:
512,144,82511,1,10,0:2:0:0:
447,0,82661,1,0,0:0:0:0:
366,139,82811,2,0,P|346:194|357:258,1,99.0000030212403,2|0,3:2|0:0,0:0:0:0:
392,358,83111,2,0,P|343:308|256:351,1,148.50000453186,12|0,0:2|0:0,0:0:0:0:
210,384,83411,5,6,3:2:0:0:
106,243,83561,2,0,P|114:189|121:146,1,99.0000030212403,2|10,0:2|0:2,0:0:0:0:
307,83,83861,1,2,0:2:0:0:
139,49,84011,2,0,P|84:51|40:92,1,99.0000030212403,2|0,3:2|0:0,0:0:0:0:
208,213,84311,2,0,P|262:201|315:189,1,99.0000030212403,10|2,0:2|0:2,0:0:0:0:
505,55,84611,6,0,B|441:43|441:43|429:31|429:31|349:18,1,148.50000453186,2|0,3:2|0:0,0:0:0:0:
307,83,84911,1,14,0:2:0:0:
448,208,85061,1,8,0:2:0:0:
448,208,85136,1,8,0:2:0:0:
448,208,85211,1,10,0:2:0:0:
363,20,85361,1,8,0:2:0:0:
210,170,85511,1,10,0:2:0:0:
463,128,85661,1,8,0:2:0:0:
373,287,86411,6,0,B|312:317|256:281|256:281|222:319|222:319|156:282|99:345,1,310.499989576722,6|0,3:2|0:0,0:0:0:0:
