osu file format v14

[General]
AudioFilename: audio.mp3
AudioLeadIn: 0
PreviewTime: 52136
Countdown: 0
SampleSet: Soft
StackLeniency: 0.5
Mode: 0
LetterboxInBreaks: 0
WidescreenStoryboard: 1

[Editor]
Bookmarks: 55811
DistanceSpacing: 1.3
BeatDivisor: 4
GridSize: 32
TimelineZoom: 1.4

[Metadata]
Title:Hikari Shoumeiron (TV Size)
TitleUnicode:ヒカリ証明論 (TV Size)
Artist:CHiCO with HoneyWorks
ArtistUnicode:CHiCO with HoneyWorks
Creator:sanairrt
Version:Hard
Source:銀魂. 銀ノ魂篇
Tags:ending ed 30 japanese anime j-rock rock jrock kagura 神楽 gintama silver soul arc season 2 2018 gintama. Shirogane no Tamashii-hen ぎんたま Gintoki Sakata 坂田 銀時 Shinpachi Shimura 志村 新八 [_lost_] lost conner c_o_n_n_e_r Sarawatlism arronchu1207 Chihara minori time capsule eclipselotus zan zan1to
BeatmapID:2642210
BeatmapSetID:1270077

[Difficulty]
HPDrainRate:4.5
CircleSize:3.5
OverallDifficulty:7
ApproachRate:8
SliderMultiplier:1.4
SliderTickRate:1

[Events]
//Background and Video events
0,0,"ya.jpg",0,0
Video,0,"video.mp4"
//Break Periods
//Storyboard Layer 0 (Background)
//Storyboard Layer 1 (Fail)
//Storyboard Layer 2 (Pass)
//Storyboard Layer 3 (Foreground)
//Storyboard Layer 4 (Overlay)
//Storyboard Sound Samples

[TimingPoints]
605,333.333333333333,4,2,1,40,1,0
605,-142.857142857143,4,2,1,40,0,0
5188,-142.857142857143,4,2,1,5,0,0
5271,-142.857142857143,4,2,1,40,0,0
7854,-142.857142857143,4,2,1,5,0,0
7938,-142.857142857143,4,2,1,40,0,0
11271,-125,4,2,1,40,0,0
12604,-249.999999999999,4,2,1,40,0,0
13438,-249.999999999999,4,2,1,5,0,0
13794,300,4,2,1,70,1,0
13794,-100,4,2,1,70,0,0
19811,300,4,2,1,70,1,0
19811,-111.111111111111,4,2,1,70,0,0
23411,-125,4,2,1,50,0,0
31811,-100,4,2,1,60,0,0
33011,-111.111111111111,4,2,1,60,0,0
42611,-125,4,2,1,50,0,0
49736,-125,4,2,1,5,0,0
49811,-111.111111111111,4,2,1,50,0,0
50411,-111.111111111111,4,2,1,60,0,0
52211,-90.9090909090908,4,2,1,80,0,1
71411,-111.111111111111,4,2,1,70,0,0
80411,-99.9999999999999,4,2,1,70,0,0
81011,-90.9090909090909,4,2,1,80,0,1
86411,-434.782608695652,4,2,1,70,0,0
88661,-434.782608695652,4,2,1,5,0,0

[Colours]
Combo1 : 255,128,128
Combo2 : 255,255,128
Combo3 : 128,64,64

[HitObjects]
59,141,605,6,0,P|101:114|161:128,1,97.9999970092774,2|2,0:2|0:2,0:0:0:0:
256,202,1271,2,0,P|303:206|343:180,1,97.9999970092774,2|2,0:2|0:2,0:0:0:0:
427,70,1938,2,0,P|378:61|309:49,1,97.9999970092774,2|2,0:2|0:2,0:0:0:0:
243,158,2604,2,0,P|194:166|146:175,1,97.9999970092774,2|2,0:2|0:2,0:0:0:0:
29,102,3271,5,2,0:2:0:0:
29,102,3604,2,0,B|34:142|34:142|42:154|42:154|47:210,2,97.9999970092774,2|2|2,0:2|0:2|0:2,0:0:0:0:
130,9,4604,2,0,P|161:39|228:32,1,97.9999970092774,2|2,0:2|0:2,0:0:0:0:
350,34,5271,2,0,P|358:78|371:151,1,97.9999970092774,2|2,0:2|0:2,0:0:0:0:
256,202,5938,5,2,0:2:0:0:
256,202,6271,2,0,B|316:192|295:234|365:217,2,97.9999970092774,2|2|2,0:2|0:2|0:2,0:0:0:0:
148,287,7271,2,0,P|101:305|50:271,1,97.9999970092774,2|2,0:2|0:2,0:0:0:0:
2,161,7938,2,0,P|13:104|26:42,1,97.9999970092774,2|2,0:2|0:2,0:0:0:0:
147,11,8604,5,2,0:2:0:0:
225,123,8938,1,2,0:2:0:0:
325,30,9271,2,0,P|372:22|433:12,1,97.9999970092774,2|2,0:2|0:2,0:0:0:0:
502,125,9938,5,2,0:2:0:0:
421,13,10271,1,0,0:0:0:0:
336,120,10604,2,0,P|287:111|239:103,1,97.9999970092774,2|0,0:2|0:0,0:0:0:0:
140,225,11271,6,0,P|183:257|251:244,1,112,2|2,0:2|0:2,0:0:0:0:
201,101,11938,2,0,P|158:69|90:82,1,112,2|2,0:2|0:2,0:0:0:0:
256,192,12604,12,0,13438,0:0:0:0:
129,231,13794,5,6,3:2:0:0:
194,304,13944,2,0,P|242:294|287:288,1,70,2|8,0:2|0:2,0:0:0:0:
330,362,14244,2,0,P|354:311|331:224,1,140,2|2,0:2|0:2,0:0:0:0:
248,189,14694,2,0,P|239:150|255:108,1,70,8|2,0:2|0:2,0:0:0:0:
321,58,14994,6,0,P|364:65|401:71,2,70,2|2|8,3:2|0:2|0:2,0:0:0:0:
235,9,15444,2,0,P|181:15|88:28,1,140,2|2,0:2|0:2,0:0:0:0:
31,100,15894,2,0,P|85:125|115:119,1,70,10|0,0:2|0:0,0:0:0:0:
166,58,16194,5,2,3:2:0:0:
246,121,16344,2,0,P|285:116|322:114,1,70,2|8,0:2|0:2,0:0:0:0:
385,44,16644,2,0,B|425:82|425:82|394:184,1,140,2|2,0:2|0:2,0:0:0:0:
319,218,17094,2,0,P|331:274|341:312,1,70,8|2,0:2|0:2,0:0:0:0:
403,355,17394,6,0,P|439:373|475:364,2,70,2|2|10,3:2|0:2|0:2,0:0:0:0:
334,286,17844,2,0,P|294:251|194:286,1,140,2|14,0:2|0:2,0:0:0:0:
113,340,18294,2,0,P|108:302|98:249,1,70,14|0,0:2|0:0,0:0:0:0:
25,208,18594,6,0,P|63:179|104:174,1,70,6|2,3:2|0:2,0:0:0:0:
69,76,18894,2,0,P|116:78|151:100,1,70,10|2,0:2|0:2,0:0:0:0:
187,5,19194,2,0,P|222:37|234:76,1,70,2|2,3:2|0:2,0:0:0:0:
323,26,19494,2,0,P|329:73|312:111,1,70,10|2,0:2|0:2,0:0:0:0:
277,170,19811,6,0,P|240:163|193:156,1,62.9999980773926,2|2,3:2|0:2,0:0:0:0:
166,234,20111,2,0,P|197:239|228:244,1,62.9999980773926,10|2,0:2|0:2,0:0:0:0:
286,310,20411,1,2,3:2:0:0:
286,310,20561,1,2,0:2:0:0:
369,233,20711,2,0,P|388:190|372:122,1,94.499997116089,14|0,0:2|0:0,0:0:0:0:
366,102,21011,5,10,0:2:0:0:
258,166,21161,1,10,0:2:0:0:
258,166,21611,5,10,0:2:0:0:
189,61,21761,1,10,0:2:0:0:
96,146,22061,5,0,3:2:0:0:
96,146,22136,1,0,3:2:0:0:
96,146,22211,5,10,0:2:0:0:
189,295,22511,1,10,0:2:0:0:
333,193,22811,2,0,P|365:167|455:198,1,125.999996154785,10|0,0:2|0:0,0:0:0:0:
390,330,23411,6,0,P|344:319|256:301,1,112,6|0,3:2|3:2,0:0:0:0:
141,233,24011,2,0,P|186:222|275:204,1,112,2|0,3:2|3:2,0:0:0:0:
401,249,24611,2,0,P|417:188|384:130,1,112,2|0,3:2|3:2,0:0:0:0:
248,104,25211,2,0,P|232:165|265:223,1,112,2|0,3:2|3:2,0:0:0:0:
336,77,25811,5,2,3:2:0:0:
250,208,26111,1,2,3:2:0:0:
172,71,26411,1,2,3:2:0:0:
86,202,26711,1,2,3:2:0:0:
172,71,27011,6,0,P|139:45|64:60,2,112,2|0|0,3:2|3:2|3:2,0:0:0:0:
250,208,27911,1,0,3:2:0:0:
372,110,28211,6,0,B|431:117|431:117|437:120|437:120|497:128,1,112,2|0,3:2|3:2,0:0:0:0:
421,270,28811,2,0,B|361:277|361:277|356:280|356:280|296:288,1,112,2|0,3:2|3:2,0:0:0:0:
187,181,29411,2,0,P|179:127|169:56,1,112,2|0,3:2|3:2,0:0:0:0:
31,140,30011,2,0,P|22:195|15:250,1,112,2|0,3:2|3:2,0:0:0:0:
116,369,30611,6,0,P|73:357|39:348,2,56,2|2|2,3:2|0:2|3:2,0:0:0:0:
168,309,31061,2,0,P|205:275|281:302,1,112,2|2,0:2|0:2,0:0:0:0:
330,321,31511,2,0,P|373:310|410:300,1,56,0|2,3:2|0:2,0:0:0:0:
433,222,31811,5,0,3:2:0:0:
433,222,31961,1,0,0:0:0:0:
365,133,32111,2,0,P|318:142|267:154,1,70,12|4,0:2|2:3,0:0:0:0:
248,159,32336,1,4,2:3:0:0:
248,159,32411,1,0,3:2:0:0:
171,97,32561,2,0,P|176:66|183:39,2,35,8|8|8,0:2|0:2|0:2,0:0:0:0:
97,162,32861,1,8,0:2:0:0:
143,236,33011,6,0,B|204:242|204:242|210:248|210:248|270:255,2,125.999996154785,6|8|2,3:2|0:2|3:2,0:0:0:0:
97,162,33761,1,0,3:2:0:0:
159,100,33911,2,0,P|197:82|232:84,1,62.9999980773926,8|0,0:2|0:0,0:0:0:0:
273,149,34211,6,0,P|305:88|289:32,2,125.999996154785,2|8|2,3:2|0:2|3:2,0:0:0:0:
201,201,34961,1,0,3:2:0:0:
265,255,35111,2,0,P|307:262|336:270,1,62.9999980773926,8|0,0:2|0:0,0:0:0:0:
396,213,35411,6,0,P|408:178|399:140,1,62.9999980773926,2|0,3:2|0:0,0:0:0:0:
338,93,35711,2,0,P|326:58|335:20,1,62.9999980773926,10|0,0:2|0:0,0:0:0:0:
414,54,36011,1,2,3:2:0:0:
414,54,36161,1,0,3:2:0:0:
343,106,36311,2,0,P|309:100|259:92,1,62.9999980773926,10|0,0:2|0:0,0:0:0:0:
219,31,36611,6,0,P|166:25|115:96,1,125.999996154785,2|8,3:2|0:2,0:0:0:0:
172,142,37061,1,0,0:0:0:0:
107,202,37211,1,0,3:2:0:0:
107,202,37361,1,0,3:2:0:0:
180,251,37511,2,0,P|195:303|197:341,1,62.9999980773926,8|0,0:2|0:0,0:0:0:0:
112,368,37811,6,0,P|77:382|14:316,2,125.999996154785,2|8|2,3:2|0:2|3:2,0:0:0:0:
185,318,38561,1,0,3:2:0:0:
264,356,38711,2,0,P|314:347|351:342,1,62.9999980773926,8|0,0:2|0:0,0:0:0:0:
401,298,39011,6,0,P|372:269|286:267,2,125.999996154785,2|8|2,3:2|0:2|3:2,0:0:0:0:
446,374,39761,1,0,3:2:0:0:
496,301,39911,2,0,P|508:263|498:226,1,62.9999980773926,10|0,0:2|0:0,0:0:0:0:
441,161,40211,6,0,P|447:124|456:77,2,62.9999980773926,6|0|8,3:2|0:0|0:2,0:0:0:0:
402,241,40661,2,0,P|347:276|270:246,1,125.999996154785,0|0,0:0|3:2,0:0:0:0:
213,209,41111,1,8,0:2:0:0:
213,209,41261,1,0,0:0:0:0:
265,138,41411,6,0,P|256:95|249:64,1,62.9999980773926,0|0,3:2|3:2,0:0:0:0:
151,25,41711,2,0,P|113:49|71:43,1,62.9999980773926,12|8,0:2|0:2,0:0:0:0:
51,46,41936,1,8,0:2:0:0:
51,46,42011,1,8,0:2:0:0:
0,117,42161,1,8,3:3:0:0:
65,176,42311,2,0,P|78:213|86:260,1,62.9999980773926,8|8,3:3|3:3,0:0:0:0:
118,262,42536,1,8,3:3:0:0:
118,262,42611,6,0,P|179:254|219:296,1,112,6|2,3:2|3:2,0:0:0:0:
274,335,43061,2,0,B|337:329|309:282|390:279,1,112,2|2,3:2|3:2,0:0:0:0:
440,310,43511,2,0,P|451:265|452:236,1,56,2|2,3:2|3:2,0:0:0:0:
435,219,43736,1,0,3:2:0:0:
435,219,43811,6,0,P|413:177|426:104,1,112,2|2,3:2|0:2,0:0:0:0:
458,45,44261,1,0,3:2:0:0:
384,17,44411,2,0,P|339:22|311:43,2,56,2|0|0,0:2|3:2|3:2,0:0:0:0:
466,53,44861,1,0,3:2:0:0:
466,53,44936,1,0,3:2:0:0:
466,53,45011,6,0,P|460:96|448:183,1,112,2|2,3:2|0:2,0:0:0:0:
399,223,45461,2,0,P|356:189|285:210,1,112,2|2,3:2|0:2,0:0:0:0:
236,238,45911,2,0,P|205:232|159:223,1,56,2|2,3:2|3:2,0:0:0:0:
150,251,46136,1,0,3:2:0:0:
150,251,46211,6,0,P|122:256|95:261,1,56,2|2,3:2|3:2,0:0:0:0:
32,212,46511,2,0,P|24:178|34:142,1,56,2|0,3:2|3:2,0:0:0:0:
63,87,46811,2,0,P|123:95|191:105,1,112,2|0,3:2|3:2,0:0:0:0:
255,42,47261,1,0,3:2:0:0:
255,42,47336,1,0,3:2:0:0:
255,42,47411,6,0,P|317:37|393:32,1,112,6|2,3:2|0:2,0:0:0:0:
488,132,48011,2,0,P|514:173|507:254,1,112,2|2,0:2|0:2,0:0:0:0:
382,319,48611,2,0,B|371:259|371:259|374:255|374:255|364:193,2,112,2|0|0,0:2|0:0|0:0,0:0:0:0:
382,319,49511,1,2,0:2:0:0:
382,319,49811,6,0,P|351:323|306:305,1,62.9999980773926,6|0,3:2|0:0,0:0:0:0:
262,380,50111,2,0,P|243:355|236:307,1,62.9999980773926,10|0,0:2|0:0,0:0:0:0:
149,306,50411,2,0,P|161:277|199:247,1,62.9999980773926,2|0,3:2|0:0,0:0:0:0:
156,171,50711,2,0,P|187:167|232:185,1,62.9999980773926,10|0,0:2|0:0,0:0:0:0:
317,231,51011,5,2,3:2:0:0:
256,192,51086,12,0,51911,0:0:0:0:
317,231,52211,5,6,3:2:0:0:
242,164,52361,2,0,P|207:140|159:138,1,77.0000023498536,2|10,0:2|0:2,0:0:0:0:
173,235,52661,1,2,0:2:0:0:
249,299,52811,2,0,P|286:327|346:323,1,77.0000023498536,2|2,3:2|0:2,0:0:0:0:
414,316,53111,1,10,0:2:0:0:
414,316,53261,1,2,0:2:0:0:
341,246,53411,6,0,P|398:211|487:241,2,154.000004699707,2|10|2,3:2|0:2|3:2,0:0:0:0:
249,299,54161,1,0,0:0:0:0:
169,238,54311,2,0,P|159:197|175:149,1,77.0000023498536,8|0,0:2|0:0,0:0:0:0:
204,71,54611,5,2,3:2:0:0:
286,127,54761,2,0,P|325:118|365:110,1,77.0000023498536,2|10,0:2|0:2,0:0:0:0:
459,87,55061,1,2,0:2:0:0:
388,15,55211,2,0,P|349:6|309:-2,1,77.0000023498536,2|2,3:2|0:2,0:0:0:0:
225,49,55511,1,10,0:2:0:0:
225,49,55661,1,2,0:2:0:0:
181,139,55811,6,0,P|192:188|204:242,1,77.0000023498536,2|0,3:2|0:0,0:0:0:0:
162,307,56111,2,0,P|109:326|45:261,1,154.000004699707,10|2,0:2|3:2,0:0:0:0:
93,175,56561,1,0,0:0:0:0:
26,80,56711,2,0,B|40:45|40:45|38:40|38:40|52:5,1,77.0000023498536,12|0,0:2|0:0,0:0:0:0:
145,39,57011,6,0,P|214:84|299:42,2,154.000004699707,6|8|2,3:2|0:2|3:2,0:0:0:0:
54,82,57761,1,0,0:0:0:0:
93,175,57911,2,0,P|78:227|67:268,1,77.0000023498536,10|0,0:2|0:0,0:0:0:0:
43,345,58211,5,2,3:2:0:0:
43,345,58361,1,0,0:0:0:0:
141,325,58511,2,0,P|180:344|219:337,1,77.0000023498536,8|0,0:2|0:0,0:0:0:0:
249,246,58811,2,0,B|216:152|216:152|254:104,1,154.000004699707,2|10,3:2|0:2,0:0:0:0:
319,36,59261,1,0,0:0:0:0:
405,87,59411,6,0,P|449:149|422:238,1,154.000004699707,2|8,3:2|0:2,0:0:0:0:
387,309,59861,2,0,B|303:298|345:239|254:227,1,154.000004699707,2|0,0:2|0:0,0:0:0:0:
185,292,60311,1,10,0:2:0:0:
185,292,60461,1,0,0:0:0:0:
74,251,60611,6,0,P|102:211|148:191,1,77.0000023498536,2|0,3:2|0:0,0:0:0:0:
111,90,60911,2,0,P|159:94|199:124,1,77.0000023498536,12|0,0:2|0:0,0:0:0:0:
265,178,61211,1,0,3:2:0:0:
332,94,61361,1,8,0:2:0:0:
332,94,61436,1,8,0:2:0:0:
332,94,61511,2,0,P|326:73|319:50,3,38.5000011749268,8|8|8|8,0:2|0:2|0:2|0:2,0:0:0:0:
302,6,61811,5,6,3:2:0:0:
221,65,61961,2,0,P|177:58|124:50,1,77.0000023498536,2|8,0:2|0:2,0:0:0:0:
44,40,62261,1,2,0:2:0:0:
87,129,62411,2,0,P|107:168|115:214,1,77.0000023498536,2|0,3:2|0:0,0:0:0:0:
44,272,62711,1,10,0:2:0:0:
44,272,62861,1,2,0:2:0:0:
112,345,63011,6,0,P|191:329|281:319,2,154.000004699707,2|10|2,3:2|0:2|3:2,0:0:0:0:
44,272,63761,1,0,0:0:0:0:
116,203,63911,2,0,P|109:166|98:111,1,77.0000023498536,8|0,0:2|0:0,0:0:0:0:
21,66,64211,5,2,3:2:0:0:
102,8,64361,2,0,P|142:14|182:20,1,77.0000023498536,2|8,0:2|0:2,0:0:0:0:
227,106,64661,1,2,0:2:0:0:
293,31,64811,2,0,P|319:62|330:110,1,77.0000023498536,2|0,3:2|0:0,0:0:0:0:
281,184,65111,1,10,0:2:0:0:
281,184,65261,1,2,0:2:0:0:
364,238,65411,6,0,P|406:253|450:242,1,77.0000023498536,2|0,3:2|0:0,0:0:0:0:
493,165,65711,2,0,B|455:119|455:119|342:138,1,154.000004699707,10|2,0:2|3:2,0:0:0:0:
281,184,66161,1,0,0:0:0:0:
190,116,66311,2,0,P|178:70|202:23,1,77.0000023498536,12|0,0:2|0:0,0:0:0:0:
278,3,66611,6,0,B|351:11|351:11|364:23|364:23|443:32,2,154.000004699707,6|8|0,3:2|0:2|3:2,0:0:0:0:
186,42,67361,1,0,0:0:0:0:
205,140,67511,2,0,P|192:182|177:229,1,77.0000023498536,8|0,0:2|0:0,0:0:0:0:
94,263,67811,6,0,P|148:310|229:302,2,154.000004699707,2|8|0,3:2|0:2|3:2,0:0:0:0:
182,213,68561,1,0,0:0:0:0:
99,155,68711,2,0,P|108:108|118:64,1,77.0000023498536,8|0,0:2|0:0,0:0:0:0:
203,33,69011,6,0,P|236:77|344:65,1,154.000004699707,6|8,3:2|0:2,0:0:0:0:
420,20,69461,1,0,0:0:0:0:
489,103,69611,2,0,P|479:143|464:210,1,77.0000023498536,0|0,3:2|0:0,0:0:0:0:
363,239,69911,2,0,P|327:210|273:217,1,77.0000023498536,12|0,0:2|0:0,0:0:0:0:
194,238,70211,5,2,3:2:0:0:
140,144,70361,1,8,0:2:0:0:
140,144,70436,1,8,0:2:0:0:
140,144,70511,2,0,P|149:124|162:98,3,38.5000011749268,8|8|8|8,0:2|0:2|0:2|0:2,0:0:0:0:
209,96,70811,1,8,0:2:0:0:
282,176,70961,1,8,3:3:0:0:
282,176,71111,2,0,P|322:155|368:158,1,77.0000023498536,8|8,3:3|3:3,0:0:0:0:
449,216,71411,6,0,B|474:296|474:296|436:338,1,125.999996154785,6|0,3:2|0:0,0:0:0:0:
378,384,71861,1,0,3:2:0:0:
312,325,72011,2,0,P|267:289|187:313,1,125.999996154785,10|0,0:2|0:0,0:0:0:0:
114,302,72461,1,8,0:2:0:0:
114,302,72536,1,8,0:2:0:0:
114,302,72611,6,0,P|124:336|133:364,2,62.9999980773926,2|10|0,3:2|0:2|0:0,0:0:0:0:
35,260,73061,1,2,3:2:0:0:
85,187,73211,2,0,P|118:137|94:52,1,125.999996154785,10|0,0:2|0:0,0:0:0:0:
3,39,73661,1,0,3:2:0:0:
3,39,73736,1,0,3:2:0:0:
3,39,73811,6,0,P|66:32|133:28,1,125.999996154785,6|0,3:2|0:0,0:0:0:0:
201,79,74261,1,0,3:2:0:0:
276,32,74411,2,0,P|316:52|337:143,1,125.999996154785,10|0,0:2|0:0,0:0:0:0:
303,205,74861,1,8,0:2:0:0:
303,205,74936,1,8,0:2:0:0:
303,205,75011,6,0,P|273:198|215:187,2,62.9999980773926,2|10|2,3:2|0:2|0:2,0:0:0:0:
354,276,75461,1,0,3:2:0:0:
288,335,75611,2,0,P|256:348|217:341,1,62.9999980773926,10|0,0:2|0:0,0:0:0:0:
170,277,75911,2,0,P|138:275|110:287,1,62.9999980773926
16,352,76211,6,0,B|-8:305|-8:305|21:230,1,125.999996154785,6|0,3:2|0:0,0:0:0:0:
60,159,76661,1,0,3:2:0:0:
143,137,76811,2,0,P|174:182|262:181,1,125.999996154785,10|0,0:2|0:0,0:0:0:0:
303,128,77261,1,8,0:2:0:0:
303,128,77336,1,0,3:2:0:0:
303,128,77411,6,0,P|296:79|292:47,2,62.9999980773926,2|8|0,3:2|0:2|0:0,0:0:0:0:
376,177,77861,1,0,3:2:0:0:
316,244,78011,1,8,0:2:0:0:
316,244,78161,1,0,0:0:0:0:
241,191,78311,2,0,P|204:176|171:183,1,62.9999980773926,2|0,0:2|3:2,0:0:0:0:
145,204,78536,1,0,3:2:0:0:
145,204,78611,6,0,P|152:238|162:283,1,62.9999980773926,2|0,3:2|3:2,0:0:0:0:
51,225,78911,2,0,P|57:194|64:163,1,62.9999980773926,14|0,0:2|0:0,0:0:0:0:
4,97,79211,2,0,P|71:113|121:59,1,125.999996154785,2|8,3:2|3:3,0:0:0:0:
162,7,79661,1,8,3:3:0:0:
241,88,79811,5,2,3:2:0:0:
410,57,80411,6,0,P|418:93|427:136,1,70,10|8,0:2|0:2,0:0:0:0:
356,197,80711,2,0,P|321:192|286:188,1,70,8|8,0:2|0:2,0:0:0:0:
241,88,81011,5,6,3:2:0:0:
168,156,81161,2,0,P|181:202|196:250,1,77.0000023498536,2|10,0:2|0:2,0:0:0:0:
222,324,81461,1,2,0:2:0:0:
293,253,81611,2,0,P|323:228|382:230,1,77.0000023498536,2|2,3:2|0:2,0:0:0:0:
426,298,81911,1,10,0:2:0:0:
426,298,82061,1,2,0:2:0:0:
471,209,82211,6,0,P|492:129|466:59,2,154.000004699707,2|10|2,3:2|0:2|3:2,0:0:0:0:
426,298,82961,1,0,0:0:0:0:
349,233,83111,2,0,P|313:211|271:211,1,77.0000023498536,12|0,0:2|0:0,0:0:0:0:
207,279,83411,5,6,3:2:0:0:
127,212,83561,2,0,P|101:173|105:136,1,77.0000023498536,2|10,0:2|0:2,0:0:0:0:
188,94,83861,1,2,0:2:0:0:
127,14,84011,2,0,P|79:24|16:35,1,77.0000023498536,2|0,3:2|0:0,0:0:0:0:
27,131,84311,2,0,P|71:139|138:152,1,77.0000023498536,10|2,0:2|0:2,0:0:0:0:
188,94,84611,6,0,P|225:66|275:74,1,77.0000023498536,2|0,3:2|0:0,0:0:0:0:
330,130,84911,2,0,P|370:121|411:116,1,77.0000023498536,14|8,0:2|0:2,0:0:0:0:
454,102,85136,1,8,0:2:0:0:
454,102,85211,2,0,P|467:54|447:14,1,77.0000023498536,10|8,0:2|0:2,0:0:0:0:
361,3,85511,1,10,0:2:0:0:
330,130,85661,1,8,0:2:0:0:
127,29,86411,5,6,3:2:0:0:
256,192,86486,12,0,88661,0:0:0:0:
