osu file format v14

[General]
AudioFilename: audio.mp3
AudioLeadIn: 0
PreviewTime: 52126
Countdown: 0
SampleSet: Soft
StackLeniency: 0.7
Mode: 0
LetterboxInBreaks: 0
WidescreenStoryboard: 1

[Editor]
DistanceSpacing: 1.4
BeatDivisor: 4
GridSize: 32
TimelineZoom: 2.899999

[Metadata]
Title:Hikari Shoumeiron (TV Size)
TitleUnicode:ヒカリ証明論 (TV Size)
Artist:CHiCO with HoneyWorks
ArtistUnicode:CHiCO with HoneyWorks
Creator:Smoke
Version:Hard
Source:銀魂. 銀ノ魂篇
Tags:ending ed 30 japanese anime j-rock kagura 神楽 gintama silver soul arc season 2 2018 Shirogane no Tamashii-hen ぎんたま Gintoki Sakata 坂田 銀時 Shinpachi Shimura 志村 新八 attendant
BeatmapID:2226667
BeatmapSetID:1063453

[Difficulty]
HPDrainRate:5
CircleSize:3.8
OverallDifficulty:6.5
ApproachRate:8
SliderMultiplier:1.3
SliderTickRate:1

[Events]
//Background and Video events
0,0,"kagura umbrella.jpg",0,0
Video,360,"ED.mp4"
//Break Periods
//Storyboard Layer 0 (Background)
//Storyboard Layer 1 (Fail)
//Storyboard Layer 2 (Pass)
//Storyboard Layer 3 (Foreground)
//Storyboard Layer 4 (Overlay)
//Storyboard Sound Samples

[TimingPoints]
605,333.333333333333,4,2,1,45,1,0
605,-142.857142857143,4,2,1,45,0,0
3271,-125,4,2,1,45,0,0
13811,300,4,2,1,75,1,0
13811,-100,4,2,1,75,0,0
16136,-100,4,2,1,5,0,0
16211,-100,4,2,1,75,0,0
18536,-100,4,2,1,5,0,0
18611,-100,4,2,1,75,0,0
18911,-105.263157894737,4,2,1,75,0,0
19211,-111.111111111111,4,2,1,75,0,0
19511,-117.647058823529,4,2,1,75,0,0
19811,-125,4,2,1,75,0,0
20111,-133.333333333333,4,2,1,75,0,0
20411,-142.857142857143,4,2,1,75,0,0
20711,-166.666666666667,4,2,1,75,0,0
22211,-100,4,2,1,75,0,0
22436,-100,4,2,1,5,0,0
22511,-100,4,2,1,75,0,0
22736,-100,4,2,1,5,0,0
22811,-125,4,2,1,75,0,0
23411,-125,4,2,1,55,0,0
31811,-117.647058823529,4,2,1,55,0,0
33011,-111.111111111111,4,2,1,55,0,0
34136,-111.111111111111,4,2,1,5,0,0
34211,-111.111111111111,4,2,1,55,0,0
35636,-111.111111111111,4,2,1,5,0,0
35711,-111.111111111111,4,2,1,55,0,0
36536,-111.111111111111,4,2,1,5,0,0
36611,-111.111111111111,4,2,1,55,0,0
37736,-111.111111111111,4,2,1,5,0,0
37811,-111.111111111111,4,2,1,55,0,0
38036,-111.111111111111,4,2,1,55,0,0
38111,-111.111111111111,4,2,1,55,0,0
38936,-111.111111111111,4,2,1,5,0,0
39011,-111.111111111111,4,2,1,55,0,0
39236,-111.111111111111,4,2,1,55,0,0
39311,-111.111111111111,4,2,1,55,0,0
42611,-142.857142857143,4,2,1,55,0,0
44036,-142.857142857143,4,2,1,5,0,0
44111,-142.857142857143,4,2,1,55,0,0
49811,-133.333333333333,4,2,1,55,0,0
50411,-125,4,2,1,55,0,0
51011,-166.666666666666,4,2,1,55,0,0
51086,-166.666666666666,4,2,1,55,0,0
52211,-90.9090909090909,4,2,1,75,0,1
53936,-90.9090909090909,4,2,1,5,0,1
54011,-90.9090909090909,4,2,1,75,0,1
56036,-90.9090909090909,4,2,1,5,0,1
56111,-90.9090909090909,4,2,1,75,0,1
57236,-90.9090909090909,4,2,1,5,0,1
57311,-90.9090909090909,4,2,1,75,0,1
57836,-90.9090909090909,4,2,1,5,0,1
57911,-90.9090909090909,4,2,1,75,0,1
58136,-90.9090909090909,4,2,1,5,0,1
58211,-90.9090909090909,4,2,1,75,0,1
59036,-90.9090909090909,4,2,1,5,0,1
59111,-90.9090909090909,4,2,1,75,0,1
59336,-90.9090909090909,4,2,1,5,0,1
59411,-90.9090909090909,4,2,1,75,0,1
59636,-90.9090909090909,4,2,1,5,0,1
59711,-90.9090909090909,4,2,1,75,0,1
63536,-90.9090909090909,4,2,1,5,0,1
63611,-90.9090909090909,4,2,1,75,0,1
65936,-90.9090909090909,4,2,1,5,0,1
66011,-90.9090909090909,4,2,1,75,0,1
66536,-90.9090909090909,4,2,1,5,0,1
66611,-90.9090909090909,4,2,1,75,0,1
71411,-111.111111111111,4,2,1,65,0,0
72986,-111.111111111111,4,2,1,65,0,0
73061,-111.111111111111,4,2,1,65,0,0
78536,-111.111111111111,4,2,1,5,0,0
78611,-111.111111111111,4,2,1,65,0,0
79136,-111.111111111111,4,2,1,5,0,0
79211,-111.111111111111,4,2,1,65,0,0
80311,-125,4,2,1,65,0,0
81011,-86.9565217391304,4,2,1,75,0,1
85661,-111.111111111111,4,2,1,75,0,0
88586,-111.111111111111,4,2,1,35,0,0

[Colours]
Combo1 : 77,182,41
Combo2 : 243,7,7
Combo3 : 193,184,153
Combo4 : 17,172,232

[HitObjects]
66,351,605,6,0,L|173:339,1,90.9999972229005,2|0,0:0|0:0,0:0:0:0:
236,384,1271,2,0,L|343:372,1,90.9999972229005,2|0,0:0|0:0,0:0:0:0:
415,296,1938,2,0,L|308:284,1,90.9999972229005,2|0,0:0|0:0,0:0:0:0:
284,203,2604,2,0,L|177:191,1,90.9999972229005,2|0,0:0|0:0,0:0:0:0:
264,114,3104,5,2,0:0:0:0:
264,114,3271,2,0,P|270:83|261:45,1,52,2|0,0:0|0:0,0:0:0:0:
198,17,3604,2,0,P|167:11|99:56,1,104,2|2,0:0|0:0,0:0:0:0:
110,127,4104,1,2,0:0:0:0:
110,127,4271,2,0,L|104:198,1,52,2|0,0:0|0:0,0:0:0:0:
50,241,4604,2,0,L|56:312,1,52,2|0,0:0|0:0,0:0:0:0:
110,354,4938,2,0,P|155:321|215:328,1,104,2|2,0:0|0:0,0:0:0:0:
379,380,5771,5,2,0:0:0:0:
379,380,5938,2,0,L|371:272,1,104,2|2,0:0|0:0,0:0:0:0:
314,215,6438,1,2,0:0:0:0:
314,215,6604,2,0,B|364:193|364:193|424:208,1,104,2|2,0:0|0:0,0:0:0:0:
472,147,7104,1,2,0:0:0:0:
472,147,7271,2,0,P|465:111|461:75,1,52,2|0,0:0|0:0,0:0:0:0:
395,46,7604,2,0,P|338:67|282:49,1,104,2|2,0:0|0:0,0:0:0:0:
287,55,8271,1,2,0:0:0:0:
113,16,8604,6,0,L|121:119,1,104,2|0,0:0|0:0,0:0:0:0:
200,63,9271,1,2,0:0:0:0:
34,78,9604,1,2,0:0:0:0:
176,198,9938,6,0,B|129:217|129:217|77:206,1,104,2|0,0:0|0:0,0:0:0:0:
121,119,10604,1,2,0:0:0:0:
137,311,10938,1,2,0:0:0:0:
316,182,11271,6,0,L|306:303,1,104,2|0,0:0|0:0,0:0:0:0:
202,130,11938,1,2,0:0:0:0:
440,153,12271,1,2,0:0:0:0:
296,377,12604,5,2,0:0:0:0:
256,192,12688,12,0,13438,0:0:0:0:
55,244,13811,5,6,3:2:0:0:
55,244,13961,2,0,L|141:257,1,65,0|8,1:2|3:2,0:0:0:0:
199,296,14261,2,0,B|236:302|236:302|272:286,1,65,2|0,1:2|3:2,0:0:0:0:
319,220,14561,2,0,B|325:183|325:183|309:147,1,65,0|10,1:2|3:2,0:0:0:0:
381,95,14861,1,0,1:2:0:0:
381,95,15011,2,0,L|459:103,1,65,2|2,3:2|1:2,0:0:0:0:
507,35,15311,1,8,3:2:0:0:
507,35,15461,1,2,1:2:0:0:
328,0,15761,1,2,1:2:0:0:
328,0,15911,2,0,L|339:78,1,65,10|2,3:2|1:2,0:0:0:0:
311,151,16211,5,6,3:2:0:0:
311,151,16361,2,0,B|279:138|279:138|242:144,1,65,0|8,1:2|3:2,0:0:0:0:
160,163,16661,2,0,L|173:88,1,65,2|0,1:2|3:2,0:0:0:0:
112,29,16961,2,0,L|47:40,1,65,0|10,1:2|3:2,0:0:0:0:
2,119,17261,1,0,1:2:0:0:
2,119,17411,2,0,P|24:149|39:188,1,65,2|2,3:2|1:2,0:0:0:0:
49,264,17711,1,8,3:2:0:0:
49,264,17861,1,2,1:2:0:0:
199,162,18161,1,10,1:2:0:0:
199,162,18311,2,0,L|191:234,1,65,10|2,3:2|1:2,0:0:0:0:
220,310,18611,6,0,P|256:306|290:283,1,65,6|0,3:2|1:2,0:0:0:0:
353,338,18911,2,0,P|367:304|365:264,1,61.7499983510972,10|0,3:2|1:2,0:0:0:0:
441,243,19211,2,0,P|419:213|381:196,1,58.4999982147217,2|0,3:2|1:2,0:0:0:0:
408,125,19511,2,0,P|372:128|338:151,1,55.2500010538101,10|0,3:2|1:2,0:0:0:0:
435,252,19811,6,0,P|413:222|380:204,1,52,2|0,3:2|1:2,0:0:0:0:
346,337,20111,2,0,P|360:303|359:270,1,48.750001859665,10|0,3:2|1:2,0:0:0:0:
230,305,20411,2,0,P|265:301|291:287,1,45.4999986114502,2|0,3:1|1:2,0:0:0:0:
311,215,20711,1,12,3:2:0:0:
129,124,21011,5,10,3:2:0:0:
129,124,21161,1,10,3:2:0:0:
49,310,21461,5,0,3:2:0:0:
146,282,21611,1,10,3:2:0:0:
146,282,21761,1,10,3:2:0:0:
4,150,22061,5,0,3:2:0:0:
7,140,22136,1,0,3:2:0:0:
10,130,22211,2,0,P|57:103|121:119,1,97.5,10|0,3:2|0:0,0:0:0:0:
143,116,22511,2,0,P|190:89|254:105,1,97.5,10|0,3:2|0:0,0:0:0:0:
274,107,22811,2,0,P|280:150|300:120,1,104,10|0,3:2|0:0,0:0:0:0:
426,48,23411,6,0,L|432:155,1,104,6|0,3:2|3:2,0:0:0:0:
486,286,24011,2,0,B|437:268|437:268|390:291,1,104,2|0,3:2|3:2,0:0:0:0:
256,344,24611,2,0,L|148:331,1,104,2|0,3:2|3:2,0:0:0:0:
80,194,25211,2,0,P|141:210|161:256,1,104,2|0,3:2|3:2,0:0:0:0:
146,342,25661,6,0,L|143:370,2,26,0|0|2,0:0|0:0|3:2,0:0:0:0:
21,265,26111,1,2,3:2:0:0:
152,331,26411,1,2,3:2:0:0:
16,276,26711,1,2,3:2:0:0:
113,159,27011,2,0,L|121:262,1,104,2|0,3:2|3:2,0:0:0:0:
6,174,27611,2,0,L|14:70,1,104,0|0,3:2|3:2,0:0:0:0:
147,9,28211,6,0,P|201:38|263:29,1,104,2|0,3:2|3:2,0:0:0:0:
384,4,28811,2,0,B|361:53|361:53|376:100,1,104,2|0,3:2|3:2,0:0:0:0:
480,200,29411,2,0,L|367:190,1,104,2|0,3:2|3:2,0:0:0:0:
284,304,30011,2,0,L|397:294,1,104,2|0,3:2|3:2,0:0:0:0:
499,294,30461,6,0,L|501:252,2,26,0|0|2,0:0|0:0|3:2,0:0:0:0:
465,179,30911,1,0,3:2:0:0:
511,299,31211,1,0,3:2:0:0:
455,189,31511,1,0,3:2:0:0:
343,290,31811,6,0,L|271:282,1,55.2500010538101,2|0,3:2|0:0,0:0:0:0:
202,260,32111,2,0,L|211:339,1,55.2500010538101,4|0,3:2|3:2,0:0:0:0:
215,360,32336,1,0,3:2:0:0:
217,370,32411,1,0,3:2:0:0:
129,366,32561,2,0,L|137:320,2,27.6250005269051,8|8|8,3:2|3:2|3:2,0:0:0:0:
54,317,32861,1,8,3:2:0:0:
107,240,33011,6,0,L|98:123,1,116.999996429443,6|8,3:2|3:2,0:0:0:0:
239,0,33611,2,0,L|231:65,1,58.4999982147217,2|0,3:2|3:2,0:0:0:0:
285,134,33911,2,0,L|353:126,1,58.4999982147217,8|0,3:2|0:0,0:0:0:0:
427,84,34211,6,0,P|492:103|511:150,1,116.999996429443,2|8,3:2|3:2,0:0:0:0:
505,240,34661,1,0,3:2:0:0:
501,251,34736,1,0,3:2:0:0:
498,262,34811,2,0,L|374:272,1,116.999996429443,2|8,3:2|3:2,0:0:0:0:
303,324,35261,5,0,3:2:0:0:
299,313,35336,1,0,3:2:0:0:
295,302,35411,2,0,B|266:288|266:288|231:296,1,58.4999982147217,2|0,3:2|0:0,0:0:0:0:
149,318,35711,2,0,L|156:255,1,58.4999982147217,10|0,3:2|3:2,0:0:0:0:
138,216,35936,1,0,3:2:0:0:
130,209,36011,2,0,B|101:202|101:202|72:218,1,58.4999982147217,2|0,3:2|3:2,0:0:0:0:
0,273,36311,1,10,3:2:0:0:
4,115,36611,6,0,P|56:128|108:84,1,116.999996429443,2|8,3:2|3:2,0:0:0:0:
290,70,37211,2,0,L|221:60,1,58.4999982147217,0|0,3:2|3:2,0:0:0:0:
152,11,37511,1,8,3:2:0:0:
240,176,37811,6,0,B|301:169|301:169|352:199,1,116.999996429443,6|8,3:2|3:2,0:0:0:0:
429,245,38261,1,0,0:0:0:0:
429,245,38411,2,0,L|494:239,1,58.4999982147217,2|0,3:2|3:2,0:0:0:0:
456,151,38711,1,8,3:2:0:0:
356,307,39011,6,0,P|313:323|250:292,1,116.999996429443,2|8,3:2|3:2,0:0:0:0:
159,312,39461,1,0,3:2:0:0:
159,312,39611,2,0,L|154:383,1,58.4999982147217,2|0,3:2|3:2,0:0:0:0:
246,346,39911,1,8,3:2:0:0:
134,195,40211,6,0,P|80:203|33:152,1,116.999996429443,6|8,3:2|3:2,0:0:0:0:
87,86,40661,1,0,0:0:0:0:
87,86,40811,2,0,L|162:91,1,58.4999982147217,0|0,3:2|3:2,0:0:0:0:
221,145,41111,1,8,3:2:0:0:
309,115,41261,2,0,L|297:196,1,58.4999982147217,2|0,0:0|3:2,0:0:0:0:
341,257,41561,1,0,3:2:0:0:
341,257,41711,2,0,P|378:261|411:234,1,58.4999982147217,12|10,3:2|3:2,0:0:0:0:
432,222,41936,1,8,3:2:0:0:
436,211,42011,2,0,L|429:147,1,58.4999982147217,8|8,3:2|3:3,0:0:0:0:
494,84,42311,2,0,L|435:58,1,58.4999982147217,4|12,3:3|3:3,0:0:0:0:
360,26,42611,6,0,B|315:35|315:35|254:15,1,90.9999972229005,6|2,3:2|3:2,0:0:0:0:
208,79,43061,1,0,3:2:0:0:
208,79,43211,2,0,L|222:185,1,90.9999972229005,2|2,3:2|3:2,0:0:0:0:
161,232,43661,5,2,3:2:0:0:
149,229,43736,1,0,3:2:0:0:
137,226,43811,2,0,L|79:234,1,45.4999986114502,2|0,3:2|3:2,0:0:0:0:
54,310,44111,2,0,L|104:316,1,45.4999986114502,2|0,3:2|3:2,0:0:0:0:
160,375,44411,2,0,L|255:359,1,90.9999972229005,2|0,3:2|3:2,0:0:0:0:
328,324,44861,5,0,3:2:0:0:
339,326,44936,1,0,3:2:0:0:
349,329,45011,2,0,L|344:231,1,90.9999972229005,2|2,3:2|3:2,0:0:0:0:
298,164,45461,1,0,3:2:0:0:
298,164,45611,2,0,B|341:149|341:149|390:162,1,90.9999972229005,2|2,3:2|3:2,0:0:0:0:
454,107,46061,5,2,3:2:0:0:
448,97,46136,1,2,3:2:0:0:
442,87,46211,2,0,B|387:72,1,45.4999986114502,2|2,3:2|0:0,0:0:0:0:
331,20,46511,2,0,P|306:26|276:29,1,45.4999986114502,2|0,3:2|3:2,0:0:0:0:
213,71,46811,2,0,P|190:113|93:109,1,136.499995834351,2|0,3:2|3:2,0:0:0:0:
22,93,47411,6,0,L|32:205,1,90.9999972229005,6|2,3:2|0:0,0:0:0:0:
122,271,48011,2,0,B|169:252|169:252|221:260,1,90.9999972229005,2|2,0:0|0:0,0:0:0:0:
328,214,48611,2,0,L|320:277,1,45.4999986114502,2|0,0:0|0:0,0:0:0:0:
317,299,48836,1,0,0:0:0:0:
315,312,48911,1,2,1:2:0:0:
425,374,49211,1,2,0:2:0:0:
425,374,49811,6,0,L|418:306,1,48.750001859665,6|0,3:2|0:0,0:0:0:0:
481,260,50111,2,0,L|416:230,1,48.750001859665,2|0,3:2|0:0,0:0:0:0:
410,149,50411,2,0,L|354:188,1,52,2|0,3:2|0:0,0:0:0:0:
270,160,50711,2,0,L|277:235,1,52,2|0,3:2|0:0,0:0:0:0:
284,316,51011,1,2,3:2:0:0:
256,192,51086,12,2,51911,0:0:0:0:
100,222,52211,5,6,3:2:0:0:
100,222,52361,2,0,L|190:212,1,71.5000021820069,2|8,1:2|3:2,0:0:0:0:
265,249,52661,1,2,1:2:0:0:
265,249,52811,2,0,L|356:240,1,71.5000021820069,2|0,3:2|1:2,0:0:0:0:
422,294,53111,1,10,3:2:0:0:
422,294,53261,1,2,1:2:0:0:
344,357,53411,2,0,B|308:342|308:342|271:346,1,71.5000021820069,2|0,3:2|1:2,0:0:0:0:
189,384,53711,2,0,P|192:342|175:307,1,71.5000021820069,10|0,3:2|1:2,0:0:0:0:
142,230,54011,2,0,L|244:223,1,71.5000021820069,2|0,3:2|1:2,0:0:0:0:
306,220,54311,1,8,3:2:0:0:
206,66,54611,5,2,3:2:0:0:
206,66,54761,2,0,B|199:108|199:108|213:143,1,71.5000021820069,2|8,1:2|3:2,0:0:0:0:
116,136,55061,1,2,1:2:0:0:
116,136,55211,2,0,B|129:168|129:168|124:207,1,71.5000021820069,2|0,3:2|1:2,0:0:0:0:
109,296,55511,1,10,3:2:0:0:
109,296,55661,1,2,1:2:0:0:
198,269,55811,2,0,P|239:267|273:294,1,71.5000021820069,2|0,3:2|1:2,0:0:0:0:
316,359,56111,2,0,B|353:341|353:341|395:344,1,71.5000021820069,10|0,3:2|1:2,0:0:0:0:
453,282,56411,2,0,L|440:185,1,71.5000021820069,2|0,3:2|1:2,0:0:0:0:
369,154,56711,1,8,3:2:0:0:
502,25,57011,6,0,B|468:42|468:42|415:31,1,71.5000021820069,6|0,3:2|1:2,0:0:0:0:
343,17,57311,1,8,3:2:0:0:
232,161,57611,2,0,B|241:122|241:122|220:79,1,71.5000021820069,2|0,3:2|1:2,0:0:0:0:
159,30,57911,2,0,L|72:38,1,71.5000021820069,10|0,3:2|1:2,0:0:0:0:
36,114,58211,2,0,P|54:151|56:186,1,71.5000021820069,2|0,3:2|1:2,0:0:0:0:
45,273,58511,1,8,3:2:0:0:
222,328,58811,2,0,B|261:339|261:339|300:324,1,71.5000021820069,2|0,3:2|1:2,0:0:0:0:
371,281,59111,2,0,P|366:318|380:356,1,71.5000021820069,10|0,3:2|1:2,0:0:0:0:
466,324,59411,6,0,L|474:236,1,71.5000021820069,2|0,3:2|1:2,0:0:0:0:
482,159,59711,1,8,3:2:0:0:
482,159,59861,2,0,P|428:160|375:79,1,143.000004364014,2|0,1:2|1:2,0:0:0:0:
446,16,60311,2,0,B|461:56|461:56|452:96,1,71.5000021820069,10|0,3:2|1:2,0:0:0:0:
375,132,60611,6,0,L|282:119,1,71.5000021820069,2|2,3:2|1:2,0:0:0:0:
263,206,60911,2,0,L|189:150,1,71.5000021820069,10|2,3:2|1:2,0:0:0:0:
138,228,61211,2,0,L|103:139,1,71.5000021820069,2|10,3:2|3:2,0:0:0:0:
20,179,61511,2,0,L|32:86,1,71.5000021820069,10|10,3:2|3:2,0:0:0:0:
37,14,61811,5,6,3:2:0:0:
37,14,61961,2,0,B|77:6|77:6|119:20,1,71.5000021820069,2|8,1:2|3:2,0:0:0:0:
196,39,62261,1,2,1:2:0:0:
196,39,62411,2,0,B|236:47|236:47|276:33,1,71.5000021820069,2|0,3:2|1:2,0:0:0:0:
353,7,62711,1,10,3:2:0:0:
353,7,62861,1,2,1:2:0:0:
428,61,63011,2,0,L|417:133,1,71.5000021820069,2|0,3:2|1:2,0:0:0:0:
372,213,63311,2,0,L|384:290,1,71.5000021820069,10|0,3:2|1:2,0:0:0:0:
327,358,63611,2,0,L|248:348,1,71.5000021820069,2|0,3:2|1:2,0:0:0:0:
164,331,63911,1,8,3:2:0:0:
173,144,64211,5,2,3:2:0:0:
173,144,64361,2,0,B|187:183|187:183|176:232,1,71.5000021820069,2|8,1:2|3:2,0:0:0:0:
88,227,64661,1,2,1:2:0:0:
88,227,64811,2,0,B|74:188|74:188|84:138,1,71.5000021820069,2|0,3:2|1:2,0:0:0:0:
97,66,65111,1,10,3:2:0:0:
97,66,65261,1,2,1:2:0:0:
187,45,65411,2,0,L|261:57,1,71.5000021820069,2|0,3:2|1:2,0:0:0:0:
344,89,65711,2,0,B|376:73|376:73|412:79,1,71.5000021820069,10|0,3:2|1:2,0:0:0:0:
499,109,66011,2,0,P|476:155|468:189,1,71.5000021820069,2|0,3:2|1:2,0:0:0:0:
477,267,66311,1,8,3:2:0:0:
292,343,66611,6,0,L|298:264,1,71.5000021820069,6|0,3:2|1:2,0:0:0:0:
369,213,66911,2,0,L|301:162,1,71.5000021820069,8|0,3:2|1:2,0:0:0:0:
299,78,67211,2,0,L|227:110,1,71.5000021820069,0|0,3:2|1:2,0:0:0:0:
153,59,67511,2,0,L|145:138,1,71.5000021820069,8|0,3:2|1:2,0:0:0:0:
97,209,67811,6,0,B|136:226|136:226|180:216,1,71.5000021820069,6|0,3:2|1:2,0:0:0:0:
256,201,68111,2,0,B|293:193|293:193|331:212,1,71.5000021820069,8|0,3:2|1:2,0:0:0:0:
316,300,68411,2,0,B|278:307|278:307|241:292,1,71.5000021820069,0|0,3:2|1:2,0:0:0:0:
161,259,68711,2,0,B|127:243|127:243|89:249,1,71.5000021820069,8|0,3:2|1:2,0:0:0:0:
44,335,69011,6,0,P|86:342|127:322,1,71.5000021820069,6|0,3:2|1:2,0:0:0:0:
208,362,69311,2,0,P|235:329|232:283,1,71.5000021820069,8|0,3:2|1:2,0:0:0:0:
304,227,69611,2,0,P|289:187|246:160,1,71.5000021820069,6|0,3:2|1:2,0:0:0:0:
252,68,69911,2,0,P|210:60|165:79,1,71.5000021820069,8|0,3:2|1:2,0:0:0:0:
97,120,70211,6,0,P|119:155|133:187,1,71.5000021820069,6|8,3:2|3:2,0:0:0:0:
144,230,70436,1,8,3:2:0:0:
149,240,70511,2,0,L|242:234,1,71.5000021820069,12|8,3:2|3:2,0:0:0:0:
318,221,70811,2,0,L|326:159,2,35.7500010910034,12|8|8,3:2|3:2|3:3,0:0:0:0:
309,321,71111,2,0,L|398:314,1,71.5000021820069,4|8,3:2|3:3,0:0:0:0:
480,329,71411,6,0,P|501:276|473:197,1,116.999996429443,6|0,3:2|0:0,0:0:0:0:
421,153,71861,1,0,3:2:0:0:
421,153,72011,2,0,P|400:100|428:21,1,116.999996429443,10|0,3:2|0:0,0:0:0:0:
318,54,72461,1,8,3:2:0:0:
307,51,72536,1,8,3:2:0:0:
297,48,72611,1,2,3:2:0:0:
205,28,72761,2,0,L|211:86,1,58.4999982147217,10|0,3:2|0:0,0:0:0:0:
151,158,73061,1,2,3:2:0:0:
151,158,73211,2,0,B|95:133|95:133|33:142,1,116.999996429443,10|0,3:2|3:2,0:0:0:0:
4,228,73661,5,0,3:2:0:0:
7,239,73736,1,0,3:2:0:0:
10,250,73811,2,0,P|53:277|126:259,1,116.999996429443,4|0,3:2|0:0,0:0:0:0:
202,302,74261,1,0,3:2:0:0:
202,302,74411,2,0,P|245:275|318:293,1,116.999996429443,10|0,3:2|0:0,0:0:0:0:
394,319,74861,1,8,3:2:0:0:
405,316,74936,1,8,3:2:0:0:
416,313,75011,2,0,L|425:229,1,58.4999982147217,2|10,3:2|3:2,0:0:0:0:
462,169,75311,2,0,B|432:158|432:158|395:163,1,58.4999982147217,2|0,0:0|3:2,0:0:0:0:
317,194,75611,2,0,L|325:72,1,116.999996429443,10|0,3:2|3:2,0:0:0:0:
500,12,76211,6,0,P|451:45|396:33,1,116.999996429443,6|0,3:2|0:0,0:0:0:0:
314,78,76661,1,0,3:2:0:0:
314,78,76811,2,0,P|265:45|209:56,1,116.999996429443,10|0,3:2|0:0,0:0:0:0:
140,116,77261,1,8,3:2:0:0:
142,127,77336,1,8,3:2:0:0:
144,138,77411,2,0,L|155:206,1,58.4999982147217,2|8,3:2|3:2,0:0:0:0:
231,247,77711,2,0,L|177:290,1,58.4999982147217,0|0,0:0|3:2,0:0:0:0:
183,377,78011,2,0,L|118:352,1,58.4999982147217,8|0,3:2|3:2,0:0:0:0:
39,324,78311,2,0,L|46:214,1,87.7499973220826,2|8,0:0|3:2,0:0:0:0:
17,197,78611,6,0,B|46:208|46:208|80:200,1,58.4999982147217,6|0,3:2|3:2,0:0:0:0:
163,175,78911,2,0,L|164:109,1,58.4999982147217,14|0,3:2|3:2,0:0:0:0:
167,19,79211,2,0,P|199:22|232:42,1,58.4999982147217,14|0,3:2|3:2,0:0:0:0:
313,9,79511,2,0,P|326:38|325:76,1,58.4999982147217,2|8,3:2|3:2,0:0:0:0:
410,108,79811,1,6,3:2:0:0:
505,64,80311,5,8,3:2:0:0:
500,89,80411,2,0,L|490:155,1,52,8|8,3:2|3:2,0:0:0:0:
434,200,80711,2,0,L|444:266,1,52,8|8,3:2|3:2,0:0:0:0:
389,338,81011,5,6,3:2:0:0:
389,338,81161,2,0,B|350:320|350:320|301:327,1,74.7500014257431,2|8,1:2|3:2,0:0:0:0:
215,345,81461,1,2,1:2:0:0:
215,345,81611,2,0,B|180:351|180:351|141:333,1,74.7500014257431,2|0,3:2|1:2,0:0:0:0:
48,290,81911,1,10,3:2:0:0:
48,290,82061,1,2,1:2:0:0:
123,217,82211,2,0,L|115:133,1,74.7500014257431,6|0,3:2|1:2,0:0:0:0:
83,43,82511,2,0,B|123:56|123:56|159:48,1,74.7500014257431,10|0,3:2|1:2,0:0:0:0:
257,30,82811,2,0,L|346:40,1,74.7500014257431,2|0,3:2|1:2,0:0:0:0:
434,54,83111,1,8,3:2:0:0:
498,253,83411,5,6,3:2:0:0:
498,253,83561,2,0,L|417:240,1,74.7500014257431,2|8,1:2|3:2,0:0:0:0:
324,274,83861,1,2,1:2:0:0:
324,274,84011,2,0,L|242:262,1,74.7500014257431,2|0,3:2|1:2,0:0:0:0:
149,294,84311,2,0,B|167:335|167:335|161:382,1,74.7500014257431,10|0,3:2|1:2,0:0:0:0:
58,375,84611,2,0,L|69:286,1,74.7500014257431,6|0,3:2|1:2,0:0:0:0:
120,209,84911,2,0,L|110:121,1,74.7500014257431,10|8,3:2|3:2,0:0:0:0:
104,82,85136,1,8,3:2:0:0:
102,70,85211,2,0,B|145:61|145:61|196:78,1,74.7500014257431,14|0,3:2|3:2,0:0:0:0:
273,105,85511,2,0,B|305:115|305:115|350:104,1,74.7500014257431,14|0,3:2|3:2,0:0:0:0:
255,347,86411,5,6,3:2:0:0:
256,192,86486,12,2,88586,0:0:0:0:
