osu file format v14

[General]
AudioFilename: audio.mp3
AudioLeadIn: 0
PreviewTime: 61634
Countdown: 0
SampleSet: Soft
StackLeniency: 0.7
Mode: 0
LetterboxInBreaks: 0
WidescreenStoryboard: 0

[Editor]
Bookmarks: 187656
DistanceSpacing: 1.1
BeatDivisor: 8
GridSize: 4
TimelineZoom: 2.7

[Metadata]
Title:Hikari Shoumeiron
TitleUnicode:ヒカリ証明論
Artist:CHiCO with HoneyWorks
ArtistUnicode:CHiCO with HoneyWorks
Creator:Nao Tomori
Version:Insane
Source:銀魂. 銀ノ魂篇
Tags:ending full version ed 30 japanese anime j-rock kagura 神楽 gintama silver soul arc season 2 2018 Shirogane no Tamashii-hen ぎんたま Gintoki Sakata 坂田 銀時 Shinpachi Shimura 志村 新八
BeatmapID:2361110
BeatmapSetID:1130285

[Difficulty]
HPDrainRate:5
CircleSize:4
OverallDifficulty:8
ApproachRate:9
SliderMultiplier:1.4
SliderTickRate:1

[Events]
//Background and Video events
0,0,"gintama wallpaper.jpg",0,0
//Break Periods
2,196347,206347
//Storyboard Layer 0 (Background)
//Storyboard Layer 1 (Fail)
//Storyboard Layer 2 (Pass)
//Storyboard Layer 3 (Foreground)
//Storyboard Layer 4 (Overlay)
//Storyboard Sound Samples

[TimingPoints]
555,666.666666666667,4,2,2,47,1,0
555,-78.125,4,2,2,47,0,0
8554,-111.111111111111,4,2,2,47,0,0
13747,300,4,2,2,77,1,0
13747,-100,4,2,2,77,0,0
30547,-133.333333333333,4,2,2,77,0,0
31747,-80,4,2,2,77,0,0
32947,-133.333333333333,4,2,2,57,0,0
41647,-100,4,2,2,67,0,0
52147,-133.333333333333,4,2,2,57,0,0
56947,-181.818181818182,4,2,2,57,0,0
59347,-100,4,2,2,57,0,0
61747,-86.9565217391304,4,2,2,87,0,1
80947,-133.333333333333,4,2,2,67,0,0
88747,-100,4,2,2,67,0,0
89647,-133.333333333333,4,2,2,67,0,0
90547,-86.9565217391304,4,2,2,87,0,1
95347,-100,4,2,2,77,0,0
112297,-133.333333333333,4,2,2,57,0,0
114547,-114.942528735632,4,2,2,57,0,0
121747,-100,4,2,2,67,0,0
124147,-100,4,2,2,67,0,0
133447,-133.333333333333,4,2,2,57,0,0
138547,-181.818181818182,4,2,2,47,0,0
140947,-100,4,2,2,67,0,0
143347,-86.9565217391304,4,2,2,87,0,1
162547,-133.333333333333,4,2,2,67,0,0
170347,-100,4,2,2,67,0,0
172147,-86.9565217391304,4,2,2,87,0,1
176947,-86.9565217391304,4,2,2,87,0,0
184447,-79.3650793650794,4,2,2,87,0,0
184747,-71.4285714285714,4,2,2,87,0,0
185047,-83.3333333333333,4,2,2,87,0,0
185347,-74.0740740740741,4,2,2,87,0,0
186097,-83.3333333333333,4,2,2,87,0,0
186547,-86.9565217391304,4,2,2,87,0,0
188947,-80,4,2,2,87,0,0
190297,-86.9565217391304,4,2,2,87,0,0
192247,-86.9565217391304,4,2,3,87,0,0
192397,-86.9565217391304,4,2,2,87,0,0
192847,-86.9565217391304,4,2,3,87,0,0
192997,-86.9565217391304,4,2,2,87,0,0
193447,-76.9230769230769,4,2,3,87,0,0
193597,-76.9230769230769,4,2,2,87,0,0
195097,-76.9230769230769,4,2,3,87,0,0
197347,-76.9230769230769,4,2,2,87,0,0
206947,-133.333333333333,4,2,2,47,0,0
211747,-222.222222222222,4,2,2,47,0,0
215347,-133.333333333333,4,2,2,67,0,0
216097,-133.333333333333,4,2,2,87,0,0
216547,-86.9565217391304,4,2,2,87,0,1
235747,-133.333333333333,4,2,2,67,0,0
244397,-100,4,2,2,67,0,0
245347,-86.9565217391304,4,2,2,87,0,1
250147,-100,4,2,2,77,0,0
259747,-86.9565217391304,4,2,2,87,0,1
265222,-86.9565217391304,4,2,2,77,0,0
267697,-86.9565217391304,4,2,2,5,0,0

[Colours]
Combo1 : 230,159,74
Combo2 : 147,242,147
Combo3 : 132,228,249
Combo4 : 237,129,145

[HitObjects]
101,158,555,6,0,P|133:163|190:135,1,89.6,2|0,0:2|0:2,0:2:0:0:
49,97,1221,2,0,P|28:122|24:185,1,89.6,2|0,0:2|0:2,0:2:0:0:
127,82,1888,2,0,P|115:51|62:16,1,89.6,2|0,0:2|0:2,0:2:0:0:
184,141,2554,2,0,P|225:132|285:124,1,89.6,2|0,0:2|0:2,0:2:0:0:
350,179,3054,5,2,0:2:0:0:
350,179,3221,2,0,P|341:220|333:280,1,89.6,2|0,0:2|0:2,0:2:0:0:
418,360,3888,2,0,P|411:325|402:300,1,44.8,2|0,0:2|0:2,0:2:0:0:
334,267,4221,2,0,P|327:288|324:310,1,44.8,2|0,0:2|0:2,0:2:0:0:
254,366,4554,1,2,0:2:0:0:
254,366,4888,2,0,P|212:358|147:351,1,89.6,2|0,0:2|0:2,0:2:0:0:
17,156,5721,5,2,0:2:0:0:
17,156,5888,2,0,P|50:148|105:128,1,89.6,2|0,0:2|0:2,0:2:0:0:
172,180,6388,1,0,0:2:0:0:
172,180,6554,2,0,P|162:212|152:270,1,89.6,2|0,0:2|0:2,0:2:0:0:
73,302,7055,1,0,0:2:0:0:
73,302,7221,2,0,P|61:289|38:270,1,44.8,2|0,0:2|0:2,0:2:0:0:
152,267,7554,2,0,P|159:223|172:180,2,89.6,2|0|0,0:2|0:2|0:2,0:2:0:0:
217,344,8554,6,0,B|321:368|284:278|400:304,1,188.999994232178,2|0,0:2|0:2,0:2:0:0:
499,187,9888,2,0,P|472:211|344:162,1,188.999994232178,2|0,0:2|0:2,0:2:0:0:
406,35,11221,2,0,P|412:65|428:231,1,188.999994232178,2|0,0:2|0:2,0:2:0:0:
251,301,12554,2,0,B|220:275|222:222|222:222|263:187|259:127,1,188.999994232178,2|0,0:2|0:2,0:2:0:0:
203,27,13747,5,6,3:2:0:0:
134,73,13897,2,0,P|91:67|50:64,1,70,2|8,0:2|0:2,0:2:0:0:
260,132,14197,2,0,P|294:128|329:123,1,70,2|0,0:2|3:2,0:2:0:0:
424,55,14497,2,0,P|419:102|418:148,1,70,2|8,0:2|0:2,0:2:0:0:
473,206,14797,1,2,0:2:0:0:
337,342,14947,5,2,3:2:0:0:
365,238,15097,1,0,0:2:0:0:
435,318,15247,1,10,0:2:0:0:
277,269,15397,2,0,P|226:273|187:273,1,70,2|0,0:2|3:2,0:2:0:0:
371,213,15697,1,2,0:2:0:0:
207,273,15847,2,0,P|156:269|117:269,1,70,10|0,0:2|0:2,0:2:0:0:
16,357,16147,5,2,3:2:0:0:
111,260,16297,2,0,P|109:213|103:172,1,70,2|8,0:2|0:2,0:2:0:0:
199,297,16597,2,0,P|201:344|207:385,1,70,2|0,0:2|3:2,0:2:0:0:
352,241,16897,2,0,P|289:241|253:236,1,70,2|8,0:2|0:2,0:2:0:0:
309,149,17197,1,2,0:2:0:0:
409,310,17347,5,2,3:2:0:0:
453,227,17497,1,0,0:2:0:0:
408,308,17647,1,10,0:2:0:0:
401,159,17797,2,0,P|388:101|381:65,1,70,2|0,0:2|3:2,0:2:0:0:
494,311,18097,1,6,0:2:0:0:
385,90,18247,2,0,P|350:82|316:74,1,70,14|0,0:2|0:2,0:2:0:0:
431,20,18547,5,2,3:2:0:0:
238,113,18697,1,0,0:2:0:0:
307,57,18847,1,10,0:2:0:0:
227,124,18997,1,0,0:2:0:0:
136,48,19147,5,2,3:2:0:0:
191,214,19297,1,0,0:2:0:0:
214,134,19447,1,10,0:2:0:0:
113,129,19597,1,0,0:2:0:0:
275,256,19747,5,2,3:2:0:0:
312,166,19897,1,2,0:2:0:0:
356,303,20047,2,0,P|390:301|444:290,1,70,10|0,0:2|0:2,0:2:0:0:
376,208,20347,5,2,3:2:0:0:
323,384,20497,1,2,0:2:0:0:
186,262,20647,2,0,P|221:258|256:256,1,70,10|0,0:2|0:2,0:2:0:0:
118,351,20947,5,6,3:2:0:0:
62,284,21097,1,0,0:2:0:0:
108,197,21247,1,10,0:2:0:0:
164,264,21397,1,0,0:2:0:0:
32,169,21547,6,0,L|41:84,1,70,2|0,3:2|0:2,0:2:0:0:
147,0,21847,2,0,L|156:85,1,70,10|0,0:2|0:2,0:2:0:0:
294,169,22147,5,2,3:2:0:0:
294,169,22297,1,2,0:2:0:0:
393,74,22447,2,0,B|398:43|398:43|379:-5,1,70,14|0,0:2|0:2,0:2:0:0:
490,131,22747,5,2,3:2:0:0:
426,236,22897,1,8,0:2:0:0:
426,236,22972,1,8,0:2:0:0:
426,236,23047,2,0,P|430:200|434:183,1,35,10|8,0:2|0:2,0:2:0:0:
509,264,23197,2,0,P|511:281|512:298,1,35,10|8,0:2|0:2,0:2:0:0:
450,372,23347,5,6,3:2:0:0:
332,210,23497,2,0,P|297:195|261:182,1,70,2|8,0:2|0:2,0:2:0:0:
291,355,23797,2,0,P|321:332|349:307,1,70,2|0,0:2|3:2,0:2:0:0:
185,246,24097,2,0,P|189:283|196:320,1,70,2|8,0:2|0:2,0:2:0:0:
250,177,24397,5,2,0:2:0:0:
103,290,24547,1,2,3:2:0:0:
98,90,24697,1,0,0:2:0:0:
158,179,24847,1,10,0:2:0:0:
158,179,24997,2,0,P|109:179|71:176,1,70,2|0,0:2|3:2,0:2:0:0:
228,82,25297,1,2,0:2:0:0:
228,82,25447,2,0,P|277:82|315:85,1,70,10|0,0:2|0:2,0:2:0:0:
448,209,25747,5,6,3:2:0:0:
351,279,25897,2,0,P|310:264|272:246,1,70,2|8,0:2|0:2,0:2:0:0:
425,125,26197,2,0,P|432:168|435:209,1,70,2|0,0:2|3:2,0:2:0:0:
255,138,26497,2,0,P|288:109|323:86,1,70,2|8,0:2|0:2,0:2:0:0:
347,179,26797,1,2,0:2:0:0:
205,285,26947,5,2,3:2:0:0:
110,227,27097,1,0,0:2:0:0:
71,328,27247,1,10,0:2:0:0:
71,328,27397,2,0,P|14:316|-16:308,1,70,2|0,0:2|3:2,0:2:0:0:
126,138,27697,1,2,0:2:0:0:
235,307,27847,2,0,P|293:303|332:293,1,70,10|8,0:2|0:2,0:2:0:0:
304,300,28072,1,8,0:2:0:0:
304,300,28147,6,0,P|356:306|392:309,1,70,6|0,3:2|0:2,0:2:0:0:
457,241,28447,1,10,0:2:0:0:
384,165,28597,1,0,0:2:0:0:
463,24,28747,6,0,P|460:72|457:101,1,70,2|0,3:2|0:2,0:2:0:0:
292,218,29047,2,0,P|288:183|286:148,1,70,10|0,0:2|0:2,0:2:0:0:
202,56,29347,5,2,3:2:0:0:
134,112,29497,1,2,0:2:0:0:
64,70,29647,2,0,P|60:28|57:-4,1,70,10|0,0:2|0:2,0:2:0:0:
21,173,29947,6,0,P|17:207|14:242,1,70,2|0,3:2|3:2,0:2:0:0:
14,242,30172,1,0,3:2:0:0:
14,242,30247,2,0,P|55:248|84:252,1,70,14|0,2:2|0:2,0:2:0:0:
152,349,30547,5,2,3:2:0:0:
337,277,30697,2,0,P|386:276|459:282,1,105.000004005432,4|0,2:3|0:2,0:2:0:0:
393,171,31147,5,2,3:2:0:0:
232,244,31297,2,0,P|184:242|123:211,1,105.000004005432,4|8,2:3|2:3,0:2:0:0:
132,218,31672,1,8,2:3:0:0:
132,218,31747,6,0,B|120:170|120:170|146:131|132:88,1,131.25,2|0,3:1|0:2,0:2:0:0:
81,34,32047,2,0,B|66:22|39:27|39:27|19:89|86:138,1,131.25,2|0,3:1|0:2,0:2:0:0:
205,176,32347,2,0,B|299:143|297:251|398:222,1,175,2|0,3:1|0:2,0:2:0:0:
363,226,32947,6,0,B|414:221|457:215|488:214,1,105.000004005432,6|0,3:2|3:2,0:2:0:0:
319,313,33547,2,0,B|308:313|265:307|214:302,1,105.000004005432,2|0,3:2|3:2,0:2:0:0:
145,342,33997,1,0,0:2:0:0:
145,342,34072,1,0,0:2:0:0:
145,342,34147,2,0,P|102:324|38:336,1,105.000004005432,2|0,3:2|3:2,0:2:0:0:
0,198,34747,2,0,P|43:216|107:204,1,105.000004005432,2|0,3:2|3:2,0:2:0:0:
171,155,35197,1,0,0:2:0:0:
171,155,35272,1,0,0:2:0:0:
171,155,35347,6,0,P|168:104|160:32,1,105.000004005432,2|2,3:2|3:2,0:2:0:0:
277,157,35947,2,0,P|271:209|268:261,1,105.000004005432,2|2,3:2|3:2,0:2:0:0:
338,326,36397,1,0,0:2:0:0:
338,326,36472,1,0,0:2:0:0:
338,326,36547,2,0,P|382:341|440:299,1,105.000004005432,2|0,3:2|3:2,0:2:0:0:
505,262,36997,2,0,P|489:223|482:195,2,52.5000020027161,2|0|2,0:2|3:2|0:2,0:2:0:0:
403,192,37447,2,0,P|411:150|412:119,1,52.5000020027161,0|0,3:2|0:2,0:2:0:0:
411,140,37672,1,0,0:2:0:0:
411,140,37747,6,0,P|402:83|393:30,1,105.000004005432,2|0,3:2|3:2,0:2:0:0:
245,124,38347,2,0,P|254:181|263:234,1,105.000004005432,2|0,3:2|3:2,0:2:0:0:
220,302,38797,1,0,0:2:0:0:
220,302,38872,1,0,0:2:0:0:
220,302,38947,2,0,P|167:284|112:308,1,105.000004005432,2|0,3:2|3:2,0:2:0:0:
293,350,39547,2,0,P|346:368|401:344,1,105.000004005432,2|0,3:2|3:2,0:2:0:0:
483,364,39997,1,0,0:2:0:0:
483,364,40072,1,0,0:2:0:0:
483,364,40147,6,0,P|475:324|465:243,1,105.000004005432,2|0,3:2|3:2,0:2:0:0:
377,225,40597,2,0,P|370:189|361:154,2,52.5000020027161,2|0|2,0:2|3:2|0:2,0:2:0:0:
309,287,41047,2,0,P|265:289|235:277,1,52.5000020027161,2|0,3:2|0:2,0:2:0:0:
77,218,41347,5,2,3:2:0:0:
157,177,41497,1,2,0:2:0:0:
40,95,41647,2,0,P|48:165|54:215,1,105,14|0,0:2|0:2,0:2:0:0:
29,230,41947,2,0,P|20:267|10:303,1,70,2|8,3:2|0:2,0:2:0:0:
30,332,42172,1,8,0:2:0:0:
30,332,42247,2,0,P|84:319|115:314,1,70,8|8,0:2|0:2,0:2:0:0:
235,261,42547,6,0,P|272:289|365:275,2,140,6|8|2,3:2|0:2|3:2,0:2:0:0:
308,176,43297,1,0,3:2:0:0:
447,331,43447,2,0,P|454:272|459:237,1,70,8|0,0:2|0:2,0:2:0:0:
455,261,43672,1,0,3:2:0:0:
455,261,43747,6,0,P|452:216|440:111,1,140,2|8,3:2|0:2,0:2:0:0:
370,48,44197,1,0,3:2:0:0:
370,48,44272,1,0,3:2:0:0:
370,48,44347,2,0,P|323:39|288:29,1,70,2|0,3:2|3:2,0:2:0:0:
189,139,44647,2,0,P|223:131|258:125,1,70,10|0,0:2|0:2,0:2:0:0:
258,124,44872,1,0,3:2:0:0:
258,124,44947,6,0,P|283:165|283:211,1,70,2|0,3:2|0:2,0:2:0:0:
261,326,45247,2,0,P|236:286|236:240,1,70,10|0,0:2|0:2,0:2:0:0:
232,264,45472,1,0,3:2:0:0:
232,264,45547,2,0,P|171:255|84:241,1,140,2|10,3:2|0:2,0:2:0:0:
31,323,45997,1,0,3:2:0:0:
31,323,46072,1,0,3:2:0:0:
31,323,46147,6,0,P|16:287|20:164,1,140,2|8,3:2|0:2,0:2:0:0:
138,2,46597,2,0,P|153:38|149:161,1,140,2|2,0:2|0:2,0:2:0:0:
259,216,47047,2,0,P|297:197|335:190,1,70,10|0,0:2|0:2,0:2:0:0:
395,64,47347,6,0,P|350:64|260:5,2,140,6|8|2,3:2|0:2|3:2,0:2:0:0:
476,18,48097,1,0,3:2:0:0:
415,165,48247,2,0,P|423:222|429:264,1,70,8|0,0:2|0:2,0:2:0:0:
301,370,48547,6,0,P|310:262|317:208,1,140,2|8,3:2|0:2,0:2:0:0:
234,171,48997,1,0,3:2:0:0:
234,171,49072,1,0,3:2:0:0:
234,171,49147,2,0,P|190:178|159:186,1,70,2|0,3:2|0:2,0:2:0:0:
33,227,49447,2,0,P|73:243|109:238,1,70,8|0,0:2|0:2,0:2:0:0:
188,61,49747,6,0,B|112:94|112:94|48:75,1,140,6|8,3:2|0:2,0:2:0:0:
286,95,50197,2,0,B|349:72|352:133|438:103,1,140,2|2,0:2|0:2,0:2:0:0:
464,28,50647,1,8,0:2:0:0:
385,211,50797,6,0,P|425:202|486:196,1,70,2|0,2:2|3:2,0:2:0:0:
339,280,51097,1,0,3:2:0:0:
192,215,51247,2,0,P|192:156|193:115,1,70,12|8,0:2|0:2,0:2:0:0:
200,133,51472,1,8,0:2:0:0:
210,122,51547,1,8,0:2:0:0:
150,44,51697,1,8,0:3:0:0:
40,189,51847,1,4,0:3:0:0:
103,264,51997,1,4,0:3:0:0:
51,347,52147,6,0,P|25:351|0:357,1,52.5000020027161,6|0,3:2|0:2,0:2:0:0:
175,279,52447,2,0,P|149:274|123:269,1,52.5000020027161,2|0,3:2|0:2,0:2:0:0:
247,339,52747,1,2,0:2:0:0:
247,339,52897,1,2,0:2:0:0:
322,272,53047,2,0,P|324:218|320:197,1,52.5000020027161,2|0,3:2|0:2,0:2:0:0:
324,219,53272,1,0,0:2:0:0:
324,219,53347,6,0,P|313:177|306:109,1,105.000004005432,2|2,3:2|0:2,0:2:0:0:
398,141,53797,1,0,3:2:0:0:
225,178,53947,2,0,L|102:167,1,105.000004005432,2|0,3:2|3:2,0:2:0:0:
49,208,54397,1,0,3:2:0:0:
49,208,54472,1,0,3:2:0:0:
49,208,54547,6,0,P|36:174|22:149,1,52.5000020027161,2|0,3:2|0:2,0:2:0:0:
105,325,54847,2,0,P|118:291|132:266,1,52.5000020027161,2|0,3:2|0:2,0:2:0:0:
30,376,55147,1,2,0:2:0:0:
30,376,55297,1,2,0:2:0:0:
148,262,55447,2,0,L|221:252,1,52.5000020027161,2|0,3:2|0:2,0:2:0:0:
384,342,55747,5,2,3:2:0:0:
411,221,55897,1,2,0:2:0:0:
286,252,56047,2,0,P|332:267|400:233,2,105.000004005432,2|2|0,3:2|3:2|3:2,0:2:0:0:
203,154,56797,1,0,3:2:0:0:
213,143,56872,1,0,3:2:0:0:
223,130,56947,6,0,B|86:112|142:200|-5:179,1,231.000007049561,6|0,3:2|0:2,0:2:0:0:
116,254,58147,2,0,B|252:234|196:322|333:304,1,231.000007049561,2|0,0:2|0:2,0:2:0:0:
332,304,59347,6,0,P|330:347|326:379,1,70,2|0,3:2|3:2,0:2:0:0:
419,227,59647,2,0,P|428:268|437:299,1,70,10|0,2:2|3:2,0:2:0:0:
294,137,59947,2,0,P|303:170|311:204,1,70,2|0,3:2|3:2,0:2:0:0:
404,58,60247,2,0,P|400:92|398:127,1,70,10|0,2:2|3:2,0:2:0:0:
433,199,60472,1,0,3:0:0:0:
433,199,60547,5,6,3:2:0:0:
20,32,61747,5,6,3:2:0:0:
101,101,61897,2,0,P|159:100|187:88,1,80.5000015354157,2|8,0:2|0:2,0:2:0:0:
20,32,62197,1,2,0:2:0:0:
179,92,62347,2,0,P|230:80|268:80,1,80.5000015354157,2|0,3:2|0:2,0:2:0:0:
20,32,62647,1,10,0:2:0:0:
109,200,62797,1,2,0:2:0:0:
257,79,62947,6,0,L|348:64,1,80.5000015354157,2|0,3:2|0:2,0:2:0:0:
109,200,63247,2,0,L|29:186,1,80.5000015354157,10|0,0:2|0:2,0:2:0:0:
196,297,63547,1,2,3:2:0:0:
260,202,63697,1,0,3:2:0:0:
374,292,63847,2,0,P|333:303|272:279,1,80.5000015354157,12|0,0:2|0:2,0:2:0:0:
407,120,64147,5,2,3:2:0:0:
481,198,64297,2,0,P|470:250|461:298,1,80.5000015354157,2|8,0:2|0:2,0:2:0:0:
407,120,64597,1,2,0:2:0:0:
464,276,64747,2,0,P|484:323|498:353,1,80.5000015354157,2|0,3:2|0:2,0:2:0:0:
407,120,65047,1,10,0:2:0:0:
322,252,65197,1,2,0:2:0:0:
128,160,65347,6,0,P|177:142|226:142,1,80.5000015354157,2|0,3:2|0:2,0:2:0:0:
57,361,65647,2,0,P|37:306|19:262,1,80.5000015354157,10|0,0:2|0:2,0:2:0:0:
137,80,65947,2,0,P|131:127|127:173,1,80.5000015354157,2|0,3:2|0:2,0:2:0:0:
259,283,66247,1,12,0:2:0:0:
345,231,66397,1,0,0:2:0:0:
465,382,66547,6,0,L|445:254,1,120.750002303124,6|0,3:2|0:2,0:2:0:0:
441,162,66847,2,0,L|454:242,1,80.5000015354157,8|0,0:2|0:2,0:2:0:0:
487,73,67147,2,0,P|441:65|398:54,1,80.5000015354157,2|0,3:2|0:2,0:2:0:0:
248,153,67447,2,0,P|287:143|327:137,1,80.5000015354157,10|0,0:2|0:2,0:2:0:0:
153,88,67747,2,0,P|132:124|173:238,1,161.000003070831,2|8,3:2|0:2,0:2:0:0:
93,313,68197,1,0,3:2:0:0:
93,313,68272,1,0,3:2:0:0:
93,313,68347,6,0,P|34:304|-6:291,1,80.5000015354157,2|0,3:2|0:2,0:2:0:0:
183,234,68647,2,0,P|221:224|261:219,1,80.5000015354157,10|0,0:2|0:2,0:2:0:0:
417,359,68947,2,0,B|328:376|350:311|235:345,1,161.000003070831,2|8,3:2|0:2,0:2:0:0:
387,261,69397,2,0,B|412:197|373:152|373:152|353:175|354:206,1,161.000003070831,2|0,0:2|0:2,0:2:0:0:
487,282,69847,2,0,P|494:239|494:196,1,80.5000015354157,10|0,0:2|0:2,0:2:0:0:
413,11,70147,5,2,3:2:0:0:
373,152,70297,1,0,3:2:0:0:
197,60,70447,2,0,B|238:47|238:47|287:66,1,80.5000015354157,12|0,0:2|0:2,0:2:0:0:
163,180,70747,5,2,3:2:0:0:
87,72,70897,1,8,0:2:0:0:
87,72,70972,1,8,0:2:0:0:
87,72,71047,2,0,P|86:23|88:8,1,40.2500007677078,8|8,0:2|0:2,0:2:0:0:
4,188,71197,2,0,P|1:169|0:149,1,40.2500007677078,8|8,0:0|0:0,0:0:0:0:
64,286,71347,5,6,3:2:0:0:
163,180,71497,2,0,P|204:175|266:169,1,80.5000015354157,2|8,0:2|0:2,0:2:0:0:
64,286,71797,1,2,0:2:0:0:
242,171,71947,2,0,P|201:166|162:162,1,80.5000015354157,2|0,3:2|0:2,0:2:0:0:
83,85,72247,1,10,0:2:0:0:
175,34,72397,1,2,0:2:0:0:
217,254,72547,6,0,P|179:269|119:250,1,80.5000015354157,2|0,3:2|0:2,0:2:0:0:
355,352,72847,2,0,P|339:315|308:290,1,80.5000015354157,10|0,0:2|0:2,0:2:0:0:
83,343,73147,2,0,B|119:372|119:372|191:356,1,120.750002303124,2|0,3:2|0:2,0:2:0:0:
67,258,73447,2,0,L|64:339,1,80.5000015354157,12|0,0:2|0:2,0:2:0:0:
152,192,73747,5,2,3:2:0:0:
84,94,73897,2,0,P|32:85|-7:85,1,80.5000015354157,2|8,0:2|0:2,0:2:0:0:
152,192,74197,1,2,0:2:0:0:
197,23,74347,2,0,P|246:5|285:-1,1,80.5000015354157,2|0,3:2|0:2,0:2:0:0:
152,192,74647,1,10,0:2:0:0:
84,94,74797,1,2,0:2:0:0:
156,297,74947,6,0,P|218:306|250:293,1,80.5000015354157,2|0,3:2|0:2,0:2:0:0:
450,180,75247,2,0,L|349:168,1,80.5000015354157,10|0,0:2|0:2,0:2:0:0:
201,86,75547,1,2,3:2:0:0:
295,59,75697,1,0,3:2:0:0:
295,59,75772,1,0,3:2:0:0:
295,59,75847,2,0,B|312:102|312:102|274:131|281:193,1,120.750002303124,14|0,0:2|0:2,0:2:0:0:
337,252,76147,6,0,P|345:304|352:342,1,80.5000015354157,6|0,3:2|0:2,0:2:0:0:
224,382,76447,2,0,P|230:342|236:302,1,80.5000015354157,8|0,0:2|0:2,0:2:0:0:
158,224,76747,1,0,3:2:0:0:
158,224,76897,1,0,3:2:0:0:
75,287,77047,1,8,0:2:0:0:
75,287,77197,1,0,0:2:0:0:
17,91,77347,6,0,P|57:78|110:89,1,80.5000015354157,2|0,3:2|0:2,0:2:0:0:
235,215,77647,2,0,P|195:228|142:217,1,80.5000015354157,8|0,0:2|0:2,0:2:0:0:
296,119,77947,1,0,3:2:0:0:
343,196,78097,1,0,3:2:0:0:
300,105,78247,1,8,0:2:0:0:
335,210,78397,1,8,0:2:0:0:
445,32,78547,6,0,P|428:92|429:122,1,80.5000015354157,6|0,3:2|0:2,0:2:0:0:
512,313,78847,2,0,P|508:273|494:235,1,80.5000015354157,10|0,0:2|0:2,0:2:0:0:
230,178,79147,2,0,P|268:209|368:193,1,120.750002303124,2|0,3:2|0:2,0:2:0:0:
207,168,79447,2,0,B|167:167|167:167|126:202,1,80.5000015354157,12|0,0:2|0:2,0:2:0:0:
45,325,79747,5,2,3:2:0:0:
107,112,79897,1,8,0:2:0:0:
107,112,79972,1,8,2:2:0:0:
107,112,80047,2,0,P|100:70|96:55,1,40.2500007677078,8|8,0:2|0:2,0:2:0:0:
36,174,80197,2,0,P|43:216|47:231,1,40.2500007677078,8|8,0:2|0:2,0:2:0:0:
141,333,80347,5,8,0:3:0:0:
162,311,80422,1,8,0:3:0:0:
189,299,80497,1,4,0:3:0:0:
219,296,80572,1,4,0:3:0:0:
248,304,80647,2,0,P|302:329|362:298,1,120.750002303124,4|0,0:3|0:3,0:2:0:0:
378,316,80947,6,0,P|363:279|351:200,1,105.000004005432,6|0,3:2|0:2,0:2:0:0:
399,120,81397,1,0,3:2:0:0:
248,175,81547,2,0,B|126:158,1,105.000004005432,10|0,0:2|3:2,0:2:0:0:
52,224,81997,1,8,0:2:0:0:
52,224,82072,1,8,0:2:0:0:
52,224,82147,5,2,3:2:0:0:
131,288,82297,2,0,P|172:270|237:285,1,105.000004005432,2|2,0:2|3:2,0:2:0:0:
333,244,82747,2,0,P|324:291|326:320,1,52.5000020027161,10|0,0:2|0:2,0:2:0:0:
417,320,83047,2,0,P|426:273|424:244,1,52.5000020027161,0|0,3:2|3:2,0:2:0:0:
426,268,83272,1,0,3:2:0:0:
426,268,83347,6,0,P|415:220|402:152,1,105.000004005432,6|0,3:2|0:2,0:2:0:0:
441,76,83797,1,0,3:2:0:0:
216,164,83947,2,0,P|259:186|325:174,1,105.000004005432,10|0,0:2|3:2,0:2:0:0:
177,78,84397,1,8,0:2:0:0:
177,78,84472,1,8,0:2:0:0:
177,78,84547,5,2,3:2:0:0:
108,148,84697,1,10,0:2:0:0:
37,89,84847,2,0,P|33:53|30:27,1,52.5000020027161,2|0,0:2|3:2,0:2:0:0:
216,164,85147,2,0,L|211:286,1,105.000004005432,2|8,3:2|0:2,0:2:0:0:
39,363,85747,6,0,B|20:314|20:314|35:253,1,105.000004005432,6|0,3:2|0:2,0:2:0:0:
96,130,86197,1,0,3:2:0:0:
57,47,86347,2,0,P|29:54|-2:57,1,52.5000020027161,10|0,0:2|0:2,0:2:0:0:
112,143,86647,2,0,P|138:146|163:152,1,52.5000020027161,2|8,0:2|0:2,0:2:0:0:
177,160,86872,1,8,0:2:0:0:
189,167,86947,5,2,3:2:0:0:
274,157,87097,2,0,P|318:130|370:134,1,105.000004005432,8|0,2:2|3:2,0:2:0:0:
340,214,87547,2,0,P|365:220|389:232,1,52.5000020027161,8|0,0:2|3:2,0:2:0:0:
308,291,87847,2,0,P|276:305|243:311,1,52.5000020027161,2|8,2:2|0:2,0:2:0:0:
247,306,88072,1,8,0:2:0:0:
230,299,88147,6,0,P|192:290|161:291,1,52.5000020027161,2|0,3:2|3:2,0:2:0:0:
69,381,88447,2,0,P|95:352|110:325,1,52.5000020027161,10|0,0:2|0:2,0:2:0:0:
77,171,88747,6,0,L|91:253,1,70,2|0,3:2|3:2,0:2:0:0:
256,132,89047,2,0,L|242:50,1,70,2|0,3:2|3:2,0:2:0:0:
441,215,89347,5,14,0:2:0:0:
366,273,89647,2,0,P|348:276|332:282,2,35.0000013351441,0|8|4,3:2|2:3|0:3,0:2:0:0:
385,292,89947,5,10,0:2:0:0:
344,119,90097,1,8,0:2:0:0:
288,191,90247,1,8,0:2:0:0:
441,215,90397,1,8,0:2:0:0:
351,91,90547,5,6,3:2:0:0:
271,212,90697,2,0,P|225:225|178:216,1,80.5000015354157,2|8,0:2|0:2,0:2:0:0:
351,91,90997,1,2,0:2:0:0:
193,221,91147,2,0,P|154:208|115:211,1,80.5000015354157,2|0,3:2|0:2,0:2:0:0:
351,91,91447,1,10,0:2:0:0:
281,18,91597,1,2,0:2:0:0:
271,212,91747,6,0,L|363:197,1,80.5000015354157,2|0,3:2|0:2,0:2:0:0:
147,334,92047,2,0,P|98:328|52:291,1,80.5000015354157,10|0,0:2|0:2,0:2:0:0:
126,159,92347,2,0,P|132:202|132:252,1,80.5000015354157,2|0,3:2|3:2,0:2:0:0:
273,384,92647,2,0,P|273:343|279:303,1,80.5000015354157,12|0,0:2|0:2,0:2:0:0:
381,109,92947,5,2,3:2:0:0:
495,260,93097,2,0,P|450:268|406:243,1,80.5000015354157,2|8,0:2|0:2,0:2:0:0:
381,109,93397,1,2,0:2:0:0:
343,260,93547,2,0,P|380:246|419:255,1,80.5000015354157,2|0,3:2|0:2,0:2:0:0:
267,166,93847,2,0,L|157:152,1,80.5000015354157,10|0,0:2|0:2,0:2:0:0:
54,265,94147,5,2,3:2:0:0:
130,69,94297,1,0,3:2:0:0:
43,8,94447,2,0,P|49:64|53:107,1,80.5000015354157,14|0,0:2|0:2,0:2:0:0:
98,329,94747,5,2,3:2:0:0:
172,245,94897,1,0,3:2:0:0:
212,241,94972,1,0,3:2:0:0:
250,253,95047,1,8,0:2:0:0:
282,276,95122,1,8,0:2:0:0:
318,294,95197,1,8,0:2:0:0:
358,298,95272,1,8,0:2:0:0:
398,292,95347,5,2,3:2:0:0:
467,193,95497,2,0,L|456:105,1,70,2|8,0:2|0:2,0:2:0:0:
421,280,95797,2,0,L|432:368,1,70,2|0,0:2|3:2,0:2:0:0:
268,226,96097,2,0,P|301:213|336:217,1,70,2|8,0:2|0:2,0:2:0:0:
210,305,96397,1,2,0:2:0:0:
50,179,96547,5,2,3:2:0:0:
143,123,96697,1,0,0:2:0:0:
134,217,96847,1,10,0:2:0:0:
55,79,96997,2,0,P|63:40|66:-11,1,70,2|0,0:2|3:2,0:2:0:0:
232,74,97297,1,2,0:2:0:0:
232,74,97447,2,0,P|235:108|242:143,1,70,10|0,0:2|0:2,0:2:0:0:
377,260,97747,5,2,3:2:0:0:
443,196,97897,2,0,P|485:191|524:185,1,70,2|8,0:2|0:2,0:2:0:0:
368,273,98197,2,0,P|358:322|375:362,1,70,2|0,0:2|3:2,0:2:0:0:
443,196,98497,2,0,P|447:161|437:128,1,70,2|8,0:2|0:2,0:2:0:0:
360,53,98797,1,2,0:2:0:0:
241,197,98947,5,2,3:2:0:0:
312,150,99097,1,0,0:2:0:0:
250,216,99247,1,10,0:2:0:0:
286,67,99397,2,0,P|297:119|304:156,1,70,2|0,0:2|3:2,0:2:0:0:
190,344,99697,5,6,3:2:0:0:
19,191,99847,2,0,B|57:186|57:186|79:196|79:196|136:190,1,105,14|0,0:2|0:2,0:2:0:0:
189,149,100147,5,2,3:2:0:0:
93,70,100297,1,2,0:2:0:0:
46,275,100447,2,0,P|94:278|137:259,1,70,10|0,0:2|0:2,0:2:0:0:
208,347,100747,5,2,3:2:0:0:
275,272,100897,1,2,0:2:0:0:
345,347,101047,2,0,P|386:338|428:325,1,70,10|0,0:2|0:2,0:2:0:0:
485,183,101347,5,2,3:2:0:0:
402,232,101497,1,0,0:2:0:0:
425,53,101647,1,10,0:2:0:0:
380,137,101797,1,0,0:2:0:0:
241,39,101947,5,2,3:2:0:0:
333,54,102097,1,2,0:2:0:0:
191,131,102247,2,0,P|151:117|86:154,1,105,10|0,0:2|0:2,0:2:0:0:
67,145,102547,6,0,P|76:186|83:226,1,70,6|0,3:2|0:2,0:2:0:0:
89,369,102847,2,0,P|80:328|73:288,1,70,10|0,0:2|0:2,0:2:0:0:
68,55,103147,1,2,3:2:0:0:
68,55,103297,1,0,3:2:0:0:
203,146,103446,2,0,P|236:156|270:152,1,70,8|0,0:2|0:2,0:2:0:0:
403,76,103747,5,2,3:2:0:0:
316,22,103897,1,0,3:2:0:0:
438,235,104047,2,0,P|485:215|528:201,1,70,14|0,0:2|0:2,0:2:0:0:
385,316,104347,5,2,3:2:0:0:
312,250,104497,1,8,0:2:0:0:
312,250,104572,1,8,0:2:0:0:
312,250,104647,2,0,P|275:257|245:262,1,35,10|8,0:2|0:2,0:2:0:0:
213,311,104797,2,0,P|195:307|178:304,1,35,10|8,0:2|0:2,0:2:0:0:
92,348,104947,5,6,3:2:0:0:
39,194,105097,2,0,L|23:106,1,70,2|8,0:2|0:2,0:2:0:0:
185,178,105397,2,0,L|116:235,1,70,2|0,0:2|3:2,0:2:0:0:
99,60,105697,2,0,L|183:90,1,70,2|8,0:2|0:2,0:2:0:0:
26,125,105997,1,2,0:2:0:0:
253,40,106147,5,2,3:2:0:0:
164,83,106297,1,0,0:2:0:0:
328,93,106447,1,10,0:2:0:0:
328,93,106597,2,0,P|341:44|350:11,1,70,2|8,0:2|0:2,0:2:0:0:
259,170,106897,1,2,0:2:0:0:
259,170,107047,2,0,P|267:203|277:237,1,70,2|0,3:2|0:2,0:2:0:0:
254,364,107347,5,2,3:2:0:0:
385,229,107497,2,0,P|423:210|464:196,1,70,2|8,0:2|0:2,0:2:0:0:
259,170,107797,2,0,P|226:157|195:141,1,70,2|0,0:2|3:2,0:2:0:0:
360,37,108097,2,0,P|354:71|352:106,1,70,2|8,0:2|0:2,0:2:0:0:
448,200,108397,1,2,0:2:0:0:
352,350,108547,5,2,3:2:0:0:
352,350,108697,1,0,0:2:0:0:
270,288,108847,1,10,0:2:0:0:
187,362,108997,2,0,P|140:373|99:371,1,70,2|0,0:2|3:2,0:2:0:0:
68,92,109297,5,6,3:2:0:0:
147,171,109447,2,0,P|139:232|131:308,1,105,14|0,0:2|0:2,0:2:0:0:
144,293,109747,5,2,3:2:0:0:
242,175,109897,1,0,0:2:0:0:
322,311,110047,1,10,0:2:0:0:
365,220,110197,1,0,0:2:0:0:
461,324,110347,5,2,3:2:0:0:
364,197,110497,1,2,0:2:0:0:
315,328,110647,2,0,P|275:342|220:326,1,70,10|0,0:2|0:2,0:2:0:0:
96,260,110947,5,2,3:2:0:0:
193,185,111097,1,8,0:2:0:0:
193,185,111172,1,8,0:2:0:0:
193,185,111247,2,0,P|202:225|204:245,1,35,10|8,0:2|0:2,0:2:0:0:
95,314,111397,2,0,P|86:274|84:254,1,35,8|8,0:2|0:2,0:2:0:0:
17,190,111547,5,8,0:2:0:0:
21,173,111622,1,8,0:2:0:0:
26,156,111697,1,8,0:2:0:0:
30,139,111772,1,8,0:2:0:0:
33,122,111847,1,8,0:3:0:0:
37,104,111922,1,8,0:3:0:0:
40,87,111997,1,4,0:3:0:0:
42,70,112072,1,4,0:3:0:0:
45,53,112147,5,2,3:2:0:0:
127,99,112297,2,0,P|166:95|190:92,1,52.5000020027161,2|2,0:2|0:3,0:2:0:0:
45,53,112597,1,2,3:2:0:0:
181,175,112747,2,0,P|207:172|233:169,1,52.5000020027161,2|2,0:2|0:3,0:2:0:0:
45,53,113047,5,2,3:2:0:0:
1,132,113197,1,0,3:2:0:0:
1,132,113272,1,2,0:3:0:0:
1,132,113347,1,2,0:3:0:0:
45,53,113497,2,0,P|33:123|25:223,1,157.500006008148,2|6,3:2|3:2,0:2:0:0:
495,90,114397,5,0,3:2:0:0:
495,90,114472,1,0,3:2:0:0:
495,90,114547,2,0,P|512:137|518:221,1,121.800001022186,6|0,3:2|3:2,0:2:0:0:
448,384,115147,2,0,P|431:337|425:253,1,121.800001022186,2|0,3:2|3:2,0:2:0:0:
320,152,115747,2,0,P|256:162|190:168,1,121.800001022186,2|0,3:2|3:2,0:2:0:0:
144,272,116347,2,0,P|207:261|273:255,1,121.800001022186,2|0,3:2|3:2,0:2:0:0:
75,205,116947,5,2,3:2:0:0:
197,358,117247,1,2,3:2:0:0:
261,161,117547,1,2,3:2:0:0:
188,245,117847,1,2,3:2:0:0:
300,270,118147,2,0,P|357:265|422:272,1,121.800001022186,2|0,3:2|3:2,0:2:0:0:
499,185,118747,2,0,P|499:149|496:120,1,60.9000005110931,0|0,3:2|0:2,0:2:0:0:
409,78,119047,2,0,P|409:114|412:143,1,60.9000005110931,0|0,3:2|0:2,0:2:0:0:
312,177,119347,6,0,P|271:189|189:145,1,121.800001022186,2|0,3:2|3:2,0:2:0:0:
60,257,119947,2,0,P|101:269|183:225,1,121.800001022186,2|0,3:2|3:2,0:2:0:0:
121,62,120547,2,0,P|112:143|106:197,1,121.800001022186,2|0,3:2|3:2,0:2:0:0:
356,316,121147,2,0,P|348:261|339:180,1,121.800001022186,2|0,3:2|3:2,0:2:0:0:
390,126,121597,1,8,0:2:0:0:
390,126,121672,1,8,0:2:0:0:
390,126,121747,6,0,B|434:100|488:109|488:109|493:146|467:160,1,140,6|0,3:2|3:2,0:2:0:0:
301,117,122197,2,0,P|305:73|211:43,1,140,4|8,0:3|0:3,0:2:0:0:
119,113,122647,2,0,P|166:120|196:108,1,70,4|0,0:3|3:2,0:2:0:0:
186,113,122872,1,0,3:2:0:0:
186,113,122947,5,8,0:2:0:0:
108,22,123097,1,8,0:2:0:0:
157,219,123247,1,8,0:2:0:0:
120,303,123397,1,10,0:2:0:0:
134,324,124147,6,0,P|171:297|271:335,1,140,6|8,3:2|0:2,0:2:0:0:
353,268,124597,1,0,3:2:0:0:
353,268,124672,1,0,3:2:0:0:
353,268,124747,2,0,P|357:226|355:186,1,70,2|0,3:2|3:2,0:2:0:0:
305,103,125047,2,0,P|301:68|302:34,1,70,10|0,0:2|3:2,0:2:0:0:
302,34,125272,1,0,3:2:0:0:
302,34,125347,6,0,B|346:28|346:28|384:54|384:54|439:48,1,140,2|10,3:2|0:2,0:2:0:0:
200,127,125947,2,0,P|159:132|119:121,1,70,2|0,3:2|3:2,0:2:0:0:
114,220,126247,2,0,P|75:203|46:174,1,70,10|0,0:2|0:2,0:2:0:0:
54,184,126472,1,0,3:2:0:0:
54,184,126547,6,0,P|59:225|23:327,1,140,2|10,3:2|0:2,0:2:0:0:
204,366,127147,2,0,P|178:324|170:287,1,70,2|0,3:2|3:2,0:2:0:0:
259,260,127447,2,0,P|285:302|293:339,1,70,10|0,0:2|0:2,0:2:0:0:
290,321,127672,1,0,3:2:0:0:
290,321,127747,6,0,P|334:295|432:291,1,140,2|8,3:2|0:2,0:2:0:0:
508,183,128197,2,0,P|470:189|419:188,1,70,2|0,0:2|3:2,0:2:0:0:
306,63,128497,1,2,3:2:0:0:
234,154,128647,2,0,P|268:154|303:160,1,70,10|0,0:2|3:2,0:2:0:0:
303,160,128872,1,0,3:2:0:0:
303,160,128947,6,0,P|329:211|293:296,2,140,6|8|2,3:2|0:2|3:2,0:2:0:0:
409,281,129697,1,0,3:2:0:0:
348,367,129847,2,0,P|313:370|278:371,1,70,8|0,0:2|0:2,0:2:0:0:
265,365,130072,1,0,3:2:0:0:
250,358,130147,6,0,B|199:338|199:338|114:364,2,140,2|8|2,3:2|0:2|3:2,0:2:0:0:
144,245,130897,1,0,3:2:0:0:
144,245,131047,2,0,P|100:251|63:234,1,70,8|0,0:2|0:2,0:2:0:0:
198,160,131347,6,0,B|270:138|266:204|358:166,1,140,2|0,3:2|3:2,0:2:0:0:
159,61,131797,2,0,B|123:84|123:84|73:48|13:60,1,140,10|0,0:2|3:2,0:2:0:0:
49,150,132247,1,8,0:2:0:0:
183,39,132397,6,0,P|230:32|270:25,1,70,2|0,0:2|3:2,0:2:0:0:
394,68,132697,1,10,0:2:0:0:
271,172,132847,1,0,3:2:0:0:
318,101,132997,1,8,0:2:0:0:
318,101,133072,1,8,0:2:0:0:
318,101,133147,6,0,P|311:150|306:198,1,70,8|8,0:2|0:3,0:2:0:0:
351,256,133447,2,0,P|357:297|362:329,1,52.5000020027161,4|4,0:3|0:3,0:2:0:0:
358,307,133672,1,4,0:3:0:0:
358,307,133747,6,0,P|330:328|256:303,1,105.000004005432,6|2,3:2|0:2,0:2:0:0:
187,355,134197,1,0,0:2:0:0:
187,355,134347,2,0,P|145:346|117:342,1,52.5000020027161,2|0,3:2|0:2,0:2:0:0:
85,266,134647,2,0,P|59:272|34:277,1,52.5000020027161,2|0,0:2|0:2,0:2:0:0:
117,180,134947,2,0,P|167:191|228:194,2,105.000004005432,2|2|2,3:2|3:2|3:2,0:2:0:0:
62,109,135697,1,0,0:2:0:0:
85,266,135847,1,0,0:2:0:0:
281,129,136147,6,0,P|319:128|338:124,1,52.5000020027161,2|0,3:2|0:2,0:2:0:0:
406,118,136447,2,0,P|380:113|353:114,1,52.5000020027161,2|0,0:2|0:2,0:2:0:0:
496,58,136747,2,0,P|499:113|506:173,1,105.000004005432,2|2,3:2|0:2,0:2:0:0:
457,234,137197,1,2,0:2:0:0:
494,367,137347,6,0,P|496:330|489:307,1,52.5000020027161,2|0,3:2|0:2,0:2:0:0:
367,208,137647,2,0,P|365:245|372:268,1,52.5000020027161,2|0,0:2|0:2,0:2:0:0:
287,310,137947,2,0,P|250:305|218:300,1,52.5000020027161,2|0,3:2|0:2,0:2:0:0:
153,337,138247,1,0,3:3:0:0:
151,343,138322,1,0,3:3:0:0:
149,349,138397,1,8,2:3:0:0:
148,356,138472,1,4,2:3:0:0:
146,363,138547,6,0,B|90:262|194:253|137:132,1,231.000007049561,6|0,3:2|0:2,0:2:0:0:
31,45,139747,2,0,P|49:79|219:59,1,231.000007049561,2|2,0:2|0:2,0:2:0:0:
448,265,140947,6,0,L|446:353,1,70,6|0,3:2|3:2,0:2:0:0:
344,160,141247,2,0,L|342:248,1,70,10|0,2:2|3:2,0:2:0:0:
512,51,141547,2,0,L|510:139,1,70,2|0,3:2|3:2,2:2:0:0:
256,123,141847,1,10,0:2:0:0:
283,77,141922,1,8,0:2:0:0:
328,55,141997,1,8,0:2:0:0:
380,60,142072,1,8,0:2:0:0:
421,93,142147,5,6,3:2:0:0:
17,367,143347,5,6,3:2:0:0:
106,270,143497,2,0,P|103:217|95:171,1,80.5000015354157,2|8,0:2|0:2,0:2:0:0:
17,367,143797,1,2,0:2:0:0:
99,190,143947,2,0,P|102:137|110:91,1,80.5000015354157,2|0,3:2|0:2,0:2:0:0:
17,367,144247,1,10,0:2:0:0:
106,270,144397,1,2,0:2:0:0:
308,352,144547,6,0,P|356:341|400:334,1,80.5000015354157,2|0,3:2|0:2,0:2:0:0:
177,206,144847,2,0,P|137:199|98:189,1,80.5000015354157,10|0,0:2|0:2,0:2:0:0:
303,51,145147,2,0,P|303:104|296:143,1,80.5000015354157,2|0,3:2|0:2,0:2:0:0:
257,254,145447,1,12,0:2:0:0:
204,108,145597,1,0,0:2:0:0:
420,190,145747,5,2,3:2:0:0:
376,71,145897,2,0,P|336:49|283:58,1,80.5000015354157,2|8,0:2|0:2,0:2:0:0:
420,190,146197,1,2,0:2:0:0:
302,50,146347,2,0,P|264:63|239:94,1,80.5000015354157,2|0,3:2|0:2,0:2:0:0:
420,190,146647,1,10,0:2:0:0:
376,66,146797,1,2,0:2:0:0:
321,258,146947,6,0,P|334:308|341:344,1,80.5000015354157,2|0,3:2|0:2,0:2:0:0:
150,101,147247,2,0,P|158:61|168:22,1,80.5000015354157,10|0,0:2|0:2,0:2:0:0:
26,207,147547,2,0,P|64:218|120:196,1,80.5000015354157,2|0,3:2|3:2,0:2:0:0:
216,161,147847,1,12,0:2:0:0:
189,293,147997,1,8,0:2:0:0:
32,103,148147,6,0,B|105:87|105:87|174:108,1,120.750002303124,6|0,3:2|0:2,0:2:0:0:
250,73,148447,2,0,B|207:86|207:86|146:70,1,80.5000015354157,8|0,2:2|0:2,0:2:0:0:
330,14,148747,2,0,P|348:67|333:113,1,80.5000015354157,2|0,3:2|0:2,0:2:0:0:
286,256,149047,2,0,P|268:203|283:157,1,80.5000015354157,10|0,0:2|0:2,0:2:0:0:
363,328,149347,6,0,P|312:356|206:326,1,161.000003070831,2|8,3:2|0:2,0:2:0:0:
157,256,149797,1,0,3:2:0:0:
157,256,149872,1,0,3:2:0:0:
157,256,149947,2,0,P|107:266|66:273,1,80.5000015354157,2|0,3:2|0:2,0:2:0:0:
215,334,150247,2,0,P|265:324|306:317,1,80.5000015354157,10|0,0:2|0:2,0:2:0:0:
478,175,150547,6,0,P|424:200|355:124,1,161.000003070831,6|8,3:2|0:2,0:2:0:0:
202,218,150997,2,0,P|231:149|247:47,1,161.000003070831,2|0,0:2|3:2,0:2:0:0:
71,180,151447,2,0,P|81:240|93:276,1,80.5000015354157,10|8,0:2|0:2,0:2:0:0:
86,258,151672,1,8,0:2:0:0:
86,258,151747,6,0,P|29:236|-8:229,1,80.5000015354157,2|0,3:2|0:2,0:2:0:0:
125,352,152047,1,8,0:2:0:0:
209,237,152197,1,0,3:2:0:0:
209,237,152272,1,0,3:2:0:0:
209,237,152347,2,0,P|196:187|194:175,1,40.2500007677078,8|8,2:2|2:3,0:2:0:0:
296,207,152497,2,0,P|300:226|306:245,1,40.2500007677078,4|4,0:3|0:3,0:2:0:0:
357,322,152647,2,0,B|396:320|396:320|423:336|423:336|491:333,1,120.750002303124,12|0,2:2|0:2,0:2:0:0:
501,351,152947,5,2,3:2:0:0:
443,168,153097,2,0,P|396:154|353:144,1,80.5000015354157,2|8,0:2|0:2,0:2:0:0:
503,347,153397,1,2,0:2:0:0:
365,146,153547,2,0,P|404:136|442:124,1,80.5000015354157,2|0,3:2|0:2,0:2:0:0:
384,41,153847,1,10,0:2:0:0:
387,228,153997,1,2,0:2:0:0:
220,153,154147,6,0,P|178:155|115:155,1,80.5000015354157,2|0,3:2|0:2,0:2:0:0:
387,228,154447,2,0,P|427:228|467:230,1,80.5000015354157,10|0,0:2|0:2,0:2:0:0:
254,352,154747,2,0,P|209:374|109:316,1,161.000003070831,2|12,3:2|0:2,0:2:0:0:
243,182,155197,1,8,0:2:0:0:
243,182,155272,1,8,0:2:0:0:
243,182,155347,5,6,3:2:0:0:
193,282,155497,1,2,0:2:0:0:
131,188,155647,1,10,0:2:0:0:
326,269,155797,5,2,2:2:0:0:
376,169,155947,1,2,3:2:0:0:
438,263,156097,1,2,0:2:0:0:
460,59,156247,5,10,0:2:0:0:
418,282,156397,1,2,0:2:0:0:
265,155,156547,2,0,P|311:151|374:142,1,80.5000015354157,2|0,3:2|0:2,0:2:0:0:
164,124,156847,2,0,P|160:164|180:230,1,80.5000015354157,10|0,0:2|0:2,0:2:0:0:
47,361,157147,2,0,P|52:321|38:174,1,161.000003070831,2|12,3:2|0:2,0:2:0:0:
14,66,157597,1,8,0:2:0:0:
14,66,157672,1,8,0:2:0:0:
14,66,157747,6,0,P|66:83|102:76,1,80.5000015354157,6|0,3:2|0:2,0:2:0:0:
269,14,158047,2,0,P|229:12|192:27,1,80.5000015354157,8|0,0:2|0:2,0:2:0:0:
354,115,158347,2,0,P|358:73|367:10,1,80.5000015354157,0|0,3:2|0:2,0:2:0:0:
472,178,158647,2,0,P|468:136|459:73,1,80.5000015354157,8|0,0:2|0:2,0:2:0:0:
418,284,158947,6,0,P|467:272|521:281,1,80.5000015354157,2|0,3:2|0:2,0:2:0:0:
252,323,159247,2,0,P|301:335|355:326,1,80.5000015354157,8|0,0:2|0:2,0:2:0:0:
155,249,159547,2,0,L|159:342,1,80.5000015354157,0|0,3:2|0:2,0:2:0:0:
303,238,159847,2,0,L|299:145,1,80.5000015354157,8|0,0:2|0:2,0:2:0:0:
299,157,160072,1,0,3:2:0:0:
299,157,160147,6,0,P|348:143|391:159,1,80.5000015354157,2|0,3:2|0:2,0:2:0:0:
232,74,160447,1,8,0:2:0:0:
191,179,160597,1,0,0:2:0:0:
0,108,160747,6,0,P|49:82|93:149,1,120.750002303124,2|0,3:2|0:2,0:2:0:0:
123,123,161047,2,0,P|114:193|108:225,1,80.5000015354157,12|0,0:2|0:2,0:2:0:0:
153,314,161347,5,2,3:2:0:0:
268,172,161497,1,8,0:2:0:0:
287,169,161572,1,8,0:2:0:0:
308,169,161647,1,8,2:2:0:0:
327,173,161722,1,8,2:2:0:0:
345,182,161797,1,0,3:3:0:0:
361,195,161872,1,0,3:3:0:0:
377,206,161947,1,8,0:3:0:0:
396,214,162022,1,8,0:3:0:0:
415,219,162097,1,4,0:3:0:0:
435,220,162172,1,4,0:3:0:0:
457,219,162247,2,0,P|464:273|472:319,1,80.5000015354157,4|4,0:3|2:3,0:2:0:0:
512,141,162547,6,0,P|465:122|403:141,1,105.000004005432,6|0,3:2|0:2,0:2:0:0:
325,80,162997,1,0,3:2:0:0:
244,160,163147,2,0,P|238:117|230:32,1,105.000004005432,10|0,0:2|3:2,0:2:0:0:
149,175,163597,1,8,0:2:0:0:
149,175,163672,1,8,0:2:0:0:
149,175,163747,6,0,P|155:218|159:245,1,52.5000020027161,2|8,3:2|0:2,0:2:0:0:
92,313,164047,2,0,P|49:319|22:323,1,52.5000020027161,2|0,0:2|3:2,0:2:0:0:
180,362,164347,1,2,0:2:0:0:
241,280,164497,2,0,P|282:265|351:303,1,105.000004005432,0|0,3:2|3:2,0:2:0:0:
337,285,164872,1,0,3:2:0:0:
337,285,164947,6,0,P|327:230|318:160,1,105.000004005432,6|0,3:2|0:2,0:2:0:0:
432,113,165397,1,0,3:2:0:0:
432,113,165547,2,0,P|424:164|415:216,1,105.000004005432,10|0,0:2|3:2,0:2:0:0:
482,298,165997,1,8,0:2:0:0:
482,298,166072,1,8,0:2:0:0:
482,298,166147,6,0,P|517:293|546:287,1,52.5000020027161,2|2,3:2|0:2,0:2:0:0:
415,216,166447,2,0,L|350:203,1,52.5000020027161,2|0,0:2|3:2,0:2:0:0:
244,283,166747,2,0,P|278:304|345:274,1,105.000004005432,10|0,0:2|3:2,0:2:0:0:
203,202,167197,1,8,2:3:0:0:
203,202,167272,1,4,0:3:0:0:
203,202,167347,6,0,P|143:207|79:214,1,105.000004005432,6|0,3:2|0:2,0:2:0:0:
22,138,167797,1,0,3:2:0:0:
70,53,167947,2,0,P|103:40|137:47,1,52.5000020027161,10|0,0:2|0:2,0:2:0:0:
206,86,168247,2,0,P|241:97|278:88,1,52.5000020027161,2|8,3:2|0:2,0:2:0:0:
256,95,168472,1,8,0:2:0:0:
256,95,168547,1,2,3:2:0:0:
353,48,168697,6,0,P|359:99|369:167,1,105.000004005432,8|0,0:2|3:2,0:2:0:0:
457,220,169147,2,0,P|453:245|445:294,1,52.5000020027161,8|0,0:2|0:2,0:2:0:0:
428,364,169447,1,2,2:2:0:0:
354,304,169597,1,8,0:2:0:0:
354,304,169672,1,8,0:2:0:0:
354,304,169747,6,0,P|324:302|289:297,1,52.5000020027161,2|0,3:2|3:2,0:2:0:0:
155,334,170047,2,0,P|181:331|208:330,1,52.5000020027161,2|0,3:2|0:2,0:2:0:0:
208,330,170272,1,0,3:2:0:0:
208,330,170347,6,0,P|198:291|192:228,1,70,10|8,0:2|0:3,0:2:0:0:
29,153,170647,2,0,P|24:202|19:226,1,70,4|4,0:3|0:3,0:2:0:0:
142,39,170947,5,14,0:2:0:0:
214,101,171397,1,0,3:3:0:0:
214,101,171472,1,0,3:3:0:0:
214,101,171547,5,10,0:2:0:0:
337,53,171697,1,8,0:2:0:0:
459,131,171847,1,8,0:2:0:0:
336,179,171997,1,8,0:2:0:0:
346,37,172147,5,6,3:2:0:0:
242,181,172297,2,0,P|251:229|261:281,1,80.5000015354157,2|8,0:2|0:2,0:2:0:0:
346,37,172597,1,2,0:2:0:0:
257,261,172747,2,0,P|250:301|243:341,1,80.5000015354157,2|0,3:2|0:2,0:2:0:0:
346,37,173047,1,10,0:2:0:0:
242,181,173197,1,2,0:2:0:0:
434,193,173347,6,0,P|486:205|524:214,1,80.5000015354157,2|0,3:2|0:2,0:2:0:0:
327,115,173647,2,0,P|338:62|347:25,1,80.5000015354157,10|0,0:2|0:2,0:2:0:0:
243,182,173947,1,2,3:2:0:0:
143,113,174097,1,0,3:2:0:0:
88,261,174247,2,0,P|128:284|183:270,1,80.5000015354157,12|0,0:2|0:2,0:2:0:0:
306,169,174547,5,2,3:2:0:0:
161,281,174697,2,0,L|239:297,1,80.5000015354157,2|8,0:2|0:2,0:2:0:0:
306,169,174997,1,2,0:2:0:0:
239,297,175147,2,0,P|257:332|257:371,1,80.5000015354157,2|0,3:2|0:2,0:2:0:0:
306,169,175447,2,0,L|317:62,1,80.5000015354157,10|0,0:2|0:2,0:2:0:0:
398,249,175747,5,6,3:2:0:0:
197,112,175897,1,8,0:2:0:0:
197,112,175972,1,8,0:2:0:0:
197,112,176047,2,0,L|205:164,1,40.2500007677078,8|8,0:2|0:2,0:2:0:0:
86,284,176197,1,8,0:2:0:0:
86,284,176272,1,8,0:2:0:0:
86,284,176347,6,0,L|75:227,1,40.2500007677078,10|8,0:2|0:2,0:2:0:0:
172,333,176497,1,0,3:2:0:0:
157,355,176572,1,0,3:2:0:0:
136,372,176647,1,8,0:3:0:0:
112,382,176722,1,8,0:3:0:0:
85,385,176797,1,4,0:3:0:0:
59,379,176872,1,4,0:3:0:0:
36,366,176947,5,2,3:2:0:0:
81,164,177097,2,0,P|79:204|78:244,1,80.5000015354157,2|8,0:2|0:2,0:2:0:0:
22,77,177397,2,0,P|66:56|152:89,1,120.750002303124,2|0,0:2|0:2,0:2:0:0:
165,78,177697,2,0,P|176:128|182:162,1,80.5000015354157,2|8,0:2|0:2,0:2:0:0:
346,95,177997,6,0,P|336:34|329:-1,1,80.5000015354157,2|0,0:2|3:2,0:2:0:0:
318,189,178297,1,2,0:2:0:0:
433,76,178447,2,0,P|486:69|533:64,1,80.5000015354157,10|0,0:2|0:2,0:2:0:0:
318,189,178747,5,2,3:2:0:0:
332,15,178897,1,2,2:2:0:0:
477,219,179047,2,0,P|425:243|390:229,1,80.5000015354157,10|0,0:2|0:2,0:2:0:0:
275,350,179347,5,2,3:2:0:0:
195,289,179497,2,0,P|130:289|99:290,1,80.5000015354157,2|8,0:2|0:2,0:2:0:0:
260,212,179797,2,0,B|321:194|321:194|408:231,1,120.750002303124,2|0,0:2|0:2,0:2:0:0:
404,238,180097,2,0,P|397:193|395:143,1,80.5000015354157,2|8,0:2|0:2,0:2:0:0:
338,36,180397,5,2,0:2:0:0:
264,100,180547,1,0,3:2:0:0:
194,33,180697,1,2,0:2:0:0:
103,80,180847,2,0,P|105:38|109:-3,1,80.5000015354157,10|0,0:2|3:2,0:2:0:0:
16,126,181147,1,0,3:2:0:0:
102,197,181297,1,2,0:2:0:0:
13,314,181447,5,14,0:2:0:0:
85,188,181597,1,0,0:2:0:0:
228,347,181747,5,2,3:2:0:0:
209,255,181897,1,2,0:2:0:0:
286,189,182047,1,10,0:2:0:0:
305,281,182197,1,0,0:2:0:0:
402,343,182347,6,0,P|443:350|464:348,2,53.6666676902771,2|2|2,3:2|0:2|0:2,0:2:0:0:
379,324,182647,1,10,0:2:0:0:
454,244,182797,2,0,P|454:200|461:78,1,161.000003070831,2|0,0:2|3:2,0:2:0:0:
291,15,183247,2,0,B|278:51|278:51|306:96,1,80.5000015354157,10|0,0:2|0:2,0:2:0:0:
242,192,183547,2,0,P|205:184|156:178,1,80.5000015354157,2|0,3:2|0:2,0:2:0:0:
63,218,183847,1,10,0:2:0:0:
150,76,183997,1,2,0:2:0:0:
238,282,184147,6,0,P|280:296|334:275,1,80.5000015354157,6|0,3:2|0:2,0:2:0:0:
414,116,184447,2,0,P|404:165|402:229,1,88.1999973083497,10|0,0:2|0:2,0:2:0:0:
488,365,184747,2,0,B|498:319|498:319|476:239,1,97.9999970092774,2|0,3:2|0:2,0:2:0:0:
414,116,185047,1,10,0:2:0:0:
308,145,185197,1,2,0:2:0:0:
150,88,185347,6,0,P|138:43|157:-1,1,94.5000003604889,2|8,3:2|2:2,0:2:0:0:
167,5,185572,1,8,2:2:0:0:
167,5,185647,1,0,3:2:0:0:
109,180,185797,2,0,P|48:165|-26:156,1,94.5000003604889,2|8,0:2|0:2,0:2:0:0:
172,261,186097,1,10,0:2:0:0:
172,261,186172,1,8,0:2:0:0:
172,261,186247,2,0,P|212:251|247:246,1,41.9999987182618,8|8,0:2|0:2,0:2:0:0:
101,318,186397,2,0,P|61:302|28:297,1,41.9999987182618,8|8,0:2|0:2,0:2:0:0:
179,377,186547,6,0,P|231:381|271:361,1,80.5000015354157,6|0,3:2|0:2,0:2:0:0:
321,314,186772,1,2,0:2:0:0:
321,314,186847,2,0,L|305:215,1,80.5000015354157,8|0,0:2|0:2,0:2:0:0:
389,167,187072,1,2,0:2:0:0:
389,167,187147,2,0,L|405:266,1,80.5000015354157,2|0,3:2|0:2,0:2:0:0:
477,284,187372,1,2,0:2:0:0:
477,284,187447,2,0,P|517:268|539:262,1,40.2500007677078,10|8,0:2|0:2,0:2:0:0:
506,189,187597,2,0,P|487:182|468:173,1,40.2500007677078,10|8,0:2|0:2,0:2:0:0:
420,72,187747,6,0,P|375:91|263:105,1,161.000003070831,2|8,3:2|0:2,0:2:0:0:
125,36,188197,2,0,B|163:23|163:23|218:43,1,80.5000015354157,2|0,0:2|3:2,0:2:0:0:
116,179,188497,1,2,0:2:0:0:
44,120,188647,2,0,P|44:79|36:-35,1,120.750002303124,14|0,0:2|0:2,0:2:0:0:
19,9,188947,6,0,P|14:94|6:220,1,175,6|8,3:2|0:2,0:2:0:0:
77,278,189397,1,8,0:2:0:0:
77,278,189472,1,8,0:2:0:0:
77,278,189547,2,0,P|107:286|142:285,1,43.75,2|0,3:2|3:2,0:2:0:0:
219,234,189697,2,0,P|249:226|284:227,1,43.75,0|0,3:2|3:2,0:2:0:0:
366,286,189847,2,0,L|380:380,1,87.5,10|2,0:2|0:2,0:2:0:0:
478,238,190147,5,2,3:2:0:0:
388,148,190297,2,0,P|382:111|381:32,1,80.5000015354157,2|8,0:2|0:2,0:2:0:0:
297,218,190597,1,2,0:2:0:0:
297,218,190672,1,2,0:2:0:0:
297,218,190747,2,0,P|260:204|215:196,1,80.5000015354157,2|0,3:2|0:2,0:2:0:0:
46,276,191047,2,0,P|86:269|124:255,1,80.5000015354157,14|0,0:2|0:2,0:2:0:0:
251,87,191347,6,0,B|192:83|192:83|161:102|161:102|131:90|83:100,1,161.000003070831,2|8,3:1|0:2,0:2:0:0:
307,6,191797,2,0,P|341:49|312:168,1,161.000003070831,2|0,0:1|3:2,0:2:0:0:
433,330,192247,2,0,B|405:249|469:260|425:148,1,161.000003070831,10|0,2:1|0:2,0:2:0:0:
481,96,192697,1,2,0:1:0:0:
432,329,192847,1,10,0:1:0:0:
314,243,192997,6,0,P|252:235|131:218,1,161.000003070831,2|0,2:1|3:2,0:2:0:0:
9,355,193447,2,0,B|38:355|52:370|52:370|98:344|76:270,1,136.499993751526,10|0,0:1|0:1,0:1:0:0:
56,262,193747,6,0,P|20:261|-28:273,2,60.6666638895672,6|2|2,3:2|0:2|0:2,0:2:0:0:
103,152,194047,2,0,P|138:152|187:141,2,60.6666638895672,10|2|2,0:2|0:2|0:2,0:2:0:0:
29,65,194347,1,2,3:2:0:0:
45,40,194447,2,0,L|112:47,1,60.6666638895672,2|2,0:2|0:2,0:2:0:0:
206,6,194647,1,10,0:2:0:0:
224,30,194747,2,0,P|259:32|307:21,1,60.6666638895672,2|2,0:2|0:2,0:2:0:0:
381,94,194947,5,2,3:1:0:0:
483,46,195097,1,8,0:1:0:0:
480,66,195172,1,8,0:1:0:0:
477,87,195247,1,10,0:1:0:0:
474,108,195322,1,8,0:1:0:0:
472,129,195397,1,10,0:1:0:0:
470,150,195472,1,8,0:1:0:0:
467,171,195547,1,8,0:1:0:0:
465,191,195622,1,8,0:1:0:0:
464,212,195697,1,10,0:1:0:0:
462,233,195772,1,8,0:1:0:0:
460,254,195847,1,8,0:1:0:0:
459,275,195922,1,8,0:1:0:0:
458,296,195997,1,8,0:1:0:0:
456,320,196072,2,0,L|510:334,1,45.4999979171754,8|0,0:1|2:3,0:2:0:0:
486,352,206947,5,2,0:2:0:0:
408,300,207097,2,0,P|370:309|340:316,1,52.5000020027161,2|0,0:2|0:2,0:2:0:0:
486,352,207397,1,2,0:2:0:0:
356,312,207547,2,0,P|318:303|288:296,1,52.5000020027161,2|0,0:2|0:2,0:2:0:0:
216,328,207847,2,0,P|190:334|165:341,1,52.5000020027161,2|0,0:2|0:2,0:2:0:0:
71,311,208147,2,0,P|56:261|72:199,2,105.000004005432,2|2|0,0:2|0:2|0:2,0:2:0:0:
71,311,209347,5,2,0:2:0:0:
155,244,209497,2,0,P|162:198|164:174,1,52.5000020027161,2|0,0:2|0:2,0:2:0:0:
71,311,209797,1,2,0:2:0:0:
162,192,209947,2,0,P|154:154|149:123,1,52.5000020027161,2|0,0:2|0:2,0:2:0:0:
198,17,210247,2,0,P|206:55|211:86,1,52.5000020027161,2|0,0:2|0:2,0:2:0:0:
288,119,210547,2,0,P|346:107|408:102,2,105.000004005432,2|2|0,0:2|0:2|0:2,0:2:0:0:
361,338,211747,6,0,P|459:367|516:299,1,188.999994232178,2|0,0:2|0:2,0:2:0:0:
374,231,212947,2,0,B|254:216|317:286|188:273,1,188.999994232178,2|0,0:2|0:2,0:2:0:0:
37,190,214147,2,0,B|40:163|66:147|66:147|116:206|72:278,1,188.999994232178,2|0,0:2|0:2,0:2:0:0:
29,367,215347,6,0,P|83:302|266:287,1,262.500010013581,2|0,0:2|0:2,0:2:0:0:
251,280,216147,1,0,3:2:0:0:
251,280,216197,1,0,3:2:0:0:
251,280,216247,1,14,0:2:0:0:
357,359,216547,5,6,3:2:0:0:
400,231,216697,2,0,L|381:142,1,80.5000015354157,2|8,0:2|0:2,0:2:0:0:
357,359,216997,1,2,0:2:0:0:
383,152,217147,2,0,L|402:63,1,80.5000015354157,2|0,3:2|0:2,0:2:0:0:
357,359,217447,1,10,0:2:0:0:
400,231,217597,1,2,0:2:0:0:
231,275,217747,6,0,P|179:268|128:259,1,80.5000015354157,2|0,3:2|0:2,0:2:0:0:
383,152,218047,2,0,P|435:159|486:168,1,80.5000015354157,10|0,0:2|0:2,0:2:0:0:
305,42,218347,1,2,3:2:0:0:
305,42,218497,1,0,3:2:0:0:
235,108,218647,2,0,P|243:155|253:218,1,80.5000015354157,12|0,0:2|0:2,0:2:0:0:
73,352,218947,5,6,0:2:0:0:
9,260,219097,2,0,P|17:211|24:156,1,80.5000015354157,2|8,0:2|0:2,0:2:0:0:
73,352,219397,1,2,0:2:0:0:
21,180,219547,2,0,P|11:120|5:83,1,80.5000015354157,2|0,3:2|0:2,0:2:0:0:
87,20,219847,1,10,0:2:0:0:
165,81,219997,1,2,0:2:0:0:
344,8,220147,6,0,P|292:24|253:19,1,80.5000015354157,2|0,3:2|0:2,0:2:0:0:
447,63,220447,2,0,P|466:98|472:137,1,80.5000015354157,10|0,0:2|0:2,0:2:0:0:
360,355,220747,2,0,P|337:287|356:179,1,161.000003070831,2|12,3:2|0:2,0:2:0:0:
236,117,221197,1,8,0:2:0:0:
236,117,221272,1,8,0:2:0:0:
236,117,221347,6,0,P|185:108|148:103,1,80.5000015354157,6|0,3:2|0:2,0:2:0:0:
10,160,221647,2,0,P|61:169|98:174,1,80.5000015354157,8|0,0:2|0:2,0:2:0:0:
259,251,221947,2,0,P|204:271|168:259,1,80.5000015354157,2|0,3:2|0:2,0:2:0:0:
18,335,222247,2,0,P|73:315|109:327,1,80.5000015354157,10|0,0:2|0:2,0:2:0:0:
92,319,222472,1,0,1:2:0:0:
92,319,222547,6,0,P|87:252|89:128,2,161.000003070831,2|8|2,3:2|0:2|3:2,0:2:0:0:
192,378,223297,1,0,3:2:0:0:
300,311,223447,2,0,P|361:307|400:300,1,80.5000015354157,10|0,0:2|0:2,0:2:0:0:
292,131,223747,6,0,P|236:117|185:214,1,161.000003070831,6|8,3:2|0:2,0:2:0:0:
403,207,224197,2,0,B|368:139|431:131|384:36,1,161.000003070831,2|0,0:2|3:2,0:2:0:0:
500,243,224647,2,0,B|515:282|515:282|501:335,1,80.5000015354157,14|0,0:2|0:2,0:2:0:0:
395,379,224947,5,2,3:2:0:0:
295,312,225097,1,8,0:2:0:0:
282,313,225172,1,8,0:2:0:0:
271,314,225247,1,8,0:2:0:0:
259,316,225322,1,8,0:2:0:0:
247,317,225397,1,8,0:2:0:0:
235,319,225472,1,8,0:2:0:0:
223,321,225547,1,8,0:2:0:0:
211,323,225622,1,8,0:2:0:0:
199,326,225697,1,8,0:2:0:0:
187,328,225772,1,8,0:2:0:0:
173,331,225847,6,0,P|160:289|156:265,1,40.2500007677078,6|0,3:2|3:2,0:2:0:0:
83,330,225997,2,0,P|96:372|100:396,1,40.2500007677078,2|0,3:2|3:2,0:2:0:0:
2,298,226147,5,6,3:2:0:0:
63,210,226297,2,0,P|104:198|166:191,1,80.5000015354157,2|8,0:2|0:2,0:2:0:0:
2,298,226597,1,2,0:2:0:0:
141,192,226747,2,0,P|182:204|244:211,1,80.5000015354157,2|0,3:2|0:2,0:2:0:0:
2,298,227047,1,10,0:2:0:0:
63,210,227197,1,2,0:2:0:0:
21,38,227347,6,0,P|1:84|18:130,1,80.5000015354157,2|0,3:2|0:2,0:2:0:0:
177,52,227647,2,0,P|147:11|98:3,1,80.5000015354157,10|0,0:2|0:2,0:2:0:0:
145,172,227947,2,0,B|229:197|213:130|322:164,1,161.000003070831,2|12,3:2|0:2,0:2:0:0:
428,222,228397,1,8,0:2:0:0:
428,222,228472,1,8,0:2:0:0:
428,222,228547,5,6,3:2:0:0:
331,286,228697,2,0,P|318:331|310:391,1,80.5000015354157,2|8,0:2|0:2,0:2:0:0:
428,222,228997,1,2,0:2:0:0:
300,158,229147,2,0,P|293:118|282:80,1,80.5000015354157,2|0,3:2|0:2,0:2:0:0:
369,11,229447,1,10,0:2:0:0:
369,11,229597,1,2,0:2:0:0:
202,140,229747,6,2,P|153:132|108:125,1,80.5000015354157,2|0,3:2|2:2,2:2:0:0:
8,301,230047,2,0,P|67:322|114:257,1,120.750002303124,10|0,0:2|0:2,0:2:0:0:
108,260,230347,2,0,P|124:315|142:353,1,80.5000015354157,2|0,3:2|3:2,0:2:0:0:
271,370,230647,2,0,P|277:307|298:241,1,120.750002303124,12|0,0:2|0:2,0:2:0:0:
321,234,230947,6,0,P|351:281|361:319,1,80.5000015354157,2|0,3:2|0:2,0:2:0:0:
438,204,231247,1,8,0:2:0:0:
438,204,231397,1,0,0:2:0:0:
308,146,231547,2,0,L|214:161,1,80.5000015354157,0|0,3:2|0:2,0:2:0:0:
134,105,231847,1,8,0:2:0:0:
134,105,231997,1,0,0:2:0:0:
15,272,232147,6,0,P|59:270|97:245,1,80.5000015354157,2|0,3:2|0:2,0:2:0:0:
192,333,232447,1,8,0:2:0:0:
192,333,232597,1,0,0:2:0:0:
90,253,232747,2,0,P|76:194|69:153,1,80.5000015354157,0|0,3:2|0:2,0:2:0:0:
116,42,233047,1,8,0:2:0:0:
116,42,233197,1,0,0:2:0:0:
311,91,233347,6,0,P|363:77|413:67,1,80.5000015354157,6|0,3:2|0:2,0:2:0:0:
248,172,233647,2,0,P|208:163|169:152,1,80.5000015354157,8|0,0:2|0:2,0:2:0:0:
318,270,233947,6,0,P|384:223|431:240,1,120.750002303124,2|0,3:2|0:2,0:2:0:0:
480,278,234247,2,0,B|492:317|492:317|477:391,1,80.5000015354157,12|0,0:2|0:2,0:2:0:0:
232,254,234547,6,0,B|221:201|221:201|239:166|239:166|223:95,1,161.000003070831,2|8,3:2|0:2,0:2:0:0:
211,84,234922,1,8,0:2:0:0:
192,77,234997,1,8,0:2:0:0:
171,78,235072,1,8,0:2:0:0:
153,87,235147,2,0,P|109:98|67:88,1,80.5000015354157,8|4,0:3|0:3,0:2:0:0:
6,208,235372,1,4,0:3:0:0:
6,208,235447,6,0,P|51:187|139:225,1,120.750002303124,6|0,3:2|0:2,0:2:0:0:
170,268,235747,6,0,P|164:308|151:379,1,105.000004005432,2|0,3:2|0:2,0:2:0:0:
265,313,236197,1,0,3:2:0:0:
265,313,236347,2,0,P|255:261|247:209,1,105.000004005432,10|0,0:2|3:2,0:2:0:0:
304,123,236797,1,8,0:2:0:0:
304,123,236872,1,8,0:2:0:0:
304,123,236947,5,2,3:2:0:0:
382,181,237097,2,0,P|421:188|453:175,1,52.5000020027161,10|0,0:2|0:2,0:2:0:0:
505,117,237397,1,2,3:2:0:0:
432,49,237547,2,0,P|423:86|416:109,1,52.5000020027161,10|0,0:2|0:2,0:2:0:0:
441,194,237847,2,0,P|450:231|457:254,1,52.5000020027161,10|0,0:2|3:2,0:2:0:0:
454,244,238072,1,0,3:2:0:0:
454,244,238147,6,0,P|430:280|364:276,1,105.000004005432,2|0,3:2|0:2,0:2:0:0:
298,344,238597,1,0,3:2:0:0:
298,344,238747,2,0,P|259:334|175:321,1,105.000004005432,10|0,0:2|3:2,0:2:0:0:
98,333,239197,1,8,0:2:0:0:
98,333,239272,1,8,0:2:0:0:
98,333,239347,5,2,3:2:0:0:
11,362,239497,1,2,3:2:0:0:
88,252,239647,2,0,P|98:290|102:322,1,52.5000020027161,2|0,3:2|0:2,0:2:0:0:
2,210,239947,2,0,P|19:154|30:93,1,105.000004005432,10|0,0:2|3:2,0:2:0:0:
18,13,240397,1,0,3:2:0:0:
112,164,240547,6,0,B|165:179|165:179|223:162,1,105.000004005432,6|0,3:2|0:2,0:2:0:0:
297,113,240997,1,0,3:2:0:0:
381,174,241147,2,0,P|379:219|377:244,1,52.5000020027161,10|0,0:2|0:2,0:2:0:0:
465,205,241447,2,0,P|467:179|468:153,1,52.5000020027161,2|8,0:2|0:2,0:2:0:0:
468,153,241672,1,8,0:2:0:0:
468,153,241747,5,2,3:2:0:0:
378,226,241897,2,0,P|382:278|397:328,1,105.000004005432,8|0,0:2|3:2,0:2:0:0:
284,244,242347,2,0,P|298:194|303:142,1,105.000004005432,8|2,0:2|3:2,0:2:0:0:
259,61,242797,1,0,0:2:0:0:
168,59,242947,5,14,0:2:0:0:
303,142,243097,2,0,P|354:134|406:125,1,105.000004005432,0|8,3:2|0:2,0:2:0:0:
439,147,243472,1,8,0:0:0:0:
439,147,243547,5,0,0:2:0:0:
324,45,243697,1,8,0:3:0:0:
281,231,243847,1,4,0:3:0:0:
208,164,243997,1,4,0:3:0:0:
37,224,244147,5,14,0:2:0:0:
74,135,244447,2,0,P|71:108|63:78,2,46.6666666666667,0|8|4,3:2|0:3|0:3,0:2:0:0:
100,160,244747,5,10,0:2:0:0:
227,86,244897,1,8,0:2:0:0:
324,196,245047,1,8,0:2:0:0:
451,130,245197,1,8,0:2:0:0:
343,46,245347,5,6,3:2:0:0:
427,222,245497,2,0,P|471:228|506:211,1,80.5000015354157,2|8,0:2|0:2,0:2:0:0:
343,46,245797,1,2,0:2:0:0:
324,196,245947,2,0,P|244:209|219:217,1,80.5000015354157,2|0,3:2|0:2,0:2:0:0:
343,46,246247,1,10,0:2:0:0:
424,219,246397,1,2,0:2:0:0:
244,208,246547,6,0,P|194:222|146:221,1,80.5000015354157,2|0,3:2|0:2,0:2:0:0:
213,51,246847,2,0,P|250:87|273:129,1,80.5000015354157,10|0,0:2|0:2,0:2:0:0:
93,157,247147,2,0,P|105:106|130:65,1,80.5000015354157,2|0,3:2|0:2,0:2:0:0:
244,208,247447,2,0,L|255:313,1,80.5000015354157,12|0,0:2|0:2,0:2:0:0:
341,372,247747,5,6,3:2:0:0:
377,167,247897,2,0,P|381:124|396:57,1,80.5000015354157,2|8,0:2|0:2,0:2:0:0:
341,372,248197,1,2,0:2:0:0:
158,234,248347,2,0,P|117:238|77:241,1,80.5000015354157,2|0,3:2|0:2,0:2:0:0:
377,167,248647,2,0,P|417:162|457:159,1,80.5000015354157,10|0,0:2|0:2,0:2:0:0:
322,78,248947,5,2,3:2:0:0:
296,227,249097,1,8,0:2:0:0:
313,247,249172,1,8,0:2:0:0:
336,261,249247,1,10,0:2:0:0:
362,268,249322,1,8,0:2:0:0:
388,267,249397,1,8,0:2:0:0:
414,259,249472,1,8,0:2:0:0:
436,243,249547,6,0,P|449:284|450:301,1,40.2500007677078,2|0,3:2|3:2,0:2:0:0:
507,340,249697,2,0,P|498:381|490:396,1,40.2500007677078,8|8,2:3|2:3,0:2:0:0:
418,245,249847,6,0,P|430:285|431:302,1,40.2500007677078,4|4,0:3|0:3,0:2:0:0:
488,341,249997,2,0,P|479:382|471:397,1,40.2500007677078,4|4,0:3|0:3,0:2:0:0:
499,201,250147,5,6,3:2:0:0:
421,134,250297,2,0,L|328:130,1,70,2|8,0:2|0:2,0:2:0:0:
196,181,250597,2,0,L|289:185,1,70,2|0,0:2|3:2,0:2:0:0:
118,141,250897,2,0,P|104:183|116:220,1,70,2|8,0:2|0:2,0:2:0:0:
193,95,251197,1,2,0:2:0:0:
112,53,251347,5,2,3:2:0:0:
196,181,251497,2,0,P|196:230|199:275,1,70,2|8,0:2|0:2,0:2:0:0:
273,125,251797,2,0,P|273:76|270:31,1,70,2|0,0:2|3:2,0:2:0:0:
354,180,252097,2,0,P|393:162|440:158,1,70,2|8,0:2|0:2,0:2:0:0:
500,215,252397,1,2,0:2:0:0:
409,327,252547,5,4,3:2:0:0:
409,327,252697,2,0,L|415:239,1,70,0|8,3:2|0:2,0:2:0:0:
367,75,252997,1,2,0:2:0:0:
367,75,253072,1,2,0:2:0:0:
367,75,253147,2,0,L|361:163,1,70,2|0,3:2|0:2,0:2:0:0:
339,172,253372,2,0,P|298:168|251:166,1,70,2|0,0:2|0:2,0:2:0:0:
238,185,253597,1,2,0:2:0:0:
146,117,253747,6,0,P|126:158|149:243,1,105,2|0,3:2|0:2,0:2:0:0:
148,243,254047,1,10,0:2:0:0:
96,323,254197,2,0,B|60:313|60:313|27:320,1,70,2|0,0:2|3:2,0:2:0:0:
167,384,254497,1,2,0:2:0:0:
257,324,254647,2,0,P|263:272|280:223,1,105,14|0,0:2|0:2,0:2:0:0:
313,218,254947,6,0,P|330:248|338:283,1,70,6|0,3:2|0:2,0:2:0:0:
450,283,255247,1,10,0:2:0:0:
450,283,255397,2,0,P|433:313|425:347,1,70,2|0,0:2|3:2,0:2:0:0:
416,180,255697,1,2,0:2:0:0:
416,180,255847,2,0,P|406:124|404:98,1,70,10|0,0:2|0:2,0:2:0:0:
205,103,256147,6,0,P|215:159|217:185,1,70,0|0,3:2|0:2,0:2:0:0:
143,264,256447,1,10,0:2:0:0:
68,198,256597,1,8,0:2:0:0:
68,198,256672,1,8,0:2:0:0:
68,198,256747,2,0,P|14:190|-9:191,1,70,2|0,3:2|0:2,0:2:0:0:
216,337,257047,2,0,L|327:324,1,105,12|0,0:2|0:2,0:2:0:0:
347,347,257347,6,0,P|356:303|329:196,1,140,6|8,3:2|0:2,0:2:0:0:
247,128,257797,2,0,P|236:180|248:224,1,70,2|0,0:2|3:2,0:2:0:0:
443,257,258097,1,0,0:2:0:0:
443,257,258247,2,0,P|454:205|442:161,1,70,10|0,0:2|0:2,0:2:0:0:
388,36,258547,5,2,3:2:0:0:
350,170,258697,1,0,3:2:0:0:
177,121,258847,2,0,L|272:130,1,70,14|0,0:2|0:2,0:2:0:0:
95,190,259147,5,2,3:2:0:0:
149,20,259297,1,8,0:2:0:0:
149,20,259372,1,8,0:2:0:0:
149,20,259447,2,0,P|168:72|178:149,1,105,12|0,0:2|0:2,0:2:0:0:
176,154,259747,5,6,3:2:0:0:
79,87,259897,2,0,P|31:79|-2:78,1,80.5000015354157,2|8,0:2|0:2,0:2:0:0:
176,154,260197,1,2,0:2:0:0:
290,84,260347,2,0,P|332:77|386:60,1,80.5000015354157,2|0,3:2|0:2,0:2:0:0:
478,133,260647,1,10,0:2:0:0:
478,133,260797,1,2,0:2:0:0:
381,288,260947,6,0,P|370:237|359:182,1,80.5000015354157,2|0,3:2|0:2,0:2:0:0:
470,362,261247,2,0,P|481:311|494:254,1,80.5000015354157,10|0,0:2|0:2,0:2:0:0:
278,251,261547,2,0,B|258:287|258:287|295:323|287:373,1,120.750002303124,2|0,3:2|0:2,0:2:0:0:
264,374,261847,2,0,P|214:372|162:366,1,80.5000015354157,12|0,0:2|0:2,0:2:0:0:
43,243,262147,5,2,3:2:0:0:
136,146,262297,2,0,P|136:206|136:248,1,80.5000015354157,2|8,0:2|0:2,0:2:0:0:
43,243,262597,1,2,0:2:0:0:
127,69,262747,2,0,P|141:125|125:166,1,80.5000015354157,2|0,3:2|0:2,0:2:0:0:
248,283,263047,2,0,P|243:243|256:206,1,80.5000015354157,10|0,0:2|0:2,0:2:0:0:
443,104,263347,6,0,P|381:125|342:118,1,80.5000015354157,2|0,3:2|0:2,0:2:0:0:
216,53,263647,1,10,0:2:0:0:
93,133,263797,1,8,0:2:0:0:
93,133,263872,1,8,0:2:0:0:
93,133,263947,5,6,3:2:0:0:
130,23,264097,1,8,0:2:0:0:
179,205,264247,1,8,0:2:0:0:
142,315,264397,1,8,0:2:0:0:
158,337,265147,5,6,3:2:0:0:
256,192,265222,12,0,267697,0:2:0:0:
