osu file format v14

[General]
AudioFilename: audio.mp3
AudioLeadIn: 0
PreviewTime: 61634
Countdown: 0
SampleSet: Soft
StackLeniency: 0.7
Mode: 0
LetterboxInBreaks: 0
WidescreenStoryboard: 1

[Editor]
Bookmarks: 33606
DistanceSpacing: 1.1
BeatDivisor: 8
GridSize: 4
TimelineZoom: 2.2

[Metadata]
Title:Hikari Shoumeiron
TitleUnicode:ヒカリ証明論
Artist:CHiCO with HoneyWorks
ArtistUnicode:CHiCO with HoneyWorks
Creator:Nao Tomori
Version:Hard
Source:銀魂. 銀ノ魂篇
Tags:ending full version ed 30 japanese anime j-rock kagura 神楽 gintama silver soul arc season 2 2018 Shirogane no Tamashii-hen ぎんたま Gintoki Sakata 坂田 銀時 Shinpachi Shimura 志村 新八
BeatmapID:2364182
BeatmapSetID:1130285

[Difficulty]
HPDrainRate:4.5
CircleSize:3.8
OverallDifficulty:6.5
ApproachRate:8
SliderMultiplier:1.3
SliderTickRate:1

[Events]
//Background and Video events
0,0,"gintama wallpaper.jpg",0,0
//Break Periods
2,97947,104197
2,196272,206197
//Storyboard Layer 0 (Background)
//Storyboard Layer 1 (Fail)
//Storyboard Layer 2 (Pass)
//Storyboard Layer 3 (Foreground)
//Storyboard Layer 4 (Overlay)
//Storyboard Sound Samples

[TimingPoints]
555,666.666666666667,4,2,2,47,1,0
555,-78.125,4,2,2,47,0,0
8554,-111.111111111111,4,2,2,47,0,0
13747,300,4,2,2,77,1,0
13747,-100,4,2,2,77,0,0
30547,-133.333333333333,4,2,2,77,0,0
31747,-80,4,2,2,77,0,0
32947,-133.333333333333,4,2,2,57,0,0
41647,-100,4,2,2,67,0,0
52147,-133.333333333333,4,2,2,57,0,0
56947,-181.818181818182,4,2,2,57,0,0
59347,-100,4,2,2,57,0,0
61747,-86.9565217391304,4,2,2,87,0,1
80947,-133.333333333333,4,2,2,67,0,0
88747,-100,4,2,2,67,0,0
89647,-133.333333333333,4,2,2,67,0,0
90547,-86.9565217391304,4,2,2,87,0,1
95347,-100,4,2,2,77,0,0
112147,-133.333333333333,4,2,2,77,0,0
112297,-133.333333333333,4,2,2,57,0,0
114547,-114.942528735632,4,2,2,57,0,0
121747,-100,4,2,2,67,0,0
124147,-100,4,2,2,67,0,0
133447,-133.333333333333,4,2,2,57,0,0
138547,-181.818181818182,4,2,2,47,0,0
140947,-100,4,2,2,67,0,0
143347,-86.9565217391304,4,2,2,87,0,1
162547,-133.333333333333,4,2,2,67,0,0
170347,-100,4,2,2,67,0,0
172147,-86.9565217391304,4,2,2,87,0,1
176947,-86.9565217391304,4,2,2,87,0,0
188947,-80,4,2,2,87,0,0
190297,-86.9565217391304,4,2,2,87,0,0
192247,-86.9565217391304,4,2,3,87,0,0
192397,-86.9565217391304,4,2,2,87,0,0
192847,-86.9565217391304,4,2,3,87,0,0
192997,-86.9565217391304,4,2,2,87,0,0
193447,-76.9230769230769,4,2,3,87,0,0
193597,-76.9230769230769,4,2,2,87,0,0
195097,-76.9230769230769,4,2,3,87,0,0
197347,-76.9230769230769,4,2,2,87,0,0
206947,-133.333333333333,4,2,2,47,0,0
211747,-222.222222222222,4,2,2,47,0,0
215347,-133.333333333333,4,2,2,67,0,0
216097,-133.333333333333,4,2,2,87,0,0
216547,-86.9565217391304,4,2,2,87,0,1
235747,-133.333333333333,4,2,2,67,0,0
244397,-100,4,2,2,67,0,0
245347,-86.9565217391304,4,2,2,87,0,1
250147,-100,4,2,2,77,0,0
259747,-86.9565217391304,4,2,2,87,0,1
265222,-86.9565217391304,4,2,2,77,0,0
267697,-86.9565217391304,4,2,2,5,0,0

[Colours]
Combo1 : 230,159,74
Combo2 : 147,242,147
Combo3 : 132,228,249
Combo4 : 237,129,145

[HitObjects]
46,242,555,6,0,P|75:257|138:243,1,83.2,2|0,0:2|0:2,0:0:0:0:
201,198,1221,2,0,P|241:191|279:207,1,83.2,2|0,0:2|0:2,0:0:0:0:
353,265,1888,2,0,L|360:358,1,83.2,2|0,0:2|0:2,0:0:0:0:
447,301,2555,2,0,L|440:208,1,83.2,2|0,0:2|0:2,0:0:0:0:
492,149,3055,1,2,0:2:0:0:
492,149,3221,6,0,P|496:121|492:91,1,41.6,2|0,0:2|0:0,0:0:0:0:
459,28,3555,2,0,P|427:9|374:11,1,83.2,2|2,0:2|0:2,0:0:0:0:
327,67,4055,1,0,0:2:0:0:
327,67,4221,1,2,0:2:0:0:
203,0,4555,2,0,L|196:41,1,41.6,2|0,0:2|0:0,0:0:0:0:
130,88,4888,2,0,L|145:177,1,83.2,2|0,0:2|0:2,0:0:0:0:
46,270,5721,5,2,0:2:0:0:
46,270,5888,2,0,P|82:260|139:286,1,83.2,2|0,0:2|0:2,0:0:0:0:
194,321,6388,1,0,0:2:0:0:
194,321,6555,2,0,P|230:331|287:305,1,83.2,2|0,0:2|0:2,0:0:0:0:
325,257,7055,1,0,0:2:0:0:
393,301,7221,2,0,L|400:357,1,41.6,2|0,0:2|0:2,0:0:0:0:
476,296,7555,2,0,L|482:195,2,83.2,2|0|0,0:2|0:2|0:2,0:0:0:0:
341,153,8555,6,0,P|329:111|429:67,1,175.499994644165,2|0,0:2|0:2,0:0:0:0:
378,236,9888,2,0,B|301:265|299:197|208:228,1,175.499994644165,2|0,0:2|0:2,0:0:0:0:
57,262,11221,2,0,B|94:289|94:289|147:228|104:158,1,175.499994644165,2|0,0:2|0:2,0:0:0:0:
47,90,12555,5,2,0:2:0:0:
47,90,13747,5,6,3:2:0:0:
61,106,13897,2,0,P|107:101|134:94,1,65,2|8,0:2|0:2,0:0:0:0:
186,149,14197,2,0,P|167:191|159:218,1,65,2|0,0:2|3:2,0:0:0:0:
86,235,14497,2,0,P|58:197|39:177,2,65,2|8|2,0:2|0:2|0:2,0:0:0:0:
127,318,14947,5,2,3:2:0:0:
127,318,15097,2,0,P|161:315|209:307,1,65,0|10,0:2|0:2,0:0:0:0:
274,349,15397,2,0,P|312:332|406:370,1,130,2|2,0:2|0:2,0:0:0:0:
475,317,15847,2,0,P|475:273|477:232,1,65,10|0,0:2|0:2,0:0:0:0:
505,107,16147,5,2,3:2:0:0:
505,107,16297,2,0,P|482:144|461:175,1,65,2|8,0:2|0:2,0:0:0:0:
393,33,16597,2,0,P|436:34|473:37,1,65,2|0,0:2|3:2,0:0:0:0:
385,167,16897,2,0,P|364:128|348:94,2,65,2|8|2,0:2|0:2|0:2,0:0:0:0:
348,250,17347,5,2,3:2:0:0:
348,250,17497,2,0,P|310:241|277:240,1,65,0|10,0:2|0:2,0:0:0:0:
191,291,17797,2,0,L|124:283,1,65,2|0,0:2|0:2,0:0:0:0:
34,246,18097,1,6,3:2:0:0:
102,122,18247,2,0,P|112:160|103:196,1,65,14|0,0:2|0:2,0:0:0:0:
12,154,18547,6,0,L|16:80,1,65,2|0,3:2|0:2,0:0:0:0:
105,57,18847,2,0,L|101:131,1,65,10|0,0:2|0:2,0:0:0:0:
192,165,19147,2,0,L|196:91,1,65,2|0,3:2|0:2,0:0:0:0:
285,68,19447,2,0,L|281:142,1,65,10|0,0:2|0:2,0:0:0:0:
352,195,19747,2,0,P|388:204|422:202,1,65,2|2,3:2|0:2,0:0:0:0:
284,258,20047,2,0,P|251:257|220:266,1,65,10|0,0:2|0:2,0:0:0:0:
374,292,20347,2,0,P|410:301|444:299,1,65,2|2,3:2|0:2,0:0:0:0:
306,355,20647,2,0,P|273:354|242:363,1,65,10|0,0:2|0:2,0:0:0:0:
150,331,20947,6,0,P|108:340|10:355,2,130,6|10|2,3:2|0:2|3:2,0:0:0:0:
201,252,21697,1,0,0:2:0:0:
137,183,21847,2,0,P|110:168|45:209,1,97.5,10|0,0:2|0:0,0:0:0:0:
33,175,22147,6,0,L|25:91,1,65,2|2,3:2|0:2,0:0:0:0:
103,10,22447,2,0,L|111:94,1,65,14|0,0:2|0:0,0:0:0:0:
202,141,22747,2,0,P|231:127|277:140,1,65,2|8,3:2|0:2,0:0:0:0:
262,131,22972,1,8,0:2:0:0:
262,131,23047,2,0,P|297:137|326:125,1,65,10|10,0:2|0:2,0:0:0:0:
385,52,23347,5,6,3:2:0:0:
464,109,23497,2,0,P|460:148|455:195,1,65,2|8,0:2|0:2,0:0:0:0:
388,230,23797,2,0,P|397:261|405:293,1,65,2|0,0:2|3:2,0:0:0:0:
330,364,24097,2,0,P|294:360|258:342,2,65,2|8|2,0:2|0:2|0:2,0:0:0:0:
395,293,24547,5,2,3:2:0:0:
315,229,24697,2,0,P|252:238|221:243,1,65,0|10,0:2|0:2,0:0:0:0:
164,196,24997,2,0,P|150:156|153:63,1,130,2|2,0:2|0:2,0:0:0:0:
59,22,25447,2,0,P|67:69|64:107,1,65,10|0,0:2|0:2,0:0:0:0:
25,165,25747,5,6,3:2:0:0:
25,165,25897,2,0,L|40:243,1,65,2|8,0:2|0:2,0:0:0:0:
29,330,26197,2,0,P|82:313|115:304,1,65,2|0,0:2|3:2,0:0:0:0:
182,367,26497,2,0,P|180:318|185:279,1,65,2|8,0:2|0:2,0:0:0:0:
240,217,26797,1,2,0:2:0:0:
308,289,26947,5,2,3:2:0:0:
308,289,27097,2,0,P|349:296|384:289,1,65,0|10,0:2|0:2,0:0:0:0:
461,331,27397,2,0,P|476:287|467:190,1,130,2|2,0:2|0:2,0:0:0:0:
400,83,27847,2,0,P|393:119|397:152,1,65,10|8,0:2|0:2,0:0:0:0:
395,146,28072,1,8,0:2:0:0:
395,146,28147,6,0,P|361:163|330:165,1,65,6|0,3:2|0:2,0:0:0:0:
260,115,28447,2,0,P|225:98|194:96,1,65,10|0,0:2|0:2,0:0:0:0:
124,160,28747,2,0,L|131:231,1,65,2|0,3:2|0:2,0:0:0:0:
39,197,29047,2,0,L|33:133,1,65,10|0,0:2|0:2,0:0:0:0:
69,46,29347,6,0,P|103:29|134:27,1,65,2|2,3:2|0:2,0:0:0:0:
207,77,29647,2,0,P|241:93|272:95,1,65,10|0,0:2|0:2,0:0:0:0:
361,64,29947,2,0,L|354:0,1,65,2|0,3:2|3:2,0:0:0:0:
441,116,30247,2,0,L|430:234,1,97.5,14|0,2:2|0:0,0:0:0:0:
448,229,30547,6,0,L|465:277,1,48.750001859665,2|4,3:2|2:3,0:0:0:0:
299,351,30997,1,0,0:2:0:0:
299,351,31147,2,0,L|315:305,1,48.750001859665,2|4,3:2|2:3,0:0:0:0:
204,199,31597,1,8,2:3:0:0:
204,199,31672,1,8,2:3:0:0:
204,199,31747,6,0,P|151:181|96:264,2,162.5,2|2|2,3:1|3:1|3:1,0:0:0:0:
473,348,32947,6,0,P|461:276|452:233,1,97.50000371933,6|0,3:2|3:2,0:0:0:0:
374,94,33547,2,0,P|362:166|353:209,1,97.50000371933,2|0,3:2|3:2,0:0:0:0:
259,272,34147,2,0,P|230:261|156:275,1,97.50000371933,2|0,3:2|3:2,0:0:0:0:
3,194,34747,2,0,P|50:204|96:191,1,97.50000371933,2|0,3:2|3:2,0:0:0:0:
187,67,35347,5,2,3:2:0:0:
71,21,35647,1,2,3:2:0:0:
180,86,35947,1,2,3:2:0:0:
64,40,36247,1,2,3:2:0:0:
264,25,36547,2,0,P|292:72|290:116,1,97.50000371933,2|0,3:2|3:2,0:0:0:0:
201,267,37147,2,0,P|201:219|228:179,1,97.50000371933,0|0,3:2|3:2,0:0:0:0:
392,242,37747,6,0,P|336:242|284:245,1,97.50000371933,2|0,3:2|3:2,0:0:0:0:
103,265,38347,2,0,P|151:267|200:267,1,97.50000371933,2|0,3:2|3:2,0:0:0:0:
29,306,38947,2,0,B|13:267|13:267|33:209,1,97.50000371933,2|0,3:2|3:2,0:0:0:0:
107,66,39547,2,0,B|123:105|123:105|103:163,1,97.50000371933,2|0,3:2|3:2,0:0:0:0:
200,267,40147,2,0,B|298:234|287:323|397:282,1,195.00000743866,2|0,3:2|3:2,0:0:0:0:
386,285,41047,1,2,3:2:0:0:
466,239,41347,6,0,P|461:200|454:135,1,97.50000371933,2|14,3:2|0:2,0:0:0:0:
386,68,41797,1,0,3:0:0:0:
386,68,41872,1,0,3:2:0:0:
386,68,41947,2,0,P|338:61|312:72,1,65,2|8,3:2|0:2,0:0:0:0:
308,73,42172,1,8,0:2:0:0:
295,79,42247,2,0,P|247:86|221:75,1,65,8|8,0:2|0:2,0:0:0:0:
156,139,42547,6,0,P|115:116|20:152,2,130,6|8|2,3:2|0:2|3:2,0:0:0:0:
93,204,43297,1,0,3:2:0:0:
93,204,43447,2,0,P|98:243|104:278,1,65,8|0,0:2|0:2,0:0:0:0:
173,325,43747,2,0,B|218:314|218:314|248:329|248:329|314:314,2,130,2|8|2,3:2|0:2|3:2,0:0:0:0:
102,268,44497,1,0,3:2:0:0:
165,205,44647,2,0,P|207:200|234:204,1,65,10|0,0:2|0:2,0:0:0:0:
229,203,44872,1,0,3:2:0:0:
229,203,44947,6,0,P|275:223|354:193,1,130,2|10,3:2|0:2,0:0:0:0:
476,289,45547,2,0,P|456:214|451:141,1,130,2|10,3:2|0:2,0:0:0:0:
480,0,46147,2,0,P|472:56|394:81,1,130,2|8,3:2|0:2,0:0:0:0:
329,50,46597,2,0,L|186:76,1,130,2|2,0:2|0:2,0:0:0:0:
120,42,47047,2,0,P|81:36|52:26,1,65,10|0,0:2|0:2,0:0:0:0:
128,141,47347,6,0,P|172:109|258:136,2,130,6|8|2,3:2|0:2|3:2,0:0:0:0:
100,229,48097,1,0,3:2:0:0:
100,229,48247,2,0,L|109:304,1,65,8|0,0:2|0:2,0:0:0:0:
26,342,48547,2,0,L|7:197,2,130,2|8|2,3:2|0:2|3:2,0:0:0:0:
107,293,49297,1,0,3:2:0:0:
191,335,49447,2,0,P|231:347|259:355,1,65,8|0,0:2|0:2,0:0:0:0:
340,310,49747,6,0,P|393:298|477:281,1,130,6|8,3:2|0:2,0:0:0:0:
395,207,50197,2,0,P|338:196|318:190,1,65,2|0,0:2|0:0,0:0:0:0:
260,125,50497,1,2,0:2:0:0:
260,125,50647,2,0,P|272:76|280:40,1,65,8|2,0:2|2:2,0:0:0:0:
163,98,50947,6,0,P|177:161|183:189,1,65,0|0,3:2|3:2,0:0:0:0:
132,294,51247,2,0,P|118:231|112:203,1,65,12|8,0:2|0:2,0:0:0:0:
99,215,51472,1,8,0:2:0:0:
99,215,51547,2,0,P|58:199|24:203,1,65,8|8,0:2|0:3,0:0:0:0:
101,113,51847,2,0,P|133:111|162:97,1,65,4|4,0:3|0:3,0:0:0:0:
253,37,52147,6,0,L|359:49,1,97.50000371933,6|2,3:2|3:2,0:0:0:0:
469,165,52747,2,0,P|439:165|409:157,1,48.750001859665,2|2,0:2|0:2,0:0:0:0:
300,226,53047,2,0,P|323:221|348:222,1,48.750001859665,2|0,3:2|0:2,0:0:0:0:
430,286,53347,2,0,L|445:399,1,97.50000371933,2|2,3:2|0:2,0:0:0:0:
300,226,53947,2,0,L|285:113,1,97.50000371933,2|0,3:2|3:2,0:0:0:0:
130,220,54547,6,0,L|118:317,1,97.50000371933,2|2,3:2|3:2,0:0:0:0:
37,154,55147,2,0,P|33:120|32:94,1,48.750001859665,2|2,0:2|0:2,0:0:0:0:
111,29,55447,2,0,P|115:63|116:89,1,48.750001859665,2|0,3:2|0:2,0:0:0:0:
187,132,55747,1,2,3:2:0:0:
187,132,55897,1,2,0:2:0:0:
253,78,56047,2,0,B|297:64|297:64|354:79,2,97.50000371933,2|2|0,3:2|3:2|3:2,0:0:0:0:
383,207,56947,6,0,P|428:212|431:85,1,214.500006546021,6|0,3:2|0:2,0:0:0:0:
290,174,58147,2,0,L|305:330,1,143.000004364014,2|0,0:2|0:0,0:0:0:0:
303,316,59347,6,0,P|262:303|221:303,1,65,2|0,3:2|3:2,0:0:0:0:
153,320,59647,2,0,P|112:333|71:333,1,65,10|0,2:2|3:2,0:0:0:0:
14,279,59947,2,0,L|21:193,1,65,2|0,3:2|3:2,0:0:0:0:
74,137,60247,2,0,L|67:51,1,65,10|0,2:2|3:2,0:0:0:0:
12,3,60547,5,6,3:2:0:0:
497,369,61747,5,6,3:2:0:0:
436,300,61897,2,0,P|423:260|478:165,1,149.500002851486,2|2,0:2|0:2,0:0:0:0:
413,86,62347,2,0,P|384:117|275:117,1,149.500002851486,2|10,3:2|0:2,0:0:0:0:
223,57,62797,1,2,0:2:0:0:
150,113,62947,2,0,L|153:206,1,74.7500014257431,2|0,3:2|0:2,0:0:0:0:
64,226,63247,2,0,L|61:151,1,74.7500014257431,10|0,0:2|0:2,0:0:0:0:
33,304,63547,2,0,B|120:329|93:262|207:299,1,149.500002851486,2|12,3:2|0:2,0:0:0:0:
395,363,64147,5,2,3:2:0:0:
330,298,64297,2,0,L|342:133,1,149.500002851486,2|2,0:2|0:2,0:0:0:0:
256,84,64747,2,0,L|246:234,1,149.500002851486,2|10,3:2|0:2,0:0:0:0:
174,294,65197,1,2,0:2:0:0:
174,294,65347,2,0,P|129:280|89:278,1,74.7500014257431,2|0,3:2|0:2,0:0:0:0:
28,189,65647,2,0,P|65:184|100:172,1,74.7500014257431,10|0,0:2|0:2,0:0:0:0:
48,51,65947,2,0,P|97:83|209:80,1,149.500002851486,2|12,3:2|0:2,0:0:0:0:
409,20,66547,6,0,P|388:58|414:174,1,149.500002851486,6|8,3:2|0:2,0:0:0:0:
286,316,67147,2,0,P|272:277|254:233,1,74.7500014257431,2|0,3:2|0:2,0:0:0:0:
170,242,67447,2,0,P|156:276|143:311,1,74.7500014257431,10|0,0:2|0:2,0:0:0:0:
60,353,67747,2,0,P|48:303|28:191,1,149.500002851486,2|8,3:2|0:2,0:0:0:0:
140,31,68347,2,0,P|151:76|135:116,1,74.7500014257431,2|0,3:2|0:2,0:0:0:0:
247,145,68647,2,0,P|236:100|252:60,1,74.7500014257431,10|0,0:2|0:2,0:0:0:0:
462,89,68947,6,0,B|413:118|413:118|297:96,1,149.500002851486,2|8,3:2|0:2,0:0:0:0:
331,187,69397,2,0,B|397:199|397:199|375:244|390:291,1,149.500002851486,2|0,0:2|0:2,0:0:0:0:
472,319,69847,2,0,P|478:277|464:235,1,74.7500014257431,10|0,0:2|0:2,0:0:0:0:
313,293,70147,6,0,L|400:276,1,74.7500014257431,2|0,3:2|3:2,0:0:0:0:
165,321,70447,2,0,L|252:338,1,74.7500014257431,12|0,0:2|0:2,0:0:0:0:
86,362,70747,1,2,3:2:0:0:
9,261,70897,1,8,0:2:0:0:
9,261,70972,1,8,0:2:0:0:
9,261,71047,2,0,L|97:278,1,74.7500014257431,8|8,0:2|0:2,0:0:0:0:
163,223,71347,5,6,3:2:0:0:
124,128,71497,2,0,B|49:110|64:180|-30:171,1,149.500002851486,2|2,0:2|0:2,0:0:0:0:
116,45,71947,2,0,B|192:36|173:95|260:91,1,149.500002851486,2|10,3:2|0:2,0:0:0:0:
327,47,72397,1,2,0:2:0:0:
404,99,72547,2,0,L|409:184,1,74.7500014257431,2|0,3:2|0:2,0:0:0:0:
498,128,72847,2,0,L|493:43,1,74.7500014257431,10|0,0:2|0:2,0:0:0:0:
408,173,73147,2,0,P|382:245|424:331,1,149.500002851486,2|12,3:2|0:2,0:0:0:0:
233,347,73747,5,2,3:2:0:0:
283,278,73897,2,0,P|324:259|408:331,1,149.500002851486,2|2,0:2|0:2,0:0:0:0:
233,347,74347,2,0,P|181:331|76:306,1,149.500002851486,2|10,3:2|0:2,0:0:0:0:
88,308,74797,1,2,0:2:0:0:
151,233,74947,2,0,P|196:222|230:213,1,74.7500014257431,2|0,3:2|0:2,0:0:0:0:
304,112,75247,2,0,P|259:123|225:132,1,74.7500014257431,10|0,0:2|0:2,0:0:0:0:
145,106,75547,2,0,P|151:64|183:30,1,74.7500014257431,2|0,3:2|3:2,0:0:0:0:
170,38,75772,1,0,3:2:0:0:
170,38,75847,1,14,0:2:0:0:
377,152,76147,6,0,P|379:189|385:226,1,74.7500014257431,6|0,3:2|0:2,0:0:0:0:
478,276,76447,2,0,P|476:238|470:202,1,74.7500014257431,8|0,0:2|0:2,0:0:0:0:
386,227,76747,2,0,P|328:210|291:214,1,74.7500014257431,0|0,3:2|3:2,0:0:0:0:
249,267,77047,2,0,P|215:280|178:284,1,74.7500014257431,8|0,0:2|0:2,0:0:0:0:
103,226,77347,6,0,L|98:145,1,74.7500014257431,2|0,3:2|0:2,0:0:0:0:
11,114,77647,2,0,L|15:188,1,74.7500014257431,8|0,0:2|0:2,0:0:0:0:
98,151,77947,2,0,L|93:70,1,74.7500014257431,0|0,3:2|3:2,0:0:0:0:
7,40,78247,2,0,L|11:114,1,74.7500014257431,8|8,0:2|0:2,0:0:0:0:
93,76,78547,6,0,P|160:55|227:111,1,149.500002851486,6|10,3:2|0:2,0:0:0:0:
310,64,78997,1,0,0:2:0:0:
382,132,79147,2,0,L|396:212,1,74.7500014257431,2|0,3:2|0:0,0:0:0:0:
310,338,79447,2,0,B|284:301|284:301|308:212,1,112.125002138615,12|0,0:2|0:0,0:0:0:0:
321,355,79747,6,0,P|264:374|228:381,1,74.7500014257431,2|8,3:2|0:2,0:0:0:0:
405,299,80047,2,0,P|441:309|477:322,1,74.7500014257431,8|8,0:2|0:2,0:0:0:0:
509,234,80347,1,8,0:3:0:0:
443,160,80497,1,4,0:3:0:0:
443,160,80572,1,4,0:3:0:0:
443,160,80647,2,0,L|361:179,1,74.7500014257431,4|4,0:3|0:3,0:0:0:0:
288,118,80947,6,0,P|254:114|134:86,1,146.250005578995,6|0,3:2|3:2,0:0:0:0:
73,140,81547,2,0,P|64:180|44:240,1,97.50000371933,10|0,0:2|3:2,0:0:0:0:
136,291,81997,1,8,0:2:0:0:
136,291,82072,1,8,0:2:0:0:
136,291,82147,1,2,3:2:0:0:
165,204,82297,2,0,P|228:190|279:186,1,97.50000371933,2|2,0:2|3:2,0:0:0:0:
343,234,82747,2,0,P|406:248|457:252,1,97.50000371933,10|0,0:2|3:2,0:0:0:0:
438,49,83347,6,0,P|380:79|285:109,1,146.250005578995,6|0,3:2|3:2,0:0:0:0:
222,74,83947,2,0,P|186:72|115:63,1,97.50000371933,10|0,0:2|3:2,0:0:0:0:
61,123,84397,1,8,0:2:0:0:
61,123,84472,1,8,0:2:0:0:
61,123,84547,2,0,P|55:159|59:181,1,48.750001859665,2|10,3:2|0:2,0:0:0:0:
120,234,84847,2,0,P|131:271|129:296,1,48.750001859665,2|0,0:2|3:2,0:0:0:0:
57,348,85147,2,0,P|106:307|151:307,1,97.50000371933,2|8,3:2|0:2,0:0:0:0:
355,321,85747,6,0,P|411:339|460:270,1,146.250005578995,6|0,3:2|3:2,0:0:0:0:
401,202,86347,2,0,P|389:159|380:137,1,48.750001859665,10|0,0:2|0:2,0:0:0:0:
480,133,86647,2,0,P|485:109|493:86,1,48.750001859665,2|8,0:2|0:2,0:0:0:0:
493,86,86872,1,8,0:2:0:0:
492,86,86947,1,2,3:2:0:0:
428,27,87097,2,0,P|395:61|348:60,1,97.50000371933,8|0,2:2|3:2,0:0:0:0:
265,87,87547,2,0,L|251:25,1,48.750001859665,8|0,0:0|0:0,0:0:0:0:
195,115,87847,2,0,L|208:172,1,48.750001859665,2|8,2:2|0:2,0:0:0:0:
205,162,88072,1,8,0:2:0:0:
205,162,88147,6,0,P|149:177|99:145,1,97.50000371933,2|10,3:2|0:2,0:0:0:0:
253,336,88747,2,0,P|283:324|327:328,1,65,2|0,3:2|3:2,0:0:0:0:
403,307,89047,2,0,L|413:243,1,65,2|0,3:2|3:2,0:0:0:0:
482,364,89347,1,14,0:2:0:0:
175,44,89947,5,10,0:2:0:0:
175,44,90097,1,8,0:2:0:0:
175,44,90247,1,8,0:2:0:0:
175,44,90397,1,8,0:2:0:0:
124,113,90547,5,6,3:2:0:0:
195,164,90697,2,0,B|243:152|243:152|279:170|279:170|356:152,1,149.500002851486,2|2,0:2|0:2,0:0:0:0:
449,95,91147,2,0,B|416:84|416:84|452:207,1,149.500002851486,2|10,3:2|0:2,0:0:0:0:
487,281,91597,1,2,0:2:0:0:
423,350,91747,2,0,P|374:362|329:351,1,74.7500014257431,2|0,3:2|0:2,0:0:0:0:
282,298,92047,2,0,L|268:210,1,74.7500014257431,10|0,0:2|0:2,0:0:0:0:
181,213,92347,2,0,L|207:385,1,149.500002851486,2|12,3:2|0:2,0:0:0:0:
339,154,92947,5,2,3:2:0:0:
266,98,93097,2,0,B|210:85|210:85|180:135|107:121,1,149.500002851486,2|2,0:2|0:2,0:0:0:0:
42,151,93547,2,0,P|35:197|31:233,1,74.7500014257431,2|0,3:2|0:2,0:0:0:0:
98,351,93847,2,0,P|104:314|109:277,1,74.7500014257431,10|0,0:2|0:2,0:0:0:0:
196,224,94147,6,0,P|254:214|287:220,1,74.7500014257431,2|0,3:2|3:2,0:0:0:0:
365,261,94447,2,0,P|416:269|449:261,1,74.7500014257431,14|0,0:2|0:2,0:0:0:0:
506,193,94747,2,0,L|491:111,1,74.7500014257431,2|0,3:2|3:2,0:0:0:0:
492,119,94972,1,0,3:2:0:0:
492,119,95047,2,0,L|502:32,1,74.7500014257431,8|8,0:2|0:2,0:0:0:0:
408,1,95347,5,2,3:2:0:0:
256,192,95422,12,2,97747,3:2:0:0:
75,299,104947,5,6,3:2:0:0:
75,299,105097,2,0,P|87:251|86:223,1,65,2|8,0:2|0:2,0:0:0:0:
20,163,105397,2,0,P|55:197|80:210,1,65,2|0,0:2|3:2,0:0:0:0:
165,183,105697,2,0,P|117:196|93:211,2,65,2|8|2,0:2|0:2|0:2,0:0:0:0:
252,223,106147,5,2,3:2:0:0:
327,168,106297,2,0,L|314:88,1,65,0|10,0:2|0:2,0:0:0:0:
414,125,106597,2,0,L|440:266,1,130,2|2,0:2|0:2,0:0:0:0:
388,334,107047,2,0,P|340:321|304:331,1,65,2|0,3:2|0:2,0:0:0:0:
247,367,107347,5,2,3:2:0:0:
165,335,107497,2,0,L|155:251,1,65,2|8,0:2|0:2,0:0:0:0:
68,270,107797,2,0,L|61:335,1,65,2|0,0:2|3:2,0:0:0:0:
3,211,108097,2,0,L|-4:74,1,130,2|2,0:2|0:2,0:0:0:0:
63,7,108547,5,2,3:2:0:0:
127,62,108697,2,0,P|173:74|210:65,1,65,0|10,0:2|0:2,0:0:0:0:
268,27,108997,2,0,P|314:11|344:11,1,65,2|0,0:2|2:2,0:0:0:0:
419,53,109297,1,6,3:2:0:0:
349,161,109447,2,0,B|336:132|336:132|338:74,1,65,14|0,0:2|0:0,0:0:0:0:
395,244,109747,6,0,P|349:256|307:248,1,65,2|0,3:2|0:2,0:0:0:0:
303,345,110047,2,0,P|257:333|215:341,1,65,10|0,0:2|0:2,0:0:0:0:
154,368,110347,1,2,3:2:0:0:
154,368,110497,1,2,0:2:0:0:
123,277,110647,2,0,L|117:192,1,65,10|0,0:2|0:2,0:0:0:0:
35,191,110947,6,0,L|41:276,1,65,2|8,3:2|0:2,0:0:0:0:
39,255,111172,1,8,0:2:0:0:
39,255,111247,2,0,P|29:296|-1:321,1,65,10|8,0:2|0:2,0:0:0:0:
72,384,111547,2,0,P|112:373|148:386,1,65,8|8,0:2|0:2,0:0:0:0:
134,378,111772,1,8,0:2:0:0:
134,378,111847,2,0,L|222:363,1,65,8|4,0:3|0:3,0:0:0:0:
272,305,112147,6,0,L|332:313,1,48.750001859665,2|2,3:2|0:2,0:0:0:0:
494,246,112597,2,0,L|445:239,2,48.750001859665,2|2|2,3:2|0:2|0:3,0:0:0:0:
395,169,113047,2,0,L|346:162,2,48.750001859665,2|0|2,3:2|3:2|0:3,0:0:0:0:
461,110,113497,1,2,3:2:0:0:
512,335,113947,1,6,3:2:0:0:
512,335,114547,6,0,P|469:352|412:303,1,113.100000949173,6|0,3:2|3:2,0:0:0:0:
210,357,115147,2,0,P|253:323|306:340,1,113.100000949173,2|0,3:2|3:2,0:0:0:0:
347,138,115747,2,0,L|356:270,1,113.100000949173,2|0,3:2|3:2,0:0:0:0:
256,96,116347,2,0,L|248:208,1,113.100000949173,2|0,3:2|3:2,0:0:0:0:
113,320,116947,5,2,3:2:0:0:
6,208,117247,1,2,3:2:0:0:
104,105,117547,2,0,L|113:217,1,113.100000949173,2|2,3:2|3:2,0:0:0:0:
244,377,118147,2,0,L|275:28,1,339.300002847519,2|0,3:2|3:2,0:0:0:0:
376,161,119347,6,0,P|423:175|488:129,1,113.100000949173,2|0,3:2|3:2,0:0:0:0:
375,24,119947,2,0,P|328:10|263:56,1,113.100000949173,2|0,3:2|3:2,0:0:0:0:
148,110,120547,2,0,P|161:158|173:234,1,113.100000949173,2|0,3:2|3:2,0:0:0:0:
311,199,121147,2,0,P|298:247|286:323,1,113.100000949173,2|0,3:2|3:2,0:0:0:0:
248,382,121597,1,8,0:2:0:0:
248,382,121672,1,8,0:2:0:0:
248,382,121747,6,0,P|206:356|123:378,1,130,6|0,3:2|3:2,0:0:0:0:
56,320,122197,2,0,L|44:187,1,130,4|8,0:3|0:3,0:0:0:0:
115,136,122647,2,0,L|122:57,1,65,4|0,0:3|3:2,0:0:0:0:
120,71,122872,1,0,3:2:0:0:
120,71,122947,6,0,P|163:62|195:69,1,65,8|8,0:2|0:2,0:0:0:0:
328,102,123247,2,0,P|285:111|253:104,1,65,8|10,0:2|0:2,0:0:0:0:
264,107,124147,6,0,P|319:101|371:163,1,130,6|8,3:2|0:2,0:0:0:0:
460,195,124597,1,0,3:2:0:0:
460,195,124672,1,0,3:2:0:0:
460,195,124747,2,0,P|448:248|438:286,1,65,2|0,3:2|3:2,0:0:0:0:
379,367,125047,2,0,P|371:335|365:304,1,65,10|0,0:2|3:2,0:0:0:0:
281,257,125347,6,0,P|236:245|201:252,1,65,2|0,3:2|0:0,0:0:0:0:
136,297,125647,2,0,P|91:309|56:302,1,65,10|0,0:2|0:0,0:0:0:0:
3,247,125947,2,0,L|12:166,1,65,2|0,3:2|3:2,0:0:0:0:
96,58,126247,2,0,L|87:139,1,65,10|0,0:2|0:2,0:0:0:0:
88,122,126472,1,0,3:2:0:0:
88,122,126547,6,0,B|161:112|134:170|221:152,1,130,2|10,3:2|0:2,0:0:0:0:
408,84,127147,2,0,P|368:108|378:200,1,130,2|10,3:2|0:2,0:0:0:0:
439,246,127597,1,0,0:2:0:0:
439,246,127672,1,0,3:2:0:0:
439,246,127747,6,0,B|484:236|484:236|517:273|499:338,1,130,2|8,3:2|0:2,0:0:0:0:
426,371,128197,2,0,P|384:357|299:382,1,130,2|2,0:2|3:2,0:0:0:0:
224,330,128647,2,0,L|235:248,1,65,10|0,0:2|3:2,0:0:0:0:
142,375,128947,6,0,P|123:304|111:229,1,130,6|8,3:2|0:2,0:0:0:0:
207,52,129547,2,0,P|223:88|229:125,1,65,2|0,3:2|3:2,0:0:0:0:
320,135,129847,2,0,P|343:103|372:79,1,65,8|0,0:2|0:2,0:0:0:0:
362,86,130072,1,0,3:2:0:0:
362,86,130147,6,0,L|503:106,1,130,2|8,3:2|0:2,0:0:0:0:
222,109,130747,2,0,L|81:89,1,130,2|8,3:2|0:2,0:0:0:0:
258,234,131347,6,0,B|285:271|317:266|317:266|338:233|392:228,1,130,2|0,3:2|3:2,0:0:0:0:
497,306,131797,2,0,B|481:324|462:329|462:329|433:311|390:315|390:315|419:341,1,130,10|0,0:2|3:2,0:0:0:0:
299,384,132247,2,0,B|297:367|315:348|315:348|335:368|332:382,1,65,8|2,0:2|0:2,0:0:0:0:
221,340,132547,2,0,P|176:332|137:339,1,65,0|10,3:2|0:2,0:0:0:0:
75,294,132847,2,0,P|60:244|65:214,1,65,0|8,3:2|0:2,0:0:0:0:
60,231,133072,1,8,0:2:0:0:
60,231,133147,2,0,P|75:176|67:146,1,65,8|8,0:2|0:3,0:0:0:0:
128,90,133447,2,0,P|106:54|83:38,1,48.750001859665,4|4,0:3|0:3,0:0:0:0:
224,100,133747,6,0,P|237:64|225:0,2,97.50000371933,6|2|2,3:2|0:2|3:2,0:0:0:0:
287,169,134497,1,0,0:2:0:0:
287,169,134647,2,0,P|328:155|340:148,1,48.750001859665,2|0,0:2|0:2,0:0:0:0:
401,93,134947,2,0,P|435:76|506:94,1,97.50000371933,2|2,3:2|3:2,0:0:0:0:
287,169,135547,2,0,P|253:186|182:168,1,97.50000371933,2|0,3:2|0:2,0:0:0:0:
32,247,136147,6,0,L|43:357,1,97.50000371933,2|2,3:2|0:2,0:0:0:0:
133,363,136597,1,0,0:2:0:0:
133,363,136747,2,0,L|122:253,1,97.50000371933,2|2,3:2|0:2,0:0:0:0:
187,206,137197,1,2,0:2:0:0:
187,206,137347,2,0,P|236:195|247:195,1,48.750001859665,2|0,3:2|0:2,0:0:0:0:
314,238,137647,2,0,P|361:251|409:254,2,97.50000371933,2|2|0,0:2|3:2|3:3,0:0:0:0:
288,89,138547,5,6,3:2:0:0:
213,287,139747,5,2,0:2:0:0:
54,132,140947,6,0,P|94:121|127:124,1,65,6|0,3:2|3:2,0:0:0:0:
117,122,141172,1,0,3:0:0:0:
117,122,141247,2,0,P|157:133|190:130,1,65,10|0,2:2|3:2,0:0:0:0:
271,186,141547,2,0,L|343:177,1,65,2|0,3:2|3:2,0:0:0:0:
486,221,141847,2,0,L|422:230,1,65,10|8,0:2|0:2,0:0:0:0:
422,230,142072,1,8,0:2:0:0:
422,230,142147,1,6,3:2:0:0:
20,366,143347,5,6,3:2:0:0:
83,302,143497,2,0,P|78:233|71:144,1,149.500002851486,2|2,0:2|0:2,0:0:0:0:
162,92,143947,2,0,P|167:161|174:250,1,149.500002851486,2|10,3:2|0:2,0:0:0:0:
248,287,144397,1,2,0:2:0:0:
248,287,144547,2,0,P|292:293|331:280,1,74.7500014257431,2|0,3:2|0:2,0:0:0:0:
396,228,144847,2,0,L|389:135,1,74.7500014257431,10|0,0:2|0:2,0:0:0:0:
480,193,145147,2,0,B|513:236|513:236|492:352,1,149.500002851486,2|12,3:2|0:2,0:0:0:0:
333,79,145747,5,2,3:2:0:0:
403,24,145897,2,0,B|457:-1|513:30|513:30|483:35|472:46,1,149.500002851486,2|2,0:2|0:2,0:0:0:0:
429,117,146347,2,0,P|420:154|512:197,1,149.500002851486,2|10,3:2|0:2,0:0:0:0:
436,287,146797,1,2,0:2:0:0:
436,287,146947,2,0,P|387:272|343:266,1,74.7500014257431,2|0,3:2|0:2,0:0:0:0:
203,317,147247,2,0,P|239:309|275:298,1,74.7500014257431,10|0,0:2|0:2,0:0:0:0:
151,253,147547,2,0,B|116:289|116:289|132:389,1,149.500002851486,2|12,3:2|0:2,0:0:0:0:
162,83,148147,6,0,P|125:63|41:134,1,149.500002851486,6|8,3:2|2:2,0:0:0:0:
257,193,148747,2,0,P|247:139|243:100,1,74.7500014257431,2|0,3:2|0:2,0:0:0:0:
344,102,149047,2,0,P|354:156|358:195,1,74.7500014257431,10|0,0:2|0:2,0:0:0:0:
469,142,149347,2,0,P|447:191|428:310,1,149.500002851486,2|8,3:2|0:2,0:0:0:0:
191,355,149947,2,0,P|233:340|267:346,1,74.7500014257431,2|0,3:2|0:2,0:0:0:0:
183,239,150247,2,0,P|148:253|112:250,1,74.7500014257431,10|0,0:2|0:2,0:0:0:0:
263,118,150547,6,0,B|242:164|242:164|283:204|266:279,1,149.500002851486,6|8,3:2|0:2,0:0:0:0:
358,353,150997,2,0,P|381:296|354:200,1,149.500002851486,2|0,0:2|3:2,0:0:0:0:
439,160,151447,2,0,P|478:150|521:155,1,74.7500014257431,10|8,0:2|0:2,0:0:0:0:
395,74,151747,2,0,B|341:80|341:80|321:110|321:110|230:121,1,149.500002851486,2|8,3:2|0:2,0:0:0:0:
184,62,152197,1,0,3:2:0:0:
184,62,152272,1,0,3:2:0:0:
184,62,152347,2,0,P|125:52|97:59,1,74.7500014257431,8|4,2:2|0:3,0:0:0:0:
40,121,152647,2,0,L|52:241,1,112.125002138615,12|0,2:2|0:2,0:0:0:0:
36,252,152947,5,2,3:2:0:0:
97,315,153097,2,0,P|134:326|196:236,1,149.500002851486,2|2,0:2|0:2,0:0:0:0:
269,174,153547,2,0,P|240:200|287:299,1,149.500002851486,2|10,3:2|0:2,0:0:0:0:
368,329,153997,1,2,0:2:0:0:
457,297,154147,2,0,P|461:251|473:209,1,74.7500014257431,2|0,3:2|0:2,0:0:0:0:
383,174,154447,2,0,P|376:112|365:76,1,74.7500014257431,10|0,0:2|0:2,0:0:0:0:
296,27,154747,2,0,P|284:77|267:191,1,149.500002851486,2|12,3:2|0:2,0:0:0:0:
25,285,155347,5,6,3:2:0:0:
25,285,155497,1,2,0:2:0:0:
25,285,155647,1,10,0:2:0:0:
75,207,155797,5,2,2:2:0:0:
75,207,155947,1,2,3:2:0:0:
75,207,156097,1,2,0:2:0:0:
116,119,156247,6,0,L|190:125,1,74.7500014257431,10|2,0:2|0:2,0:0:0:0:
277,81,156547,2,0,P|284:40|273:-9,1,74.7500014257431,2|0,3:2|0:2,0:0:0:0:
284,181,156847,2,0,P|316:207|363:222,1,74.7500014257431,10|0,0:2|0:2,0:0:0:0:
455,188,157147,2,0,B|502:118|441:111|510:31,1,149.500002851486,2|12,3:2|0:2,0:0:0:0:
503,329,157747,6,0,P|455:346|409:325,1,74.7500014257431,6|0,3:2|0:2,0:0:0:0:
352,296,158047,2,0,P|310:284|268:298,1,74.7500014257431,8|0,0:2|0:2,0:0:0:0:
201,350,158347,2,0,L|108:341,1,74.7500014257431,0|0,3:2|0:2,0:0:0:0:
79,252,158647,2,0,L|172:261,1,74.7500014257431,8|0,0:2|0:2,0:0:0:0:
226,195,158947,6,0,P|238:156|230:102,1,74.7500014257431,2|0,3:2|0:2,0:0:0:0:
148,64,159247,2,0,P|136:103|144:157,1,74.7500014257431,8|0,0:2|0:2,0:0:0:0:
74,213,159547,2,0,L|0:204,1,74.7500014257431,0|0,3:2|0:2,0:0:0:0:
112,300,159847,2,0,L|186:308,1,74.7500014257431,8|0,0:2|0:2,0:0:0:0:
186,308,160072,1,0,3:2:0:0:
186,308,160147,6,0,B|242:278|242:278|340:291,1,149.500002851486,2|8,3:2|0:2,0:0:0:0:
483,152,160747,2,0,P|448:168|393:155,1,74.7500014257431,2|0,3:2|0:0,0:0:0:0:
304,86,161047,2,0,P|336:144|308:204,1,112.125002138615,12|0,0:2|0:0,0:0:0:0:
306,205,161347,6,0,P|247:192|209:187,1,74.7500014257431,2|8,3:2|0:2,0:0:0:0:
149,228,161647,2,0,P|84:237|39:243,1,74.7500014257431,8|0,2:2|3:3,0:0:0:0:
13,314,161947,1,8,0:3:0:0:
13,314,162022,1,8,0:3:0:0:
13,314,162097,1,4,0:3:0:0:
13,314,162172,1,4,0:3:0:0:
13,314,162247,2,0,P|5:361|13:385,1,74.7500014257431,4|4,0:3|2:3,0:0:0:0:
74,238,162547,6,0,P|60:158|51:81,1,146.250005578995,6|0,3:2|3:2,0:0:0:0:
120,27,163147,2,0,B|144:73|144:73|140:120,1,97.50000371933,10|0,0:2|3:2,0:0:0:0:
217,169,163597,1,8,0:2:0:0:
217,169,163672,1,8,0:2:0:0:
217,169,163747,2,0,P|256:176|286:171,1,48.750001859665,2|8,3:2|0:2,0:0:0:0:
350,148,164047,2,0,P|386:140|415:142,1,48.750001859665,2|0,0:2|3:2,0:0:0:0:
492,165,164347,2,0,L|501:267,1,97.50000371933,2|0,0:2|0:0,0:0:0:0:
326,379,164947,6,0,L|311:218,1,146.250005578995,6|0,3:2|3:2,0:0:0:0:
247,172,165547,2,0,P|211:157|147:161,1,97.50000371933,10|0,0:2|3:2,0:0:0:0:
75,204,165997,1,8,0:2:0:0:
75,204,166072,1,8,0:2:0:0:
75,204,166147,2,0,P|70:251|70:261,1,48.750001859665,2|2,3:2|0:2,0:0:0:0:
144,354,166447,2,0,P|142:329|138:305,1,48.750001859665,2|0,0:2|3:2,0:0:0:0:
225,282,166747,2,0,L|340:272,1,97.50000371933,10|0,0:2|3:2,0:0:0:0:
487,167,167347,6,0,P|439:183|356:129,1,146.250005578995,6|0,3:2|3:2,0:0:0:0:
421,0,167947,2,0,P|438:36|435:99,1,97.50000371933,10|2,0:2|3:2,0:0:0:0:
274,201,168547,2,0,P|257:165|260:102,1,97.50000371933,2|0,3:2|0:0,0:0:0:0:
200,40,168997,1,0,3:2:0:0:
200,40,169147,2,0,L|98:53,1,97.50000371933,8|2,0:2|2:2,0:0:0:0:
29,106,169597,1,8,0:2:0:0:
29,106,169672,1,8,0:2:0:0:
29,106,169747,6,0,P|20:144|24:174,1,48.750001859665,2|0,3:2|3:2,0:0:0:0:
90,226,170047,2,0,P|99:264|95:294,1,48.750001859665,2|0,3:2|0:2,0:0:0:0:
44,346,170347,2,0,P|83:323|174:352,1,130,10|4,0:2|0:3,0:0:0:0:
238,300,170797,1,4,0:3:0:0:
238,300,170872,1,4,0:3:0:0:
238,300,170947,1,14,0:2:0:0:
474,190,171397,5,0,3:3:0:0:
474,190,171472,1,0,3:3:0:0:
474,190,171547,2,0,P|464:140|459:114,1,65,10|8,0:2|0:2,0:0:0:0:
376,167,171847,2,0,P|370:199|364:231,1,65,8|8,0:2|0:2,0:0:0:0:
284,276,172147,5,6,3:2:0:0:
221,216,172297,2,0,B|150:198|150:198|62:234,1,149.500002851486,2|2,0:2|0:2,0:0:0:0:
0,119,172747,2,0,B|71:137|71:137|159:101,1,149.500002851486,2|10,3:2|0:2,0:0:0:0:
223,67,173197,1,2,0:2:0:0:
308,116,173347,2,0,L|317:202,1,74.7500014257431,2|0,3:2|0:2,0:0:0:0:
403,141,173647,2,0,L|394:55,1,74.7500014257431,10|0,0:2|0:2,0:0:0:0:
491,95,173947,2,0,B|517:139|517:139|492:247,1,149.500002851486,2|12,3:2|0:2,0:0:0:0:
296,369,174547,5,2,3:2:0:0:
359,304,174697,2,0,P|395:292|493:357,1,149.500002851486,2|2,0:2|0:2,0:0:0:0:
296,369,175147,2,0,P|260:355|141:319,1,149.500002851486,2|10,3:2|0:2,0:0:0:0:
48,132,175747,6,0,P|96:121|133:108,1,74.7500014257431,6|8,3:2|0:2,0:0:0:0:
120,112,175972,1,8,0:2:0:0:
120,112,176047,2,0,P|170:115|208:122,1,74.7500014257431,8|8,0:2|0:2,0:0:0:0:
232,30,176347,2,0,P|276:40|319:42,1,74.7500014257431,10|0,0:2|3:2,0:0:0:0:
424,54,176647,1,8,0:3:0:0:
424,54,176722,1,8,0:3:0:0:
424,54,176797,1,4,0:3:0:0:
424,54,176872,1,4,0:3:0:0:
424,54,176947,6,0,B|457:92|489:139|451:214|451:214|418:198|373:205,2,224.250004277229,6|2|8,3:2|0:2|0:2,0:0:0:0:
345,95,177997,1,2,0:2:0:0:
264,63,178147,2,0,P|226:56|182:49,1,74.7500014257431,0|2,3:2|0:2,0:0:0:0:
119,111,178447,1,10,0:2:0:0:
119,111,178597,1,0,0:2:0:0:
35,87,178747,2,0,P|25:127|12:172,1,74.7500014257431,2|2,3:2|2:2,0:0:0:0:
88,216,179047,2,0,P|98:252|108:289,1,74.7500014257431,10|0,0:2|0:2,0:0:0:0:
50,360,179347,6,0,P|103:328|191:360,1,149.500002851486,2|8,3:2|0:2,0:0:0:0:
255,288,179797,2,0,P|307:309|391:252,2,149.500002851486,2|2|2,0:2|0:2|0:2,0:0:0:0:
285,200,180547,2,0,L|287:104,1,74.7500014257431,0|2,3:2|0:2,0:0:0:0:
196,145,180847,2,0,L|194:241,1,74.7500014257431,10|0,0:2|3:2,0:0:0:0:
121,268,181147,1,0,3:2:0:0:
121,268,181297,1,2,0:2:0:0:
49,215,181447,2,0,P|40:176|51:136,1,74.7500014257431,14|0,0:2|0:2,0:0:0:0:
24,51,181747,6,0,P|77:36|121:47,1,74.7500014257431,2|2,3:2|0:2,0:0:0:0:
188,27,182047,2,0,P|237:40|274:34,1,74.7500014257431,10|0,0:2|0:2,0:0:0:0:
344,92,182347,2,0,P|406:65|483:104,1,149.500002851486,2|10,3:2|0:2,0:0:0:0:
472,193,182797,2,0,P|410:220|333:181,1,149.500002851486,2|0,0:2|3:2,0:0:0:0:
258,232,183247,2,0,L|267:326,1,74.7500014257431,10|0,0:2|0:2,0:0:0:0:
194,372,183547,1,2,3:2:0:0:
194,372,183697,1,0,0:2:0:0:
120,320,183847,2,0,P|71:313|31:327,1,74.7500014257431,10|2,0:2|0:2,0:0:0:0:
176,247,184147,6,0,P|171:190|169:144,1,74.7500014257431,6|0,3:2|0:2,0:0:0:0:
253,120,184447,2,0,P|258:177|260:223,1,74.7500014257431,10|0,0:2|0:2,0:0:0:0:
336,246,184747,1,2,3:2:0:0:
416,197,184897,1,0,0:2:0:0:
489,258,185047,2,0,P|505:304|503:342,1,74.7500014257431,10|2,0:2|0:2,0:0:0:0:
416,197,185347,6,0,L|425:37,2,149.500002851486,2|0|8,3:2|3:2|0:2,0:0:0:0:
331,144,186097,2,0,L|322:293,1,149.500002851486,10|8,0:2|0:2,0:0:0:0:
245,353,186547,6,0,P|195:365|151:346,1,74.7500014257431,6|0,3:2|0:2,0:0:0:0:
152,341,186772,1,2,0:0:0:0:
152,341,186847,2,0,P|116:329|79:332,1,74.7500014257431,8|0,0:2|0:2,0:0:0:0:
24,234,187147,2,0,P|14:196|24:150,1,74.7500014257431,2|0,3:2|0:2,0:0:0:0:
103,91,187447,2,0,B|138:100|138:100|186:87,1,74.7500014257431,10|10,0:2|0:2,0:0:0:0:
206,76,187672,1,8,0:0:0:0:
206,76,187747,6,0,B|288:64|259:131|358:113,1,149.500002851486,2|8,3:2|0:2,0:0:0:0:
453,68,188197,2,0,P|436:121|438:157,1,74.7500014257431,2|0,0:2|3:2,0:0:0:0:
490,223,188497,1,2,0:2:0:0:
435,302,188647,2,0,P|376:294|344:287,1,74.7500014257431,14|0,0:2|0:0,0:0:0:0:
280,353,188947,6,0,P|224:324|130:341,1,162.5,6|8,3:2|0:2,0:0:0:0:
36,300,189397,1,8,0:2:0:0:
36,300,189472,1,8,0:2:0:0:
36,300,189547,2,0,P|45:248|48:211,1,81.25,2|0,3:2|3:2,0:0:0:0:
22,29,189847,2,0,P|13:81|10:118,1,81.25,10|2,0:2|0:2,0:0:0:0:
69,207,190147,6,0,B|123:227|123:227|239:196,1,162.5,2|8,3:2|0:2,0:0:0:0:
332,243,190597,2,0,B|319:262|298:278|298:278|214:214|278:102,1,224.250004277229,2|14,0:2|0:2,0:0:0:0:
320,41,191197,1,0,3:2:0:0:
320,41,191272,1,0,3:0:0:0:
320,41,191347,6,0,P|385:31|489:33,1,149.500002851486,2|8,3:1|0:2,0:0:0:0:
267,121,191797,2,0,P|202:131|98:129,1,149.500002851486,2|0,0:1|3:2,0:0:0:0:
331,196,192247,2,0,B|403:182|403:182|475:231,1,149.500002851486,10|0,2:1|0:2,0:0:0:0:
424,308,192697,1,2,0:1:0:0:
487,374,192847,1,10,0:1:0:0:
424,308,192997,2,0,P|377:293|284:345,1,149.500002851486,2|0,2:1|3:2,0:0:0:0:
205,293,193447,2,0,P|144:313|88:282,1,126.749994197846,10|0,0:1|0:1,0:0:0:0:
80,260,193747,6,0,L|89:197,2,56.3333307545981,6|2|2,3:2|0:2|0:2,0:0:0:0:
2,215,194047,2,0,L|11:152,2,56.3333307545981,10|2|2,0:2|0:2|0:2,0:0:0:0:
87,204,194347,2,0,L|96:141,2,56.3333307545981,2|2|2,3:2|0:2|0:2,0:0:0:0:
9,159,194647,2,0,L|18:96,2,56.3333307545981,10|2|2,0:2|0:2|0:2,0:0:0:0:
94,148,194947,6,0,B|135:150|168:133|168:133|189:160|189:160|223:147|267:162,1,168.999992263794,2|10,3:1|0:1,0:0:0:0:
333,100,195397,2,0,B|376:113|376:113|430:101,1,84.4999961318971,10|8,0:1|0:1,0:0:0:0:
483,45,195697,2,0,B|480:85|457:105|457:105|477:138|477:138|462:178,1,126.749994197846,10|8,0:1|0:1,0:0:0:0:
479,195,195997,2,0,L|494:267,1,42.2499980659486,8|8,0:1|0:1,0:1:0:0:
39,339,206947,5,2,0:2:0:0:
39,339,207097,2,0,P|34:275|20:174,1,146.250005578995,2|2,0:2|0:2,0:0:0:0:
105,114,207847,1,2,0:2:0:0:
184,199,208147,1,2,0:2:0:0:
184,199,208447,2,0,P|174:234|157:302,1,97.50000371933,2|0,0:2|0:2,0:0:0:0:
363,358,209347,5,2,0:2:0:0:
363,358,209497,2,0,P|402:339|503:372,1,146.250005578995,2|2,0:2|0:2,0:0:0:0:
432,240,210247,1,2,0:2:0:0:
328,282,210547,1,2,0:2:0:0:
328,282,210847,2,0,P|287:282|221:287,1,97.50000371933,2|0,0:2|0:2,0:0:0:0:
104,127,211747,6,0,P|139:153|245:91,1,175.499994644165,2|0,0:2|0:2,0:0:0:0:
361,52,212947,2,0,P|345:91|329:232,1,175.499994644165,2|0,0:2|0:2,0:0:0:0:
188,303,214147,2,0,B|154:309|128:290|128:290|96:350|31:345,1,175.499994644165,2|0,0:2|0:2,0:0:0:0:
243,99,215347,6,0,B|320:-10|455:53|455:53|427:80|428:112,1,292.50001115799,2|14,0:2|0:2,0:0:0:0:
496,261,216547,5,6,3:2:0:0:
432,203,216697,2,0,P|377:209|262:222,1,149.500002851486,2|2,0:2|0:2,0:0:0:0:
245,308,217147,2,0,P|319:299|393:291,1,149.500002851486,2|10,3:2|0:2,0:0:0:0:
195,233,217597,1,2,0:2:0:0:
195,233,217747,2,0,P|148:223|110:212,1,74.7500014257431,2|0,3:2|0:2,0:0:0:0:
89,303,218047,2,0,P|136:313|174:324,1,74.7500014257431,10|0,0:2|0:2,0:0:0:0:
27,235,218347,2,0,B|0:280|-11:313|-11:313|7:358|12:373,1,149.500002851486,2|12,3:2|0:2,0:0:0:0:
12,19,218947,5,6,0:2:0:0:
72,80,219097,2,0,B|146:103|136:47|238:77,1,149.500002851486,2|2,0:2|0:2,0:0:0:0:
324,31,219547,2,0,L|301:200,1,149.500002851486,2|10,3:2|0:2,0:0:0:0:
344,258,219997,1,2,0:2:0:0:
412,200,220147,2,0,P|418:150|405:114,1,74.7500014257431,2|0,3:2|0:2,0:0:0:0:
428,287,220447,2,0,P|468:317|505:323,1,74.7500014257431,10|0,0:2|0:2,0:0:0:0:
344,258,220747,2,0,P|297:279|214:370,1,149.500002851486,2|12,3:2|0:2,0:0:0:0:
25,166,221347,6,0,P|73:194|188:212,1,149.500002851486,6|8,3:2|0:2,0:0:0:0:
359,131,221947,2,0,P|315:120|269:120,1,74.7500014257431,2|0,3:2|0:2,0:0:0:0:
334,28,222247,2,0,L|415:39,1,74.7500014257431,10|0,0:2|0:2,0:0:0:0:
409,39,222472,1,0,1:2:0:0:
409,39,222547,2,0,P|452:82|432:188,1,149.500002851486,2|8,3:2|0:2,0:0:0:0:
331,365,223147,2,0,P|313:329|312:276,1,74.7500014257431,2|0,3:2|3:2,0:0:0:0:
381,230,223447,2,0,P|399:266|400:319,1,74.7500014257431,10|0,0:2|0:2,0:0:0:0:
309,295,223747,6,0,B|256:290|256:290|224:313|224:313|137:302,1,149.500002851486,6|8,3:2|0:2,0:0:0:0:
52,199,224197,2,0,P|83:220|188:163,1,149.500002851486,2|0,0:2|3:2,0:0:0:0:
119,52,224647,2,0,P|115:99|113:139,1,74.7500014257431,14|0,0:2|0:2,0:0:0:0:
260,212,224947,6,0,P|264:165|266:125,1,74.7500014257431,2|8,3:2|0:2,0:0:0:0:
333,74,225247,1,8,0:2:0:0:
416,124,225397,1,8,0:2:0:0:
416,124,225472,1,8,0:2:0:0:
416,124,225547,2,0,P|465:115|502:109,1,74.7500014257431,8|8,0:2|0:2,0:0:0:0:
478,206,225847,2,0,P|429:215|392:221,1,74.7500014257431,2|2,3:2|3:2,0:0:0:0:
404,219,226072,1,0,3:2:0:0:
404,219,226147,5,2,0:2:0:0:
355,298,226297,2,0,B|301:284|301:284|188:321,1,149.500002851486,2|2,0:2|0:2,0:0:0:0:
116,350,226747,2,0,P|131:286|61:219,1,149.500002851486,2|10,3:2|0:2,0:0:0:0:
12,274,227197,1,2,0:2:0:0:
123,146,227347,2,0,P|112:100|105:60,1,74.7500014257431,2|0,3:2|0:2,0:0:0:0:
5,62,227647,2,0,P|16:108|23:148,1,74.7500014257431,10|0,0:2|0:2,0:0:0:0:
189,35,227947,2,0,P|133:-10|62:0,1,149.500002851486,2|12,3:2|0:2,0:0:0:0:
317,175,228547,5,6,3:2:0:0:
371,103,228697,2,0,P|416:89|460:183,1,149.500002851486,2|2,0:2|0:2,0:0:0:0:
470,260,229147,2,0,B|402:226|393:305|303:292,1,149.500002851486,2|10,3:2|0:2,0:0:0:0:
258,353,229597,1,2,0:2:0:0:
174,307,229747,2,0,P|178:244|183:203,1,74.7500014257431,2|0,3:2|2:2,0:0:0:0:
93,280,230047,2,0,P|89:343|84:384,1,74.7500014257431,10|0,0:2|0:0,0:0:0:0:
31,213,230347,2,0,B|21:170|21:170|41:131|41:131|25:61,1,149.500002851486,2|12,3:2|0:2,0:0:0:0:
199,21,230947,6,0,P|193:68|187:107,1,74.7500014257431,2|0,3:2|0:2,0:0:0:0:
272,178,231247,2,0,P|278:131|284:92,1,74.7500014257431,8|0,0:2|0:2,0:0:0:0:
363,51,231547,2,0,P|411:42|457:38,1,74.7500014257431,0|0,3:2|0:2,0:0:0:0:
505,130,231847,2,0,P|457:139|411:143,1,74.7500014257431,8|0,0:2|0:2,0:0:0:0:
375,222,232147,6,0,P|367:264|371:313,1,74.7500014257431,2|0,3:2|0:2,0:0:0:0:
449,352,232447,2,0,P|457:310|453:261,1,74.7500014257431,8|0,0:2|0:2,0:0:0:0:
375,222,232747,2,0,L|272:233,1,74.7500014257431,0|0,3:2|0:2,0:0:0:0:
235,296,233047,2,0,L|161:289,1,74.7500014257431,8|0,0:2|0:2,0:0:0:0:
47,340,233347,6,0,P|73:293|2:143,1,224.250004277229,6|0,3:2|0:2,0:0:0:0:
48,58,233947,2,0,P|94:61|140:36,1,74.7500014257431,2|0,3:2|0:0,0:0:0:0:
262,126,234247,2,0,P|226:114|189:119,1,74.7500014257431,12|0,0:2|0:2,0:0:0:0:
328,197,234547,2,0,P|348:152|314:39,1,149.500002851486,2|8,3:2|0:2,0:0:0:0:
410,9,234997,1,8,0:2:0:0:
410,9,235072,1,8,0:2:0:0:
410,9,235147,2,0,L|494:2,1,74.7500014257431,8|4,0:3|0:3,0:0:0:0:
329,57,235447,2,0,B|300:70|280:74|280:74|254:53|204:52,1,112.125002138615,6|0,3:2|0:2,0:0:0:0:
199,69,235747,6,0,P|188:123|166:233,1,146.250005578995,2|0,3:2|3:2,0:0:0:0:
93,261,236347,2,0,P|112:307|126:353,1,97.50000371933,10|0,0:2|3:2,0:0:0:0:
211,369,236797,1,8,0:2:0:0:
211,369,236872,1,8,0:2:0:0:
211,369,236947,1,2,3:2:0:0:
284,317,237097,2,0,P|316:308|379:335,1,97.50000371933,10|2,0:2|3:2,0:0:0:0:
467,362,237547,2,0,L|475:249,1,97.50000371933,10|10,0:2|0:2,0:0:0:0:
512,184,237997,1,0,3:2:0:0:
512,184,238072,1,0,3:2:0:0:
512,184,238147,6,0,P|498:138|473:25,1,146.250005578995,2|0,3:2|3:2,0:0:0:0:
392,72,238747,2,0,P|382:111|362:175,1,97.50000371933,10|0,0:2|3:2,0:0:0:0:
294,216,239197,1,8,0:2:0:0:
294,216,239272,1,8,0:2:0:0:
294,216,239347,2,0,P|256:205|231:206,1,48.750001859665,2|2,3:2|3:2,0:0:0:0:
179,252,239647,2,0,P|141:263|116:262,1,48.750001859665,2|0,3:2|0:2,0:0:0:0:
50,234,239947,2,0,L|44:128,1,97.50000371933,10|0,0:2|3:2,0:0:0:0:
7,59,240397,1,0,3:2:0:0:
83,10,240547,6,0,P|120:-2|188:74,1,146.250005578995,6|0,3:2|3:2,0:0:0:0:
275,66,241147,2,0,P|307:85|369:67,1,97.50000371933,10|2,0:2|0:2,0:0:0:0:
450,111,241597,1,8,0:2:0:0:
450,111,241672,1,8,0:2:0:0:
450,111,241747,2,0,L|457:224,2,97.50000371933,2|0|8,3:2|3:0|0:2,0:0:0:0:
373,264,242647,1,2,3:2:0:0:
257,152,242947,6,0,P|203:133|193:130,1,48.750001859665,14|0,0:2|3:2,0:0:0:0:
222,256,243247,2,0,P|245:248|267:239,1,48.750001859665,0|8,0:0|0:2,0:0:0:0:
152,197,243547,2,0,P|139:230|118:306,1,97.50000371933,0|4,0:2|0:3,0:0:0:0:
169,377,243997,1,4,0:3:0:0:
97,277,244147,5,14,0:2:0:0:
76,256,244747,6,0,P|68:220|55:181,1,65,10|8,0:2|0:2,0:0:0:0:
165,84,245047,2,0,P|155:115|149:147,1,65,8|8,0:2|0:2,0:0:0:0:
220,220,245347,5,6,3:2:0:0:
250,131,245497,2,0,P|315:117|400:101,1,149.500002851486,2|2,0:2|0:2,0:0:0:0:
165,84,245947,2,0,P|91:70|18:54,1,149.500002851486,2|10,3:2|0:2,0:0:0:0:
66,155,246397,1,2,0:2:0:0:
165,84,246547,2,0,P|176:31|173:5,1,74.7500014257431,2|0,3:2|0:2,0:0:0:0:
250,131,246847,2,0,P|249:168|259:204,1,74.7500014257431,10|0,0:2|0:2,0:0:0:0:
342,264,247147,2,0,B|417:241|406:308|496:284,1,149.500002851486,2|12,3:2|0:2,0:0:0:0:
184,375,247747,5,6,3:2:0:0:
113,319,247897,2,0,B|60:287|5:310|5:310|42:331,1,149.500002851486,2|2,0:2|0:2,0:0:0:0:
195,284,248347,2,0,P|184:237|176:200,1,74.7500014257431,2|0,3:2|0:2,0:0:0:0:
273,220,248647,2,0,P|262:173|254:136,1,74.7500014257431,10|0,0:2|0:2,0:0:0:0:
256,147,248872,1,0,3:0:0:0:
256,147,248947,6,0,P|268:107|299:85,1,74.7500014257431,2|8,3:2|0:2,0:0:0:0:
385,89,249247,2,8,P|413:119|417:157,1,74.7500014257431,10|8,0:2|0:2,0:0:0:0:
371,229,249547,2,8,P|330:238|295:223,1,74.7500014257431,2|8,3:2|2:3,0:0:0:0:
219,281,249847,1,4,0:3:0:0:
219,281,249922,1,4,0:3:0:0:
219,281,249997,1,4,0:3:0:0:
219,281,250072,1,4,0:3:0:0:
219,281,250147,6,0,P|187:265|88:312,1,130,6|8,3:2|0:2,0:0:0:0:
29,223,250597,2,0,L|37:143,1,65,2|0,0:2|3:2,0:0:0:0:
128,105,250897,2,0,L|120:185,2,65,2|8|2,0:2|0:2|0:2,0:0:0:0:
203,47,251347,1,2,3:2:0:0:
273,101,251497,2,0,P|333:123|400:75,3,130,2|2|2|2,0:2|0:2|0:2|0:2,0:0:0:0:
476,143,252547,6,0,P|494:187|476:289,1,130,4|8,3:2|0:2,0:0:0:0:
424,337,252997,1,2,0:2:0:0:
424,337,253072,1,2,0:2:0:0:
424,337,253147,2,0,P|370:324|326:346,2,97.5,2|2|2,3:2|0:2|0:2,0:0:0:0:
312,254,253747,2,0,P|263:252|224:261,1,65,2|0,3:2|0:0,0:0:0:0:
171,304,254047,1,10,0:2:0:0:
171,304,254197,2,0,P|122:306|105:178,1,195,2|14,0:2|0:2,0:0:0:0:
248,64,254947,6,0,P|242:101|236:145,1,65,6|0,3:2|0:2,0:0:0:0:
319,242,255247,1,10,0:2:0:0:
319,242,255397,2,0,P|325:205|338:94,1,130,2|2,0:2|0:2,0:0:0:0:
422,58,255847,2,0,P|431:107|454:192,1,130,10|0,0:2|3:2,0:0:0:0:
488,277,256297,2,0,P|454:289|408:376,1,130,2|8,0:2|0:2,0:0:0:0:
322,338,256747,2,0,P|286:328|238:316,1,65,2|0,3:2|0:2,0:0:0:0:
91,365,257047,2,0,P|128:382|187:337,1,97.5,12|0,0:2|0:2,0:0:0:0:
174,330,257347,6,0,P|168:263|160:191,1,130,6|8,3:2|0:2,0:0:0:0:
256,106,257797,2,0,P|262:173|270:245,1,130,2|0,0:2|0:2,0:0:0:0:
360,277,258247,2,0,P|401:259|434:259,1,65,10|0,0:2|0:2,0:0:0:0:
511,299,258547,5,2,3:2:0:0:
511,299,258697,1,0,3:2:0:0:
427,228,258847,2,0,L|436:108,1,97.5,14|0,0:2|0:0,0:0:0:0:
455,105,259147,1,2,3:2:0:0:
401,28,259297,1,8,0:2:0:0:
325,98,259447,2,0,P|282:108|253:102,1,65,12|0,0:2|0:0,0:0:0:0:
184,52,259747,5,6,3:2:0:0:
112,115,259897,2,0,P|123:192|126:275,1,149.500002851486,2|2,0:2|0:2,0:0:0:0:
40,314,260347,2,0,P|29:237|26:154,1,149.500002851486,2|10,3:2|0:2,0:0:0:0:
97,99,260797,1,2,0:2:0:0:
192,156,260947,2,0,P|240:165|284:169,1,74.7500014257431,2|0,3:2|0:2,0:0:0:0:
355,117,261247,2,0,P|403:108|447:104,1,74.7500014257431,10|0,0:2|0:2,0:0:0:0:
508,170,261547,2,0,P|486:232|420:231,1,112.125002138615,2|0,3:2|0:2,0:0:0:0:
425,266,261847,2,0,P|379:261|342:277,1,74.7500014257431,12|0,0:2|0:2,0:0:0:0:
279,343,262147,5,2,3:2:0:0:
181,293,262297,2,0,L|198:129,1,149.500002851486,2|2,0:2|0:2,0:0:0:0:
281,80,262747,2,0,P|291:145|300:182,1,74.7500014257431,2|0,3:2|0:2,0:0:0:0:
389,157,263047,2,0,P|399:92|408:55,1,74.7500014257431,10|0,0:2|0:2,0:0:0:0:
485,12,263347,6,0,P|496:57|505:87,1,74.7500014257431,2|0,3:2|0:2,0:0:0:0:
397,165,263647,2,0,P|360:156|324:145,1,74.7500014257431,10|8,0:2|0:2,0:0:0:0:
324,145,263872,1,8,0:2:0:0:
324,145,263947,2,0,P|276:157|245:169,1,74.7500014257431,6|8,3:2|0:2,0:0:0:0:
94,208,264247,2,0,P|129:221|166:230,1,74.7500014257431,8|8,0:2|0:2,0:0:0:0:
166,230,265147,5,6,3:2:0:0:
256,192,265222,12,0,267697,0:2:0:0:
