osu file format v14

[General]
AudioFilename: audio.mp3
AudioLeadIn: 0
PreviewTime: 194178
Countdown: 0
SampleSet: Soft
StackLeniency: 0.4
Mode: 0
LetterboxInBreaks: 0
WidescreenStoryboard: 1

[Editor]
DistanceSpacing: 2
BeatDivisor: 4
GridSize: 4
TimelineZoom: 1.8

[Metadata]
Title:Heart no Shuchou
TitleUnicode:ハートの主張
Artist:CHiCO with HoneyWorks
ArtistUnicode:CHiCO with HoneyWorks
Creator:sanairrt
Version:Kowari's Confession
Source:
Tags:Kowari zan zan1to Serizawa Haruki jack j_a_c_k Chihara Minori Time Capsule japanese pop j-pop Sekai wa i ni Michiteiru 世界はiに満ちている
BeatmapID:2403946
BeatmapSetID:1143852

[Difficulty]
HPDrainRate:6
CircleSize:4
OverallDifficulty:8.5
ApproachRate:9.2
SliderMultiplier:1.7
SliderTickRate:1

[Events]
//Background and Video events
0,0,"This is BG.jpg",0,0
//Break Periods
2,141919,151527
//Storyboard Layer 0 (Background)
//Storyboard Layer 1 (Fail)
//Storyboard Layer 2 (Pass)
//Storyboard Layer 3 (Foreground)
//Storyboard Layer 4 (Overlay)
//Storyboard Sound Samples

[TimingPoints]
314,324.324324324324,4,2,1,40,1,0
314,-142.857142857143,4,2,1,40,0,0
4854,-142.857142857143,4,2,1,70,0,0
5341,-100,4,2,1,60,0,0
18476,-125,4,2,1,50,0,0
23016,-125,4,2,1,70,0,0
23503,-100,4,2,1,60,0,0
28854,-125,4,2,1,50,0,0
33395,-125,4,2,1,60,0,0
33881,-100,4,2,1,60,0,0
39232,-125,4,2,1,50,0,0
47016,-125,4,2,1,60,0,0
49611,-100,4,2,1,60,0,0
53341,-90.9090909090909,4,2,1,70,0,1
71503,-100,4,2,1,60,0,0
80746,-125,4,2,1,50,0,0
85286,-125,4,2,1,70,0,0
85773,-100,4,2,1,60,0,0
91124,-125,4,2,1,50,0,0
95665,-125,4,2,1,60,0,0
96151,-100,4,2,1,60,0,0
101503,-125,4,2,1,50,0,0
109286,-100,4,2,1,60,0,0
115611,-90.9090909090909,4,2,1,70,0,1
133854,-90.9090909090909,4,2,1,5,0,1
133935,-100,4,2,1,60,0,0
135070,-111.111111111111,4,2,1,60,0,0
141719,-111.111111111111,4,2,1,40,0,0
152097,-142.857142857143,4,2,1,50,0,0
161827,-333.333333333334,4,2,1,50,0,0
162394,-333.333333333334,4,2,1,5,0,0
162476,-100,4,2,1,60,0,0
180638,-125,4,2,1,50,0,0
188422,-125,4,2,1,60,0,0
190692,-100,4,2,1,60,0,0
194746,-90.9090909090909,4,2,1,70,0,1
220854,-125,4,2,1,50,0,0
221016,-125,4,2,1,40,0,0
221178,-125,4,2,1,50,0,0
221340,-125,4,2,1,40,0,0
221503,-125,4,2,1,50,0,0
221665,-125,4,2,1,40,0,0
221827,-125,4,2,1,50,0,0
223530,-125,4,2,1,40,0,0
226530,-125,4,2,1,20,0,0

[Colours]
Combo1 : 255,43,43
Combo2 : 255,128,128
Combo3 : 255,149,98
Combo4 : 255,255,130

[HitObjects]
401,315,314,6,0,P|307:328|266:335,2,118.999996368408,2|0|2,0:2|0:0|0:2,0:0:0:0:
460,241,1124,1,2,0:2:0:0:
460,241,1286,1,2,0:2:0:0:
388,139,1449,6,0,P|354:130|315:131,1,59.4999981842042,2|0,0:2|0:0,0:0:0:0:
234,127,1773,2,0,P|227:91|222:52,1,59.4999981842042,2|0,0:2|0:0,0:0:0:0:
138,24,2097,1,2,0:2:0:0:
138,24,2259,1,2,0:2:0:0:
53,69,2422,2,0,P|48:98|42:127,1,59.4999981842042,2|0,0:2|0:0,0:0:0:0:
21,238,2746,6,0,P|0:292|26:360,1,118.999996368408,2|0,0:2|0:0,0:0:0:0:
111,354,3232,2,0,P|160:345|179:342,1,59.4999981842042
197,235,3557,1,2,0:2:0:0:
197,235,3719,2,0,P|167:230|139:221,1,59.4999981842042,2|2,0:2|0:2,0:0:0:0:
178,88,4043,6,0,B|251:82|223:126|305:113,2,118.999996368408,2|2|2,0:2|0:2|0:2,0:0:0:0:
311,3,4854,5,8,0:2:0:0:
360,214,5016,1,10,0:2:0:0:
360,214,5341,6,0,B|461:195|461:195|496:212|504:258,1,170,6|0,1:2|1:0,0:0:0:0:
350,356,5827,2,0,P|271:342|246:337,1,85,8|0,0:2|0:0,0:0:0:0:
132,210,6151,1,2,1:2:0:0:
318,223,6313,1,2,1:2:0:0:
164,331,6476,1,10,0:2:0:0:
252,116,6638,6,0,P|345:72|422:104,1,170,6|0,1:2|1:2,0:0:0:0:
346,271,7124,2,0,P|330:188|323:159,1,85,8|0,0:2|0:0,0:0:0:0:
293,3,7449,1,2,1:2:0:0:
194,161,7611,1,2,1:2:0:0:
371,102,7773,1,10,0:2:0:0:
163,20,7935,6,0,B|52:10|103:65|-17:44,1,170,6|0,1:2|1:2,0:0:0:0:
126,207,8422,2,0,B|140:166|140:166|130:119,1,85,8|2,0:2|0:2,0:0:0:0:
2,251,8746,1,2,1:2:0:0:
100,364,8908,1,10,0:2:0:0:
100,364,8989,1,8,0:2:0:0:
100,364,9070,1,8,0:2:0:0:
254,198,9232,6,0,B|361:184|361:184|387:220|423:224,1,170,6|2,1:2|1:2,0:0:0:0:
498,49,9719,2,0,P|441:38|404:33,1,85,10|0,0:2|0:0,0:0:0:0:
228,119,10043,1,2,1:2:0:0:
430,137,10205,1,2,1:2:0:0:
271,6,10368,1,8,0:2:0:0:
268,272,10530,6,0,P|205:303|112:278,1,170,2|2,1:2|1:2,0:0:0:0:
22,95,11016,2,0,P|83:86|119:82,1,85,10|0,0:2|0:0,0:0:0:0:
310,69,11341,1,2,1:2:0:0:
141,183,11503,1,2,1:2:0:0:
236,3,11665,1,8,0:2:0:0:
397,172,11827,6,0,B|360:283|360:283|397:330,1,170,2|2,1:2|1:2,0:0:0:0:
466,103,12313,2,0,P|413:75|370:81,1,85,10|0,0:2|0:0,0:0:0:0:
262,236,12638,1,2,1:2:0:0:
243,33,12800,1,2,1:2:0:0:
374,188,12962,1,8,0:2:0:0:
171,169,13124,6,0,B|114:163|114:163|69:191|69:191|1:185,1,170,2|2,1:2|1:2,0:0:0:0:
179,71,13611,1,10,0:2:0:0:
211,272,13773,2,0,P|201:313|192:354,1,85,2|2,0:2|1:2,0:0:0:0:
368,198,14097,2,0,P|358:156|349:115,1,85,2|10,1:2|0:2,0:0:0:0:
470,292,14422,5,2,3:2:0:0:
470,292,14503,1,0,3:2:0:0:
470,292,14584,1,0,3:2:0:0:
278,214,14746,1,0,1:2:0:0:
417,20,14908,2,0,B|455:8|455:8|500:20,1,85,14|0,0:2|0:0,0:0:0:0:
370,220,15232,1,2,1:2:0:0:
261,39,15395,2,0,P|214:28|162:43,1,85,2|8,1:2|0:2,0:0:0:0:
68,221,15719,6,0,B|81:281|81:281|61:328|61:328|77:390,1,170,6|2,1:2|1:2,0:0:0:0:
222,242,16205,2,0,P|225:195|207:153,1,85,10|0,0:2|0:0,0:0:0:0:
7,141,16530,1,2,1:2:0:0:
122,309,16692,1,2,1:2:0:0:
139,105,16854,1,8,0:2:0:0:
275,310,17016,6,0,B|373:295|373:295|399:327|451:324,1,170,6|2,1:2|1:2,0:0:0:0:
505,131,17503,1,10,0:2:0:0:
301,114,17665,1,0,3:2:0:0:
301,114,17746,1,0,3:2:0:0:
301,114,17827,2,0,P|314:171|323:210,1,85,2|2,3:2|1:2,0:0:0:0:
435,324,18151,2,0,P|448:267|457:228,1,85,8|2,0:2|0:2,0:0:0:0:
281,342,18476,6,0,B|203:343|241:296|136:293,2,136,6|0|2,1:2|1:2|1:2,0:0:0:0:
379,297,19286,1,0,0:0:0:0:
387,187,19449,1,2,1:2:0:0:
282,155,19611,6,0,P|233:138|152:177,1,136,2|0,0:2|0:0,0:0:0:0:
59,217,20097,2,0,P|50:178|54:137,1,68,0|0,1:2|0:0,0:0:0:0:
100,52,20422,2,0,P|136:59|175:65,1,68,2|2,1:2|0:2,0:0:0:0:
259,7,20746,1,2,1:2:0:0:
335,83,20908,6,0,B|314:173|314:173|360:214,1,136,2|0,0:2|0:0,0:0:0:0:
428,274,21395,2,0,P|465:262|500:265,1,68,0|0,1:2|0:0,0:0:0:0:
363,361,21719,2,0,P|307:351|276:348,1,68,2|2,1:2|0:2,0:0:0:0:
187,360,22043,1,2,1:2:0:0:
126,269,22205,6,0,P|112:211|145:136,1,136,2|0,0:2|0:0,0:0:0:0:
227,77,22692,2,0,P|278:88|304:93,1,68,2|0,1:2|0:0,0:0:0:0:
146,20,23016,5,10,0:2:0:0:
235,218,23178,1,10,0:2:0:0:
235,218,23503,6,0,B|337:200|337:200|378:221|369:268,1,170,6|2,1:2|1:2,0:0:0:0:
238,364,23989,2,0,P|186:369|145:358,1,85,10|0,0:2|0:0,0:0:0:0:
28,227,24313,1,2,1:2:0:0:
188,284,24476,1,2,1:2:0:0:
30,346,24638,1,8,0:2:0:0:
125,163,24800,6,0,B|118:107|118:107|140:64|140:64|131:-14,1,170,2|0,1:2|1:2,0:0:0:0:
248,167,25286,2,0,P|299:176|343:166,1,85,10|0,0:2|0:0,0:0:0:0:
475,62,25611,1,2,1:2:0:0:
445,243,25773,1,2,1:2:0:0:
354,63,25935,1,8,0:2:0:0:
344,268,26097,6,0,B|240:258|281:318|171:297,1,170,2|2,1:2|1:2,0:0:0:0:
53,185,26584,1,10,0:2:0:0:
202,99,26746,1,0,0:0:0:0:
202,99,26827,1,0,0:0:0:0:
202,99,26908,2,0,P|222:146|201:198,1,85,2|2,1:2|1:2,0:0:0:0:
67,54,27232,1,8,0:2:0:0:
294,18,27395,6,0,P|407:8|478:3,1,170,2|0,1:2|1:2,0:0:0:0:
386,155,27881,2,0,P|339:157|294:141,1,85,8|2,0:2|0:2,0:0:0:0:
188,57,28205,1,2,1:2:0:0:
155,198,28368,1,2,1:2:0:0:
38,112,28530,2,0,B|27:71|27:71|41:28,1,85,10|2,0:2|0:2,0:0:0:0:
155,198,28854,6,0,B|169:280|169:280|122:319,2,136,6|0|2,1:2|1:2|1:2,0:0:0:0:
248,117,29665,1,2,0:2:0:0:
248,117,29827,1,2,1:2:0:0:
339,198,29989,1,2,0:2:0:0:
339,198,30070,1,2,0:0:0:0:
339,198,30151,6,0,P|349:238|342:272,1,68,0|0,1:2|0:0,0:0:0:0:
461,302,30476,2,0,P|457:268|466:236,1,68,0|0,1:2|0:0,0:0:0:0:
506,120,30800,1,2,1:2:0:0:
506,120,30962,2,0,P|458:111|434:108,1,68,2|2,0:2|1:2,0:0:0:0:
320,15,31286,6,0,P|245:25|176:34,1,136,2|0,0:2|0:0,0:0:0:0:
63,53,31773,2,0,P|52:90|59:127,1,68,0|0,1:2|0:0,0:0:0:0:
167,169,32097,1,2,1:2:0:0:
167,169,32259,2,0,P|212:177|248:183,1,68,2|2,0:2|1:2,0:0:0:0:
307,279,32584,1,2,0:2:0:0:
307,279,33395,5,10,0:2:0:0:
167,169,33557,1,2,1:2:0:0:
373,196,33719,1,10,0:2:0:0:
244,362,33881,6,0,B|144:341|144:341|111:369|68:372,1,170,6|2,1:2|1:2,0:0:0:0:
7,217,34368,1,10,0:2:0:0:
162,148,34530,1,0,0:0:0:0:
162,148,34611,1,0,0:0:0:0:
162,148,34692,2,0,P|172:199|159:242,1,85,2|2,1:2|1:2,0:0:0:0:
54,101,35016,1,8,0:2:0:0:
246,0,35178,6,0,B|317:-4|317:-4|345:22|345:22|425:20,1,170,2|0,1:2|1:2,0:0:0:0:
497,153,35665,1,10,0:2:0:0:
348,228,35827,1,0,0:0:0:0:
348,228,35908,1,0,0:0:0:0:
348,228,35989,2,0,B|331:183|331:183|346:129,1,85,2|2,1:2|1:2,0:0:0:0:
483,264,36313,1,8,0:2:0:0:
307,381,36476,6,0,B|200:394|256:325|122:341,1,170,2|2,1:2|1:2,0:0:0:0:
0,379,36962,1,10,0:2:0:0:
70,228,37124,1,0,0:0:0:0:
70,228,37205,1,0,0:0:0:0:
70,228,37286,2,0,P|62:162|57:128,1,85,2|2,1:2|1:2,0:0:0:0:
207,229,37611,1,8,0:2:0:0:
201,59,37773,5,2,1:2:0:0:
201,59,37854,1,0,0:0:0:0:
201,59,37935,2,0,P|255:46|291:58,1,85,0|0,0:0|1:2,0:0:0:0:
364,201,38259,1,8,0:2:0:0:
466,64,38422,1,2,0:2:0:0:
466,64,38503,1,0,0:0:0:0:
466,64,38584,5,2,1:2:0:0:
308,127,38746,1,2,1:2:0:0:
462,197,38908,1,10,0:2:0:0:
309,272,39070,1,2,0:2:0:0:
496,358,39232,6,0,P|501:325|495:292,1,68,6|0,1:2|0:0,0:0:0:0:
395,297,39557,2,0,P|390:330|397:364,1,68,2|0,1:2|0:0,0:0:0:0:
272,331,39881,2,0,P|215:322|128:312,1,136,2|2,1:2|1:2,0:0:0:0:
64,210,40368,1,0,0:0:0:0:
64,210,40449,1,0,0:0:0:0:
64,210,40530,6,0,P|98:175|129:166,1,68,2|0,1:2|0:0,0:0:0:0:
98,74,40854,2,0,P|146:73|175:88,1,68,0|0,1:2|0:0,0:0:0:0:
246,127,41178,2,0,P|262:79|270:42,1,68,2|0,1:2|0:0,0:0:0:0:
342,4,41503,2,0,P|350:36|362:68,1,68,2|0,1:2|0:0,0:0:0:0:
369,197,41827,6,0,P|411:161|500:185,1,136,10|0,3:3|3:2,0:0:0:0:
417,290,42313,1,0,3:2:0:0:
315,273,42476,2,0,P|265:256|240:251,1,68,2|0,1:2|0:0,0:0:0:0:
199,172,42800,2,0,P|231:163|263:151,1,68,2|0,1:2|0:0,0:0:0:0:
298,20,43124,5,2,1:2:0:0:
298,20,43205,1,8,0:2:0:0:
298,20,43286,2,0,L|247:12,1,34,8|8,0:2|0:2,0:0:0:0:
186,0,43449,2,0,P|112:11|22:23,1,136,0|0,1:2|1:2,0:0:0:0:
10,217,43935,1,8,0:2:0:0:
179,128,44097,1,0,1:2:0:0:
29,109,44259,1,8,0:2:0:0:
150,260,44422,6,0,P|169:309|129:393,1,136,6|0,1:2|1:2,0:0:0:0:
62,272,44908,1,0,0:0:0:0:
222,198,45070,2,0,B|301:183|301:183|333:207|335:236,1,136,2|0,1:2|1:2,0:0:0:0:
481,327,45557,1,0,0:0:0:0:
481,327,45638,1,0,0:0:0:0:
481,327,45719,6,0,P|506:281|510:248,1,68,2|0,1:2|0:0,0:0:0:0:
428,231,46043,2,0,P|413:180|392:154,1,68,0|0,1:2|0:0,0:0:0:0:
284,115,46368,1,2,1:2:0:0:
284,115,46530,1,0,0:0:0:0:
382,20,46692,2,0,P|439:32|466:38,1,68,0|0,1:2|0:0,0:0:0:0:
337,206,47016,5,2,1:2:0:0:
203,58,47178,1,8,0:2:0:0:
382,20,47341,1,0,1:2:0:0:
182,66,47503,1,8,0:2:0:0:
349,198,47665,5,2,1:2:0:0:
102,293,47827,1,8,0:2:0:0:
353,342,47989,1,0,1:2:0:0:
182,151,48151,1,8,0:2:0:0:
266,384,48313,5,2,1:2:0:0:
444,210,48476,1,8,0:2:0:0:
444,210,48557,1,8,0:2:0:0:
444,210,48638,1,8,0:2:0:0:
195,261,48800,1,8,0:2:0:0:
195,261,48881,1,8,0:2:0:0:
195,261,48962,1,10,0:2:0:0:
383,363,49124,1,10,0:2:0:0:
367,130,49286,2,0,P|357:89|348:49,1,68,10|2,0:2|0:2,0:0:0:0:
174,363,49611,6,0,B|132:374|132:374|73:343,1,85,6|8,1:2|0:2,0:0:0:0:
72,285,49854,1,8,0:2:0:0:
72,285,49935,2,0,P|79:232|85:185,1,85,8|8,0:2|0:2,0:0:0:0:
96,126,50178,1,8,0:2:0:0:
96,126,50259,1,10,0:2:0:0:
180,60,50422,1,10,0:2:0:0:
222,57,50503,1,8,0:2:0:0:
261,75,50584,1,10,0:2:0:0:
286,109,50665,1,8,0:2:0:0:
292,151,50746,1,10,0:2:0:0:
278,190,50827,1,8,0:2:0:0:
247,219,50908,1,10,0:2:0:0:
256,192,50989,12,0,52530,0:0:0:0:
54,346,52854,6,0,L|41:282,1,42.5,2|0,0:2|0:0,0:0:0:0:
121,215,53016,1,2,1:2:0:0:
121,215,53097,1,0,0:0:0:0:
121,215,53178,2,0,L|130:163,1,42.5,2|0,1:2|0:0,0:0:0:0:
161,47,53341,6,0,B|273:29|273:29|324:68|279:129,1,187.000005706787,6|0,1:2|1:2,0:0:0:0:
121,215,53827,2,0,P|98:162|109:111,1,93.5000028533936,8|0,0:2|1:2,0:0:0:0:
285,256,54151,1,2,1:2:0:0:
79,346,54313,1,0,1:2:0:0:
197,154,54476,1,10,0:2:0:0:
235,374,54638,6,0,P|318:363|363:359,1,93.5000028533936,2|0,1:2|0:0,0:0:0:0:
434,164,54962,2,0,B|389:147|389:147|334:171,1,93.5000028533936,2|8,1:2|0:2,0:0:0:0:
167,298,55286,1,2,1:2:0:0:
167,298,55368,1,0,1:2:0:0:
167,298,55449,1,2,1:2:0:0:
389,272,55611,1,2,1:2:0:0:
200,151,55773,1,8,0:2:0:0:
329,372,55935,6,0,B|435:392|394:302|531:332,1,187.000005706787,2|0,1:2|1:2,0:0:0:0:
360,152,56422,2,0,P|355:219|351:261,1,93.5000028533936,8|0,0:2|1:2,0:0:0:0:
352,245,56665,1,0,1:2:0:0:
352,245,56746,1,2,1:2:0:0:
277,34,56908,1,2,1:2:0:0:
473,142,57070,1,10,0:2:0:0:
244,247,57232,6,0,P|190:266|140:251,1,93.5000028533936,2|0,1:2|0:0,0:0:0:0:
68,51,57557,2,0,P|122:32|172:47,1,93.5000028533936,2|8,1:2|0:2,0:0:0:0:
338,168,57881,1,2,1:2:0:0:
338,168,57962,1,0,1:2:0:0:
338,168,58043,1,0,1:2:0:0:
115,137,58205,1,2,1:2:0:0:
312,28,58368,1,10,0:2:0:0:
235,238,58530,1,2,1:2:0:0:
169,23,58692,5,0,1:2:0:0:
243,254,58854,1,0,1:2:0:0:
414,97,59016,2,0,B|433:53|433:53|420:1,1,93.5000028533936,12|0,0:2|0:0,0:0:0:0:
240,154,59341,1,2,1:2:0:0:
441,253,59503,1,2,1:2:0:0:
336,45,59665,1,10,0:2:0:0:
308,313,59827,6,0,B|247:303|247:303|195:326|195:326|118:315,1,187.000005706787,6|0,1:2|1:2,0:0:0:0:
63,101,60313,2,0,P|111:84|161:97,1,93.5000028533936,8|0,0:2|0:0,0:0:0:0:
326,234,60638,1,2,1:2:0:0:
103,206,60800,1,2,1:2:0:0:
295,91,60962,1,10,0:2:0:0:
228,316,61124,6,0,P|218:248|213:215,1,93.5000028533936,6|0,1:2|0:0,0:0:0:0:
182,0,61449,1,0,1:2:0:0:
374,114,61611,1,8,0:2:0:0:
157,110,61773,1,10,3:3:0:0:
157,110,61854,1,8,3:3:0:0:
157,110,61935,1,2,1:2:0:0:
305,3,62097,1,2,1:2:0:0:
205,177,62259,1,8,0:2:0:0:
76,9,62422,1,0,1:2:0:0:
76,9,62503,1,0,1:2:0:0:
76,9,62584,6,0,P|23:56|49:168,1,187.000005706787,6|8,1:2|0:2,0:0:0:0:
251,240,63070,1,0,0:0:0:0:
33,294,63232,1,2,1:2:0:0:
169,114,63395,1,2,1:2:0:0:
176,338,63557,1,10,0:2:0:0:
309,143,63719,6,0,B|357:130|357:130|404:146,1,93.5000028533936,2|0,1:2|0:0,0:0:0:0:
395,368,64043,2,0,P|353:361|297:354,1,93.5000028533936,2|8,1:2|0:2,0:0:0:0:
151,187,64368,1,2,1:2:0:0:
151,187,64449,1,0,1:2:0:0:
151,187,64530,1,2,1:2:0:0:
359,268,64692,1,2,1:2:0:0:
145,336,64854,1,8,0:2:0:0:
299,135,65016,6,0,B|423:113|423:113|369:166,1,187.000005706787,2|0,1:2|1:2,0:0:0:0:
220,315,65503,2,0,P|163:310|120:280,1,93.5000028533936,8|0,0:2|1:2,0:0:0:0:
132,292,65746,1,0,1:2:0:0:
132,292,65827,1,2,1:2:0:0:
65,78,65989,1,2,1:2:0:0:
244,212,66151,1,10,0:2:0:0:
5,304,66313,6,0,P|12:258|19:212,1,93.5000028533936,2|0,1:2|0:0,0:0:0:0:
163,38,66638,2,0,P|169:84|176:130,1,93.5000028533936,2|8,1:2|0:2,0:0:0:0:
338,285,66962,2,0,B|359:242|359:242|345:192,1,93.5000028533936,2|0,1:2|1:2,0:0:0:0:
242,0,67286,1,2,1:2:0:0:
231,225,67449,1,8,0:2:0:0:
366,46,67611,1,2,1:2:0:0:
158,131,67773,5,2,1:2:0:0:
363,219,67935,1,0,1:2:0:0:
146,318,68097,2,0,P|93:323|51:302,1,93.5000028533936,12|0,0:2|0:0,0:0:0:0:
236,154,68422,1,2,1:2:0:0:
305,367,68584,1,2,1:2:0:0:
120,239,68746,1,10,0:2:0:0:
332,84,68908,6,0,B|404:83|404:83|443:111|443:111|517:108,1,187.000005706787,6|0,1:2|1:2,0:0:0:0:
299,190,69395,1,8,0:2:0:0:
433,10,69557,1,0,1:2:0:0:
433,10,69638,1,0,1:2:0:0:
433,10,69719,1,2,1:2:0:0:
450,233,69881,1,2,1:2:0:0:
315,53,70043,1,10,0:2:0:0:
275,312,70205,6,0,P|198:348|98:286,1,187.000005706787,6|0,1:2|1:2,0:0:0:0:
89,82,70692,1,8,0:2:0:0:
190,259,70854,1,2,0:2:0:0:
6,212,71016,1,2,1:2:0:0:
216,125,71178,1,10,0:2:0:0:
216,125,71259,1,8,0:2:0:0:
216,125,71341,1,8,0:2:0:0:
277,350,71503,6,0,B|378:373|378:373|422:356|419:308,1,170,6|2,1:2|1:2,0:0:0:0:
292,186,71989,2,0,P|263:230|264:273,1,85,10|0,0:2|0:0,0:0:0:0:
430,182,72313,1,2,1:2:0:0:
263,94,72476,1,2,1:2:0:0:
354,257,72638,1,8,0:2:0:0:
398,53,72800,6,0,B|336:48|336:48|304:18|304:18|221:6,1,170,2|2,1:2|1:2,0:0:0:0:
110,142,73286,2,0,P|169:157|200:148,1,85,10|8,0:2|0:0,0:0:0:0:
191,151,73530,1,8,0:0:0:0:
191,151,73611,1,2,1:2:0:0:
24,68,73773,1,2,1:2:0:0:
89,243,73935,1,8,0:2:0:0:
242,80,74097,6,0,P|301:64|396:130,1,170,2|2,1:2|1:2,0:0:0:0:
274,265,74584,2,0,P|287:193|295:158,1,85,10|8,0:2|0:0,0:0:0:0:
289,181,74827,1,8,0:0:0:0:
289,181,74908,1,2,1:2:0:0:
202,346,75070,1,2,1:2:0:0:
369,263,75232,1,8,0:2:0:0:
183,152,75395,6,0,B|85:132|85:132|53:168|3:169,1,170,2|2,1:2|1:2,0:0:0:0:
177,57,75881,1,10,0:2:0:0:
250,228,76043,1,2,0:2:0:0:
250,228,76124,1,8,0:0:0:0:
250,228,76205,2,0,B|233:269|233:269|251:308,1,85,2|2,1:2|1:2,0:0:0:0:
328,134,76530,1,10,0:2:0:0:
155,205,76692,1,2,3:2:0:0:
334,260,76854,5,0,3:2:0:0:
206,108,77016,1,0,1:2:0:0:
407,17,77178,2,0,P|423:65|411:109,1,85,14|0,0:2|0:0,0:0:0:0:
257,197,77503,1,2,1:2:0:0:
443,206,77665,1,2,1:2:0:0:
304,80,77827,1,8,0:2:0:0:
296,318,77989,6,0,P|226:345|136:303,1,170,6|2,1:2|1:2,0:0:0:0:
75,134,78476,2,0,P|153:121|188:117,1,85,10|0,0:2|0:0,0:0:0:0:
345,111,78800,1,2,1:2:0:0:
183,16,78962,1,2,1:2:0:0:
245,192,79124,1,8,0:2:0:0:
411,46,79286,6,0,B|464:20|464:20|435:138,1,170,6|2,1:2|1:2,0:0:0:0:
406,313,79773,2,0,P|458:332|504:323,1,85,10|0,0:2|3:2,0:0:0:0:
349,201,80097,1,2,3:2:0:0:
256,363,80259,1,2,1:2:0:0:
256,363,80341,1,8,0:0:0:0:
256,363,80422,1,8,0:2:0:0:
148,222,80584,1,2,0:2:0:0:
148,222,80665,1,8,0:0:0:0:
148,222,80746,6,0,P|111:212|71:209,1,68,6|0,1:2|0:0,0:0:0:0:
31,112,81070,2,0,P|64:108|97:99,1,68,0|0,1:2|0:0,0:0:0:0:
174,21,81395,1,2,1:2:0:0:
236,110,81557,1,2,0:2:0:0:
291,16,81719,1,2,1:2:0:0:
362,97,81881,1,2,0:2:0:0:
362,97,81962,1,0,0:0:0:0:
362,97,82043,6,0,P|380:144|379:172,1,68,0|0,1:2|0:0,0:0:0:0:
484,194,82368,2,0,P|463:239|442:259,1,68,0|0,1:2|0:0,0:0:0:0:
355,302,82692,1,2,1:2:0:0:
285,218,82854,1,2,0:2:0:0:
246,319,83016,1,2,1:2:0:0:
178,233,83178,1,2,0:2:0:0:
109,318,83341,6,0,P|101:352|94:396,1,68,0|0,1:2|0:0,0:0:0:0:
41,252,83665,2,0,P|35:218|27:185,1,68,0|0,1:2|0:0,0:0:0:0:
87,94,83989,1,2,1:2:0:0:
151,181,84151,1,2,0:2:0:0:
192,80,84313,1,2,1:2:0:0:
274,151,84476,5,2,0:2:0:0:
274,151,84557,1,0,0:0:0:0:
274,151,84638,2,0,P|290:196|288:235,1,68,0|0,1:2|0:0,0:0:0:0:
402,303,84962,2,0,P|405:269|418:238,1,68,2|0,1:2|0:0,0:0:0:0:
498,164,85286,5,10,0:2:0:0:
321,292,85449,1,10,0:2:0:0:
321,292,85773,6,0,B|259:278|259:278|216:294|216:294|142:279,1,170,6|2,1:2|1:2,0:0:0:0:
78,131,86259,2,0,P|121:112|170:114,1,85,10|0,0:2|0:0,0:0:0:0:
312,213,86584,1,2,1:2:0:0:
146,193,86746,1,2,1:2:0:0:
284,94,86908,1,8,0:2:0:0:
243,303,87070,6,0,P|298:334|402:304,1,170,2|0,1:2|1:2,0:0:0:0:
480,146,87557,2,0,P|423:135|381:127,1,85,10|0,0:2|0:0,0:0:0:0:
396,129,87800,1,0,0:0:0:0:
396,129,87881,1,2,1:2:0:0:
228,105,88043,1,2,1:2:0:0:
328,241,88205,1,8,0:2:0:0:
331,37,88368,6,0,B|231:15|231:15|207:44|159:54,1,170,2|2,1:2|1:2,0:0:0:0:
122,211,88854,2,0,P|186:233|225:227,1,85,10|0,0:2|0:0,0:0:0:0:
348,146,89178,1,2,1:2:0:0:
282,331,89341,1,2,1:2:0:0:
190,143,89503,1,8,0:2:0:0:
379,265,89665,6,0,P|391:318|397:357,1,85,2|0,1:2|0:0,0:0:0:0:
258,249,89989,1,0,1:2:0:0:
377,128,90151,2,0,P|423:116|472:134,1,85,8|2,0:2|0:2,0:0:0:0:
465,133,90395,1,0,0:0:0:0:
465,133,90476,2,0,L|458:187,1,42.5,2|0,1:2|0:2,0:0:0:0:
361,264,90638,1,2,1:2:0:0:
361,264,90719,1,0,0:0:0:0:
361,264,90800,2,0,L|353:209,1,42.5,10|0,0:2|0:0,0:0:0:0:
247,137,90962,1,10,0:2:0:0:
247,137,91043,1,8,3:2:0:0:
247,137,91124,6,0,P|193:150|163:151,1,68,6|0,1:2|0:0,0:0:0:0:
111,235,91449,2,0,P|144:239|177:248,1,68,0|0,1:2|0:0,0:0:0:0:
226,345,91773,1,2,1:2:0:0:
291,258,91935,1,2,0:2:0:0:
345,352,92097,1,2,1:2:0:0:
415,271,92259,1,2,1:2:0:0:
415,271,92341,1,0,1:2:0:0:
415,271,92422,6,0,P|425:221|415:180,1,68,0|0,1:2|0:0,0:0:0:0:
510,140,92746,2,0,P|481:97|445:75,1,68,0|2,1:2|0:2,0:0:0:0:
371,39,93070,1,2,1:2:0:0:
298,185,93232,1,10,0:2:0:0:
217,42,93395,1,2,1:2:0:0:
141,119,93557,1,2,1:2:0:0:
141,119,93638,1,0,1:2:0:0:
141,119,93719,6,0,P|128:177|126:205,1,68,0|0,1:2|0:0,0:0:0:0:
36,245,94043,2,0,P|30:211|22:178,1,68,0|0,1:2|0:0,0:0:0:0:
21,43,94368,2,0,P|67:15|156:41,1,136,2|2,1:2|1:2,0:0:0:0:
211,116,94854,1,2,0:2:0:0:
476,15,95665,5,10,0:2:0:0:
385,191,95827,1,2,1:2:0:0:
302,21,95989,1,10,0:2:0:0:
490,132,96151,6,0,P|517:199|446:298,1,170,6|2,1:2|1:2,0:0:0:0:
307,310,96638,2,0,P|298:250|292:205,1,85,10|0,0:2|0:0,0:0:0:0:
270,57,96962,1,2,1:2:0:0:
392,174,97124,1,2,1:2:0:0:
373,5,97286,1,8,0:2:0:0:
231,152,97449,6,0,B|166:141|166:141|120:157|120:157|52:144,1,170,2|0,1:2|1:2,0:0:0:0:
102,312,97935,2,0,P|158:325|207:307,1,85,10|0,0:2|0:0,0:0:0:0:
319,198,98259,1,2,1:2:0:0:
154,243,98422,1,2,1:2:0:0:
310,307,98584,1,8,0:2:0:0:
222,135,98746,6,0,B|201:25|201:25|259:74,1,170,2|2,1:2|1:2,0:0:0:0:
409,107,99232,2,0,P|423:52|408:8,1,85,10|0,0:2|0:0,0:0:0:0:
318,165,99557,1,2,1:2:0:0:
483,202,99719,1,2,1:2:0:0:
371,329,99881,2,0,B|327:340|327:340|284:323,1,85,12|2,0:2|1:2,0:0:0:0:
170,205,100205,5,4,0:3:0:0:
157,375,100368,1,0,1:2:0:0:
257,238,100530,1,8,0:2:0:0:
91,277,100692,1,0,1:2:0:0:
91,277,100773,1,0,1:2:0:0:
91,277,100854,6,0,P|56:284|24:293,2,56.6666666666667,10|10|10,3:3|3:3|3:3,0:0:0:0:
142,186,101178,2,0,P|169:192|197:198,2,56.6666666666667,10|10|10,3:3|3:3|3:3,0:0:0:0:
89,111,101503,6,0,P|141:92|171:95,1,68,6|0,1:2|0:0,0:0:0:0:
183,1,101827,2,0,P|233:24|252:47,1,68,2|0,1:2|0:0,0:0:0:0:
287,147,102151,2,0,P|269:259|263:310,1,136,2|2,1:2|1:2,0:0:0:0:
361,359,102638,5,0,0:0:0:0:
361,359,102719,1,0,0:0:0:0:
361,359,102800,2,0,P|411:345|435:343,1,68,2|0,1:2|0:0,0:0:0:0:
474,260,103124,2,0,P|440:254|408:244,1,68,0|0,1:2|0:0,0:0:0:0:
311,144,103449,1,2,1:2:0:0:
445,110,103611,1,8,0:2:0:0:
337,25,103773,1,2,1:2:0:0:
292,161,103935,1,8,0:2:0:0:
196,17,104097,6,0,P|144:5|109:14,1,68,10|0,3:3|3:2,0:0:0:0:
61,73,104422,1,0,3:2:0:0:
123,144,104584,1,8,3:3:0:0:
72,224,104746,2,0,P|64:272|52:302,1,68,2|0,1:2|0:0,0:0:0:0:
163,365,105070,2,0,P|152:332|148:298,1,68,2|0,1:2|0:0,0:0:0:0:
214,185,105395,5,10,0:2:0:0:
214,185,105476,1,8,0:2:0:0:
214,185,105557,2,0,L|262:196,1,34,8|8,0:2|0:2,0:0:0:0:
295,257,105719,2,0,P|351:276|435:225,1,136,0|0,1:2|1:2,0:0:0:0:
492,64,106205,1,8,0:2:0:0:
351,181,106368,1,0,1:2:0:0:
512,173,106530,1,8,0:2:0:0:
354,43,106692,5,6,1:2:0:0:
354,43,106854,1,0,1:2:0:0:
249,168,107016,2,0,P|189:177|166:182,1,68,8|0,0:2|1:2,0:0:0:0:
181,178,107259,1,0,1:2:0:0:
181,178,107341,1,2,1:2:0:0:
83,46,107503,1,0,1:2:0:0:
241,83,107665,1,8,0:2:0:0:
90,198,107827,1,0,1:2:0:0:
90,198,107908,1,0,1:2:0:0:
90,198,107989,6,0,P|78:242|86:272,1,68,2|0,1:2|1:2,0:0:0:0:
196,378,108313,1,8,0:2:0:0:
301,253,108476,1,0,1:2:0:0:
301,253,108557,1,0,1:2:0:0:
301,253,108638,2,0,P|251:240|219:237,1,68,2|0,1:2|1:2,0:0:0:0:
151,97,108962,2,0,P|184:91|217:81,1,68,8|0,0:2|1:2,0:0:0:0:
421,7,109286,5,2,1:2:0:0:
292,157,109449,1,8,0:2:0:0:
506,124,109611,1,0,1:2:0:0:
314,46,109773,1,8,0:2:0:0:
473,285,109935,5,2,1:2:0:0:
268,167,110097,1,8,0:2:0:0:
481,116,110259,1,0,1:2:0:0:
319,295,110422,1,8,0:2:0:0:
174,97,110584,5,2,1:2:0:0:
399,191,110746,1,8,0:2:0:0:
399,191,110827,1,8,0:2:0:0:
399,191,110908,1,8,0:2:0:0:
200,330,111070,1,8,0:2:0:0:
200,330,111151,1,8,0:2:0:0:
200,330,111232,2,0,P|211:287|232:235,1,85,10|10,0:2|0:2,0:0:0:0:
77,113,111557,2,0,P|88:145|101:198,1,85,14|2,0:2|0:2,0:0:0:0:
250,13,111881,6,0,P|291:1|334:20,1,85,6|8,1:2|0:2,0:0:0:0:
379,80,112124,1,8,0:2:0:0:
379,80,112205,2,0,P|371:135|368:172,1,85,8|8,0:2|0:2,0:0:0:0:
358,237,112449,1,8,0:2:0:0:
358,237,112530,1,10,0:2:0:0:
280,328,112692,1,10,0:2:0:0:
240,341,112773,1,8,0:2:0:0:
200,330,112854,1,10,0:2:0:0:
173,298,112935,1,8,0:2:0:0:
143,274,113016,1,10,0:2:0:0:
103,260,113097,1,8,0:2:0:0:
63,271,113178,1,10,0:2:0:0:
256,192,113259,12,0,114800,0:0:0:0:
504,159,115124,6,0,L|456:152,1,42.5,2|0,0:2|0:0,0:0:0:0:
391,79,115286,1,2,1:2:0:0:
391,79,115368,1,0,0:0:0:0:
391,79,115449,2,0,L|348:85,1,42.5,2|0,1:2|0:0,0:0:0:0:
186,192,115611,6,0,P|151:129|215:7,1,187.000005706787,6|0,1:2|1:2,0:0:0:0:
327,200,116097,2,0,P|318:257|313:300,1,93.5000028533936,8|0,0:2|1:2,0:0:0:0:
269,71,116422,1,2,1:2:0:0:
430,226,116584,1,0,1:2:0:0:
206,214,116746,1,10,0:2:0:0:
397,97,116908,6,0,P|446:89|492:106,1,93.5000028533936,2|0,1:2|0:0,0:0:0:0:
328,304,117232,2,0,P|246:290|210:284,1,93.5000028533936,2|8,1:2|0:2,0:0:0:0:
80,124,117557,1,2,1:2:0:0:
80,124,117638,1,0,1:2:0:0:
80,124,117719,1,2,1:2:0:0:
293,192,117881,1,2,1:2:0:0:
87,282,118043,1,8,0:2:0:0:
200,48,118205,6,0,B|268:39|268:39|311:12|311:12|387:4,1,187.000005706787,2|0,1:2|1:2,0:0:0:0:
448,219,118692,2,0,B|404:237|404:237|356:228,1,93.5000028533936,8|0,0:2|1:2,0:0:0:0:
177,55,119016,1,2,1:2:0:0:
393,131,119178,1,2,1:2:0:0:
189,227,119341,1,10,0:2:0:0:
283,0,119503,6,0,P|293:56|299:104,1,93.5000028533936,2|0,1:2|0:0,0:0:0:0:
293,316,119827,1,2,1:2:0:0:
151,135,119989,1,8,0:2:0:0:
379,204,120151,1,2,1:2:0:0:
379,204,120232,1,0,1:2:0:0:
379,204,120313,1,0,1:2:0:0:
155,275,120476,1,2,1:2:0:0:
293,91,120638,1,10,0:2:0:0:
299,328,120800,1,2,1:2:0:0:
297,77,120962,5,0,1:2:0:0:
84,197,121124,1,0,1:2:0:0:
303,343,121286,2,0,B|320:297|320:297|309:248,1,93.5000028533936,12|0,0:2|0:0,0:0:0:0:
120,66,121611,1,2,1:2:0:0:
302,172,121773,1,2,1:2:0:0:
72,211,121935,1,10,0:2:0:0:
228,22,122097,6,0,B|334:3|334:3|378:35|367:84,1,187.000005706787,6|0,1:2|1:2,0:0:0:0:
202,240,122584,2,0,P|178:195|180:146,1,93.5000028533936,8|0,0:2|0:0,0:0:0:0:
386,236,122908,1,2,1:2:0:0:
193,351,123070,1,2,1:2:0:0:
275,142,123232,1,10,0:2:0:0:
476,291,123395,6,0,P|470:355|466:394,1,93.5000028533936,6|0,1:2|0:0,0:0:0:0:
370,149,123719,1,0,1:2:0:0:
278,353,123881,1,8,0:2:0:0:
181,150,124043,1,10,3:3:0:0:
181,150,124124,1,8,3:3:0:0:
181,150,124205,1,2,1:2:0:0:
341,248,124368,1,2,1:2:0:0:
129,295,124530,1,8,0:2:0:0:
298,147,124692,1,0,1:2:0:0:
298,147,124773,1,0,1:2:0:0:
298,147,124854,6,0,B|342:108|339:40|279:13|279:13|293:46,1,187.000005706787,6|8,1:2|0:2,0:0:0:0:
209,246,125341,1,8,0:0:0:0:
209,246,125422,1,8,0:0:0:0:
209,246,125503,1,2,1:2:0:0:
417,162,125665,1,2,1:2:0:0:
206,85,125827,1,10,0:2:0:0:
347,259,125989,6,0,B|361:303|361:303|345:351,1,93.5000028533936,2|0,1:2|0:0,0:0:0:0:
122,362,126313,2,0,P|131:301|139:253,1,93.5000028533936,2|8,1:2|0:2,0:0:0:0:
183,49,126638,1,2,1:2:0:0:
183,49,126719,1,0,1:2:0:0:
183,49,126800,1,2,1:2:0:0:
246,263,126962,1,2,1:2:0:0:
52,149,127124,1,8,0:2:0:0:
313,97,127286,6,0,B|429:85|387:147|502:125,1,187.000005706787,2|0,1:2|1:2,0:0:0:0:
274,182,127773,1,8,0:2:0:0:
421,14,127935,1,0,1:2:0:0:
421,14,128016,1,0,1:2:0:0:
421,14,128097,1,2,1:2:0:0:
443,236,128259,1,2,1:2:0:0:
304,58,128422,1,10,0:2:0:0:
223,267,128584,6,0,P|205:316|216:371,1,93.5000028533936,2|0,1:2|0:0,0:0:0:0:
348,180,128908,1,2,1:2:0:0:
123,179,129070,1,8,0:2:0:0:
316,325,129232,2,0,P|394:313|433:307,1,93.5000028533936,2|0,1:2|1:2,0:0:0:0:
434,86,129557,1,2,1:2:0:0:
253,218,129719,1,8,0:2:0:0:
477,211,129881,1,2,1:2:0:0:
297,77,130043,5,2,1:2:0:0:
310,300,130205,1,0,1:2:0:0:
133,125,130368,2,0,B|119:79|119:79|133:32,1,93.5000028533936,12|0,0:2|0:0,0:0:0:0:
318,159,130692,1,2,1:2:0:0:
106,232,130854,1,2,1:2:0:0:
247,58,131016,1,10,0:2:0:0:
193,311,131178,6,0,P|110:344|15:301,1,187.000005706787,6|0,1:2|1:2,0:0:0:0:
177,144,131665,1,8,0:2:0:0:
293,335,131827,1,0,1:2:0:0:
293,335,131908,1,0,1:2:0:0:
293,335,131989,1,2,1:2:0:0:
112,254,132151,1,2,1:2:0:0:
326,188,132313,1,10,0:2:0:0:
125,83,132476,6,0,B|7:117|7:117|88:138,1,187.000005706787,6|0,1:2|1:2,0:0:0:0:
287,185,132962,1,8,0:2:0:0:
83,283,133124,1,0,1:2:0:0:
83,283,133205,1,0,1:2:0:0:
83,283,133286,2,0,L|69:224,1,46.7500014266968,2|0,1:2|0:0,0:0:0:0:
199,132,133449,2,0,L|188:177,1,46.7500014266968,0|0,1:2|1:2,0:0:0:0:
244,322,133611,2,0,B|299:314|299:314|327:294|327:294|389:285,1,140.25000428009,6|0,1:2|0:0,0:0:0:0:
376,286,133935,5,10,0:2:0:0:
507,184,134097,2,0,P|517:133|501:97,1,85,10|0,0:2|1:0,0:0:0:0:
375,18,134422,1,10,0:2:0:0:
307,135,134584,1,10,0:2:0:0:
307,135,134908,1,10,0:2:0:0:
214,31,135070,2,0,P|165:26|124:22,1,76.4999976654053,10|0,0:2|1:0,0:0:0:0:
39,140,135395,5,10,0:2:0:0:
147,259,135557,2,0,B|159:298|159:298|142:341,1,76.4999976654053,10|0,0:2|0:0,0:0:0:0:
0,236,135881,5,12,0:2:0:0:
258,107,136205,1,12,0:2:0:0:
455,268,136530,6,0,P|464:312|459:347,1,76.4999976654053,2|2,1:2|0:2,0:0:0:0:
342,377,136854,1,2,0:2:0:0:
289,266,137016,1,2,1:2:0:0:
289,266,137097,1,0,1:2:0:0:
289,266,137178,2,0,P|303:171|313:103,1,152.999995330811,12|0,0:2|0:0,0:0:0:0:
234,18,137665,1,2,0:2:0:0:
234,18,137746,1,0,0:0:0:0:
234,18,137827,5,0,1:2:0:0:
122,68,137989,2,0,P|104:102|95:147,1,76.4999976654053,8|0,0:2|0:0,0:0:0:0:
208,300,138313,1,0,1:2:0:0:
208,300,138395,1,0,1:2:0:0:
208,300,138476,1,14,0:2:0:0:
201,101,138638,1,0,1:2:0:0:
331,286,138800,1,14,0:2:0:0:
314,87,138962,1,0,1:2:0:0:
135,230,139124,5,14,0:2:0:0:
355,293,139286,1,0,1:2:0:0:
143,381,139449,1,0,1:2:0:0:
300,190,139611,5,14,0:2:0:0:
44,263,139773,1,0,1:2:0:0:
271,347,139935,1,0,1:2:0:0:
131,159,140097,6,0,P|121:116|133:76,1,76.4999976654053,14|0,0:2|1:2,0:0:0:0:
265,5,140422,6,0,B|348:7|375:96|375:96|320:65|336:24,1,229.499992996216,6|0,1:2|0:0,0:0:0:0:
471,116,141070,6,0,P|462:155|446:173,2,50.9999984436036,8|8|8,3:3|3:3|3:3,0:0:0:0:
496,244,141395,2,0,P|462:265|438:266,2,50.9999984436036,8|8|8,3:3|3:3|3:3,0:0:0:0:
370,212,141719,5,4,1:2:0:0:
484,61,152097,6,0,P|445:44|407:42,1,59.4999981842042,2|0,1:2|0:0,0:0:0:0:
348,82,152422,1,2,1:2:0:0:
310,163,152584,2,0,P|322:211|326:244,1,59.4999981842042,2|2,0:2|1:2,0:0:0:0:
399,268,152908,1,2,0:2:0:0:
399,268,153070,2,0,P|404:238|412:210,1,59.4999981842042,2|2,1:2|0:2,0:0:0:0:
435,355,153395,5,2,1:2:0:0:
435,355,153557,2,0,P|401:363|368:358,1,59.4999981842042,2|2,0:2|1:2,0:0:0:0:
294,306,153881,2,0,P|260:298|227:303,1,59.4999981842042,2|0,0:2|1:2,0:0:0:0:
143,339,154205,1,2,0:2:0:0:
143,339,154286,1,0,0:0:0:0:
143,339,154368,2,0,P|130:290|116:266,1,59.4999981842042,0|0,1:2|0:0,0:0:0:0:
54,182,154692,5,2,1:2:0:0:
131,127,154854,1,2,0:2:0:0:
60,62,155016,2,0,P|28:52|-6:54,1,59.4999981842042,2|2,1:2|0:2,0:0:0:0:
118,140,155341,1,2,1:2:0:0:
183,65,155503,1,2,0:2:0:0:
250,129,155665,2,0,P|268:175|271:201,1,59.4999981842042,2|2,1:2|0:2,0:0:0:0:
251,322,155989,6,0,P|302:350|371:323,1,118.999996368408,2|2,1:2|1:2,0:0:0:0:
418,261,156476,2,0,P|402:219|399:197,1,59.4999981842042,2|0,0:2|1:2,0:0:0:0:
452,125,156800,1,2,0:2:0:0:
452,125,156962,2,0,P|468:83|471:61,1,59.4999981842042,0|0,1:2|0:0,0:0:0:0:
443,29,157205,1,0,0:0:0:0:
443,29,157286,6,0,P|387:36|316:46,1,118.999996368408,2|0,1:2|1:2,0:0:0:0:
269,122,157773,1,0,0:0:0:0:
337,188,157935,2,0,P|351:225|356:254,1,59.4999981842042,2|2,1:2|0:2,0:0:0:0:
292,316,158259,1,2,1:2:0:0:
240,235,158422,1,2,0:2:0:0:
167,296,158584,6,0,P|125:286|94:282,1,59.4999981842042,0|2,1:2|0:2,0:0:0:0:
54,205,158908,2,0,P|83:200|112:192,1,59.4999981842042,0|0,1:2|0:0,0:0:0:0:
179,124,159232,2,0,P|190:89|195:60,1,59.4999981842042,0|0,1:2|0:0,0:0:0:0:
278,22,159557,2,0,P|283:51|293:79,1,59.4999981842042,0|0,1:2|0:0,0:0:0:0:
335,100,159800,1,0,0:0:0:0:
335,100,159881,6,0,P|396:76|450:106,1,118.999996368408,2|0,1:2|1:2,0:0:0:0:
494,176,160368,1,0,0:0:0:0:
420,236,160530,2,0,P|406:272|401:306,1,59.4999981842042,2|2,1:2|0:2,0:0:0:0:
456,370,160854,1,2,1:2:0:0:
503,287,161016,1,2,0:2:0:0:
212,78,161827,6,0,B|175:69|175:69|156:72|156:72|118:63,1,89.2499972763062,2|0,0:2|0:0,0:0:0:0:
44,14,162476,6,0,P|30:69|38:108,1,85,6|0,1:2|0:0,0:0:0:0:
180,238,162800,1,8,0:2:0:0:
187,41,162962,1,2,1:2:0:0:
187,41,163043,1,0,1:2:0:0:
187,41,163124,1,0,1:2:0:0:
57,198,163286,2,0,P|47:260|44:290,1,85,2|8,1:2|0:2,0:0:0:0:
237,352,163611,6,0,P|281:296|257:196,1,170,2|0,1:2|1:2,0:0:0:0:
80,116,164097,1,10,0:2:0:0:
255,12,164259,1,0,1:2:0:0:
255,12,164341,1,0,1:2:0:0:
255,12,164422,2,0,P|316:24|355:30,1,85,2|2,1:2|1:2,0:0:0:0:
244,208,164746,1,10,0:2:0:0:
141,31,164908,6,0,B|101:18|101:18|55:28,1,85,2|0,1:2|0:0,0:0:0:0:
102,226,165232,1,0,1:2:0:0:
247,81,165395,1,8,0:2:0:0:
57,141,165557,1,0,1:2:0:0:
57,141,165638,1,0,1:2:0:0:
57,141,165719,1,0,1:2:0:0:
270,208,165881,1,2,1:2:0:0:
51,271,166043,1,10,0:2:0:0:
280,356,166205,6,0,P|329:364|378:347,1,85,2|0,1:2|0:0,0:0:0:0:
411,156,166530,2,0,P|362:148|313:165,1,85,2|8,1:2|0:2,0:0:0:0:
184,301,166854,1,2,1:2:0:0:
184,301,166935,1,0,1:2:0:0:
184,301,167016,1,0,1:2:0:0:
382,254,167178,1,2,1:2:0:0:
229,116,167341,2,0,P|237:177|240:211,1,85,8|2,0:2|1:2,0:0:0:0:
281,1,167665,5,0,1:2:0:0:
99,94,167827,1,0,1:2:0:0:
340,204,167989,2,0,B|405:212|405:212|467:172,1,127.5,14|0,0:2|0:0,0:0:0:0:
457,178,168313,1,2,1:2:0:0:
311,34,168476,2,0,P|266:23|219:43,1,85,2|8,1:2|0:2,0:0:0:0:
133,214,168800,6,0,B|156:279|156:279|147:319|92:331,1,127.5,6|0,1:2|0:2,0:0:0:0:
119,322,169124,1,2,1:2:0:0:
20,157,169286,1,10,0:2:0:0:
222,124,169449,2,0,P|246:167|254:211,1,85,2|0,0:2|1:2,0:0:0:0:
57,258,169773,1,0,1:2:0:0:
128,67,169935,1,10,0:2:0:0:
237,304,170097,6,0,B|299:315|299:315|344:297|344:297|410:310,1,170,6|0,1:2|1:2,0:0:0:0:
432,302,170503,1,2,0:0:0:0:
461,279,170584,1,12,0:2:0:0:
470,243,170665,1,2,0:0:0:0:
461,207,170746,2,0,L|470:148,1,42.5,0|0,1:2|0:0,0:0:0:0:
373,61,170908,1,0,1:2:0:0:
373,61,170989,1,0,1:2:0:0:
373,61,171070,2,0,L|312:77,1,42.5,0|0,1:2|0:0,0:0:0:0:
180,127,171232,1,8,0:2:0:0:
352,192,171395,6,0,B|392:235|392:235|370:301|370:301|315:265,1,170,6|0,1:2|1:2,0:0:0:0:
144,206,171881,2,0,P|98:200|57:224,1,85,8|0,0:2|1:2,0:0:0:0:
225,340,172205,1,2,1:2:0:0:
258,137,172368,1,2,1:2:0:0:
115,283,172530,1,10,0:2:0:0:
329,210,172692,6,0,P|460:195|520:190,1,170,2|2,1:2|1:2,0:0:0:0:
359,42,173178,2,0,P|306:47|266:69,1,85,8|2,0:2|1:2,0:0:0:0:
176,238,173503,1,2,1:2:0:0:
104,47,173665,1,2,1:2:0:0:
277,153,173827,1,8,0:2:0:0:
44,162,173989,6,0,P|9:214|35:321,1,170,2|0,1:2|1:2,0:0:0:0:
224,251,174476,2,0,P|152:240|124:237,1,85,8|2,0:2|1:2,0:0:0:0:
328,161,174800,1,2,1:2:0:0:
288,360,174962,1,2,1:2:0:0:
191,145,175124,1,8,0:2:0:0:
400,285,175286,6,0,B|443:251|443:251|419:130,1,170,2|2,1:2|1:2,0:0:0:0:
245,245,175773,1,8,0:2:0:0:
193,47,175935,1,2,1:2:0:0:
193,47,176016,1,0,1:2:0:0:
193,47,176097,1,0,1:2:0:0:
345,182,176259,1,2,1:2:0:0:
140,162,176422,1,10,0:2:0:0:
314,56,176584,1,2,1:2:0:0:
238,256,176746,5,0,1:2:0:0:
178,38,176908,1,0,1:2:0:0:
32,227,177070,2,0,B|18:269|18:269|27:312,1,85,14|0,0:2|0:0,0:0:0:0:
246,175,177395,1,2,1:2:0:0:
18,72,177557,1,2,1:2:0:0:
132,277,177719,1,10,0:2:0:0:
215,44,177881,6,0,P|286:16|385:61,1,170,6|0,1:2|1:2,0:0:0:0:
305,240,178368,2,0,P|298:176|294:141,1,85,8|0,0:2|1:2,0:0:0:0:
469,262,178692,1,2,1:2:0:0:
286,352,178854,1,2,1:2:0:0:
404,186,179016,1,10,0:2:0:0:
186,117,179178,6,0,B|91:105|91:105|60:142|13:140,1,170,6|0,1:2|1:2,0:0:0:0:
104,329,179665,1,8,0:2:0:0:
247,184,179827,1,10,0:2:0:0:
247,184,179908,1,8,0:2:0:0:
247,184,179989,1,10,0:2:0:0:
50,239,180151,1,10,3:3:0:0:
206,297,180313,2,0,P|255:299|299:278,1,85,8|2,3:3|0:2,0:0:0:0:
364,207,180638,6,0,P|386:246|396:283,1,68,6|0,1:2|0:0,0:0:0:0:
478,335,180962,2,0,P|489:303|507:274,1,68,2|0,1:2|0:0,0:0:0:0:
501,165,181286,2,0,P|478:131|434:118,1,68,2|0,1:2|0:0,0:0:0:0:
354,164,181611,1,2,1:2:0:0:
280,58,181773,5,0,0:0:0:0:
280,58,181854,1,0,0:0:0:0:
280,58,181935,2,0,P|166:42|123:35,1,136,2|0,1:2|1:2,0:0:0:0:
53,97,182422,1,0,0:0:0:0:
107,191,182584,2,0,P|120:235|125:273,1,68,2|0,1:2|0:0,0:0:0:0:
213,317,182908,2,0,P|219:283|229:251,1,68,2|0,1:2|0:0,0:0:0:0:
332,168,183232,6,0,P|392:159|446:218,1,136,10|0,3:3|3:2,0:0:0:0:
424,315,183719,1,0,3:2:0:0:
315,304,183881,2,0,P|280:286|238:279,1,68,2|0,1:2|0:0,0:0:0:0:
185,193,184205,2,0,P|217:184|247:168,1,68,2|0,1:2|0:0,0:0:0:0:
278,44,184530,5,10,1:2:0:0:
278,44,184611,1,8,0:0:0:0:
278,44,184692,2,0,L|215:35,1,34,8|8,0:2|0:2,0:0:0:0:
137,0,184854,2,0,B|116:66|116:66|141:135,1,136,0|0,1:2|1:2,0:0:0:0:
206,214,185341,1,8,0:2:0:0:
118,278,185503,1,0,1:2:0:0:
46,196,185665,1,8,0:2:0:0:
185,349,185827,6,0,P|257:370|319:334,1,136,6|0,1:2|1:2,0:0:0:0:
381,229,186313,1,0,0:0:0:0:
234,156,186476,2,0,B|182:164|182:164|155:184|155:184|94:192,1,136,2|0,1:2|1:2,0:0:0:0:
16,87,186962,1,0,0:0:0:0:
16,87,187043,1,0,0:0:0:0:
16,87,187124,6,0,P|51:73|87:66,1,68,2|0,1:2|0:0,0:0:0:0:
163,8,187449,2,0,P|198:22|234:29,1,68,0|0,1:2|0:0,0:0:0:0:
363,38,187773,1,2,1:2:0:0:
263,130,187935,1,0,0:0:0:0:
441,151,188097,2,0,P|448:191|440:222,1,68,0|0,1:2|0:0,0:0:0:0:
186,302,188422,5,2,1:2:0:0:
346,162,188584,1,8,0:2:0:0:
127,157,188746,1,0,1:2:0:0:
307,269,188908,1,8,0:2:0:0:
106,155,189070,5,2,1:2:0:0:
326,59,189232,1,8,0:2:0:0:
157,230,189395,1,0,1:2:0:0:
218,0,189557,1,8,0:2:0:0:
276,255,189719,5,2,1:2:0:0:
26,191,189881,1,8,0:2:0:0:
26,191,189962,1,8,0:2:0:0:
26,191,190043,1,8,0:2:0:0:
224,91,190205,1,8,0:2:0:0:
224,91,190286,1,8,0:2:0:0:
224,91,190368,1,10,0:2:0:0:
134,296,190530,1,10,0:2:0:0:
57,85,190692,2,0,P|53:41|64:-3,1,85,10|2,0:2|0:2,0:0:0:0:
225,198,191016,6,0,P|287:200|318:205,1,85,6|8,1:2|0:2,0:0:0:0:
391,226,191259,1,8,0:2:0:0:
391,226,191341,2,0,P|399:282|387:313,1,85,8|8,0:2|0:2,0:0:0:0:
350,372,191584,1,8,0:2:0:0:
350,372,191665,1,10,0:2:0:0:
190,358,191827,1,10,0:2:0:0:
156,332,191908,1,8,0:2:0:0:
134,296,191989,1,10,0:2:0:0:
125,255,192070,1,8,0:2:0:0:
133,213,192151,1,10,0:2:0:0:
154,176,192232,1,8,0:2:0:0:
187,150,192313,1,10,0:2:0:0:
256,192,192395,12,0,193935,0:0:0:0:
424,66,194259,6,0,L|415:122,1,42.5,2|0,0:2|0:0,0:0:0:0:
351,276,194422,1,2,1:2:0:0:
351,276,194503,1,0,0:0:0:0:
351,276,194584,2,0,L|342:228,1,42.5,2|0,1:2|0:0,0:0:0:0:
307,38,194746,6,0,B|236:33|236:33|199:60|199:60|121:54,1,187.000005706787,6|0,1:2|1:2,0:0:0:0:
183,272,195232,2,0,P|236:286|276:270,1,93.5000028533936,8|0,0:2|1:2,0:0:0:0:
75,161,195557,1,2,1:2:0:0:
146,373,195719,1,0,1:2:0:0:
242,170,195881,1,10,0:2:0:0:
48,283,196043,6,0,P|42:345|40:381,1,93.5000028533936,2|0,1:2|0:0,0:0:0:0:
275,282,196368,2,0,B|288:235|288:235|275:181,1,93.5000028533936,2|8,1:2|0:2,0:0:0:0:
93,63,196692,1,2,1:2:0:0:
93,63,196773,1,0,1:2:0:0:
93,63,196854,1,2,1:2:0:0:
313,23,197016,1,2,1:2:0:0:
152,179,197178,1,8,0:2:0:0:
401,131,197341,6,0,P|446:173|418:295,1,187.000005706787,2|0,1:2|1:2,0:0:0:0:
210,231,197827,2,0,P|267:225|320:224,1,93.5000028533936,8|0,0:2|1:2,0:0:0:0:
303,224,198070,1,0,1:2:0:0:
303,224,198151,1,2,1:2:0:0:
100,319,198313,1,2,1:2:0:0:
181,108,198476,1,10,0:2:0:0:
315,316,198638,6,0,B|268:332|268:332|219:321,1,93.5000028533936,2|0,1:2|0:0,0:0:0:0:
41,193,198962,2,0,P|112:185|141:182,1,93.5000028533936,2|8,1:2|0:2,0:0:0:0:
356,155,199286,1,2,1:2:0:0:
356,155,199368,1,0,1:2:0:0:
356,155,199449,1,0,1:2:0:0:
174,23,199611,1,2,1:2:0:0:
230,240,199773,1,10,0:2:0:0:
329,38,199935,1,2,1:2:0:0:
221,253,200097,5,0,1:2:0:0:
158,13,200259,1,0,1:2:0:0:
374,168,200422,2,0,P|390:219|380:270,1,93.5000028533936,12|0,0:2|0:0,0:0:0:0:
170,322,200746,1,2,1:2:0:0:
255,114,200908,1,2,1:2:0:0:
300,333,201070,1,10,0:2:0:0:
142,137,201232,6,0,B|36:116|36:116|-14:148|10:218,1,187.000005706787,6|0,1:2|1:2,0:0:0:0:
196,297,201719,2,0,P|242:292|281:268,1,93.5000028533936,8|0,0:2|0:0,0:0:0:0:
337,51,202043,1,2,1:2:0:0:
163,192,202205,1,2,1:2:0:0:
385,229,202368,1,10,0:2:0:0:
221,35,202530,6,0,B|163:0|163:0|186:121,1,187.000005706787,6|0,1:2|1:2,0:0:0:0:
372,240,203016,2,0,P|387:166|398:123,1,93.5000028533936,8|10,0:2|3:3,0:0:0:0:
266,336,203341,1,2,1:2:0:0:
485,292,203503,1,2,1:2:0:0:
284,146,203665,1,8,0:2:0:0:
250,134,203746,1,0,1:2:0:0:
213,135,203827,1,0,1:2:0:0:
180,150,203908,1,0,1:2:0:0:
154,176,203989,6,0,B|166:284|166:284|123:303|109:347,1,187.000005706787,6|8,1:2|0:2,0:0:0:0:
332,289,204476,1,0,0:0:0:0:
145,164,204638,1,2,1:2:0:0:
225,373,204800,1,2,1:2:0:0:
300,162,204962,1,10,0:2:0:0:
480,294,205124,6,0,P|490:353|476:390,1,93.5000028533936,2|0,1:2|0:0,0:0:0:0:
289,262,205449,2,0,P|300:187|306:152,1,93.5000028533936,2|8,1:2|0:2,0:0:0:0:
481,34,205773,1,2,1:2:0:0:
481,34,205854,1,0,1:2:0:0:
481,34,205935,1,2,1:2:0:0:
379,233,206097,1,2,1:2:0:0:
263,40,206259,1,8,0:2:0:0:
179,276,206422,6,0,B|112:263|112:263|61:285|61:285|0:270,1,187.000005706787,2|0,1:2|1:2,0:0:0:0:
199,167,206908,1,8,0:2:0:0:
113,378,207070,1,0,1:2:0:0:
113,378,207151,1,0,1:2:0:0:
113,378,207232,1,2,1:2:0:0:
43,163,207395,1,2,1:2:0:0:
228,289,207557,1,10,0:2:0:0:
215,51,207719,6,0,P|268:34|313:49,1,93.5000028533936,2|0,1:2|0:0,0:0:0:0:
381,253,208043,2,0,P|328:270|283:255,1,93.5000028533936,2|8,1:2|0:2,0:0:0:0:
487,142,208368,1,2,1:2:0:0:
487,142,208449,1,0,1:2:0:0:
487,142,208530,1,0,1:2:0:0:
440,361,208692,1,2,1:2:0:0:
331,158,208854,1,8,0:2:0:0:
272,374,209016,1,2,1:2:0:0:
183,150,209178,5,2,1:2:0:0:
391,262,209341,1,0,1:2:0:0:
161,363,209503,2,0,B|112:371|112:371|53:350,1,93.5000028533936,12|0,0:2|0:0,0:0:0:0:
25,136,209827,1,2,1:2:0:0:
220,245,209989,1,2,1:2:0:0:
0,270,210151,1,10,0:2:0:0:
170,85,210313,6,0,P|244:55|364:95,1,187.000005706787,6|0,1:2|1:2,0:0:0:0:
258,288,210800,2,0,P|245:233|263:191,1,93.5000028533936,8|0,0:2|1:2,0:0:0:0:
461,107,211124,1,2,1:2:0:0:
371,312,211286,1,2,1:2:0:0:
285,103,211449,1,10,0:2:0:0:
498,234,211611,6,0,B|510:352|510:352|481:389|413:384,1,187.000005706787,6|0,1:2|1:2,0:0:0:0:
358,178,212097,1,8,0:2:0:0:
245,371,212259,1,2,0:2:0:0:
424,233,212422,1,2,1:2:0:0:
250,90,212584,1,10,0:2:0:0:
211,65,212665,1,8,0:2:0:0:
164,62,212746,1,8,0:2:0:0:
126,88,212827,1,10,0:2:0:0:
87,112,212908,1,8,0:2:0:0:
40,115,212989,1,8,0:2:0:0:
12,83,213070,6,0,P|7:24|1:-19,1,93.5000028533936,12|2,0:2|1:2,0:0:0:0:
193,162,213395,2,0,P|187:208|183:254,1,93.5000028533936,10|2,0:2|1:2,0:0:0:0:
99,7,213719,1,10,0:2:0:0:
326,135,213881,1,2,1:2:0:0:
80,226,214043,1,10,0:2:0:0:
232,13,214205,1,2,1:2:0:0:
247,313,214368,6,0,P|304:329|358:313,1,93.5000028533936,10|0,0:2|1:2,0:0:0:0:
436,81,214692,2,0,P|379:65|325:81,1,93.5000028533936,10|2,0:2|1:2,0:0:0:0:
175,268,215016,1,10,0:2:0:0:
431,219,215178,1,0,1:2:0:0:
199,93,215341,1,10,0:2:0:0:
319,325,215503,1,2,1:2:0:0:
470,88,215665,6,0,B|482:42|482:42|471:-6,1,93.5000028533936,8|2,0:2|1:2,0:0:0:0:
256,154,215989,2,0,B|243:202|243:202|254:250,1,93.5000028533936,10|2,0:2|1:2,0:0:0:0:
482,334,216313,1,10,0:2:0:0:
393,116,216476,1,2,1:2:0:0:
271,337,216638,1,8,0:2:0:0:
187,119,216800,1,2,1:2:0:0:
72,355,216962,6,0,P|15:365|-18:357,1,93.5000028533936,10|0,0:2|1:2,0:0:0:0:
71,111,217286,2,0,P|128:101|161:109,1,93.5000028533936,10|2,0:2|1:2,0:0:0:0:
298,334,217611,1,10,0:2:0:0:
365,81,217773,1,0,1:2:0:0:
142,219,217935,1,10,0:2:0:0:
402,242,218097,1,0,1:2:0:0:
245,8,218259,6,0,P|241:78|240:130,1,93.5000028533936,14|0,0:2|0:0,0:0:0:0:
365,333,218584,1,10,0:2:0:0:
425,78,218746,1,0,0:0:0:0:
222,242,218908,1,8,0:2:0:0:
481,211,219070,1,0,1:0:0:0:
253,94,219232,1,10,0:2:0:0:
471,228,219395,1,0,1:0:0:0:
235,341,219557,6,0,B|191:350|191:350|134:330,1,93.5000028533936,10|0,0:2|0:0,0:0:0:0:
31,98,219881,1,8,0:2:0:0:
268,208,220043,1,0,1:0:0:0:
13,267,220205,1,10,0:2:0:0:
182,65,220368,1,0,1:0:0:0:
147,324,220530,1,8,0:2:0:0:
348,157,220692,5,8,0:2:0:0:
348,157,220773,1,8,0:2:0:0:
348,157,220854,2,0,P|361:102|364:73,1,68,6|0,1:2|0:0,0:0:0:0:
459,41,221178,2,0,P|464:74|473:107,1,68,0|0,1:2|0:0,0:0:0:0:
505,211,221503,2,0,P|472:244|466:279,1,68,0|0,1:2|0:0,0:0:0:0:
470,372,221827,1,2,1:2:0:0:
339,315,221989,1,10,0:2:0:0:
339,315,222070,1,8,0:2:0:0:
339,315,222151,6,0,P|238:296|187:291,1,136,2|0,1:2|1:2,0:0:0:0:
100,326,222638,1,10,3:3:0:0:
38,236,222800,2,0,P|50:195|62:162,1,68,0|8,1:2|3:3,0:0:0:0:
103,72,223124,1,2,1:2:0:0:
265,216,223449,5,6,1:2:0:0:
256,192,223530,12,0,226530,0:0:0:0:
