osu file format v14

[General]
AudioFilename: audio.mp3
AudioLeadIn: 0
PreviewTime: 52767
Countdown: 0
SampleSet: Soft
StackLeniency: 0.7
Mode: 0
LetterboxInBreaks: 0
WidescreenStoryboard: 1

[Editor]
DistanceSpacing: 1.3
BeatDivisor: 4
GridSize: 16
TimelineZoom: 1.9

[Metadata]
Title:Heart no Shuchou
TitleUnicode:ハートの主張
Artist:CHiCO with HoneyWorks
ArtistUnicode:CHiCO with HoneyWorks
Creator:sanairrt
Version:Hard
Source:
Tags:Asuka_- Kuki1537 _FlameL japanese pop j-pop Sekai wa i ni Michiteiru 世界はiに満ちている cut ver
BeatmapID:2323644
BeatmapSetID:1112051

[Difficulty]
HPDrainRate:5
CircleSize:3.5
OverallDifficulty:6
ApproachRate:8
SliderMultiplier:1.4
SliderTickRate:1

[Events]
//Background and Video events
0,0,"ERDLhRCVAAEjSpT.jpg",0,0
//Break Periods
//Storyboard Layer 0 (Background)
//Storyboard Layer 1 (Fail)
//Storyboard Layer 2 (Pass)
//Storyboard Layer 3 (Foreground)
//Storyboard Layer 4 (Overlay)
//Storyboard Sound Samples

[TimingPoints]
308,324.324324324324,4,2,1,50,1,0
308,-125,4,2,1,50,0,0
4848,-125,4,2,1,80,0,0
5335,-100,4,2,1,60,0,0
18470,-125,4,2,1,50,0,0
23010,-125,4,2,1,80,0,0
23497,-100,4,2,1,60,0,0
28848,-125,4,2,1,50,0,0
32578,-125,4,2,1,80,0,0
33389,-125,4,2,1,60,0,0
33875,-100,4,2,1,60,0,0
39226,-125,4,2,1,50,0,0
40362,-125,4,2,2,50,0,0
40848,-125,4,2,1,50,0,0
44416,-125,4,2,1,60,0,0
47010,-125,4,2,1,70,0,0
47659,-125,4,2,1,80,0,0
48307,-125,4,2,1,60,0,0
48470,-111.111111111111,4,2,1,60,0,0
49605,-111.111111111111,4,2,1,70,0,0
52524,-111.111111111111,4,2,1,60,0,0
52848,-111.111111111111,4,2,2,60,0,0
53335,-90.9090909090908,4,2,1,70,0,1
53659,-90.9090909090908,4,2,1,70,0,1
71659,-90.9090909090908,4,2,2,70,0,1
76848,-90.9090909090908,4,2,1,70,0,1
79443,-125,4,2,1,50,0,0

[Colours]
Combo1 : 255,75,255
Combo2 : 63,63,192
Combo3 : 255,128,128
Combo4 : 255,187,221

[HitObjects]
59,329,308,6,0,L|189:314,1,112,2|0,0:0|0:0,2:0:0:0:
240,200,956,2,0,L|166:209,1,56,2|0,0:0|2:0,2:0:0:0:
106,217,1280,1,2,0:0:0:0:
55,155,1443,2,0,P|66:97|123:65,1,112,2|2,0:0|0:0,2:0:0:0:
251,79,2091,2,0,L|247:149,2,56,2|2|2,0:0|0:0|0:0,2:0:0:0:
385,48,2740,6,0,L|394:182,1,112,2|2,0:0|2:0,2:0:0:0:
451,211,3226,1,2,2:0:0:0:
326,287,3551,2,0,L|332:352,2,56,2|0|2,0:0|0:0|0:0,2:0:0:0:
269,231,4037,2,0,P|255:172|282:123,2,112,2|2|2,0:0|0:0|0:0,2:0:0:0:
208,287,4848,5,8,1:2:0:0:
75,254,5010,1,10,1:2:0:0:
60,97,5335,6,0,B|146:91|146:91|168:121|207:127,1,140,6|0,1:2|1:2,2:0:0:0:
266,75,5821,2,0,P|321:30|406:52,1,140,8|2,0:0|1:2,2:0:0:0:
461,87,6307,1,0,1:2:0:0:
390,145,6470,1,10,0:0:0:0:
452,218,6632,6,0,B|401:218|401:218|360:246|360:246|291:246,1,140,6|0,1:2|1:2,2:0:0:0:
244,296,7118,2,0,P|203:333|103:308,1,140,8|2,0:0|1:2,2:0:0:0:
51,268,7605,1,0,1:2:0:0:
116,204,7767,1,10,0:0:0:0:
40,153,7929,6,0,P|90:116|168:127,1,140,6|0,1:2|1:2,2:0:0:0:
239,175,8416,2,0,P|281:177|324:154,1,70,8|2,0:0|0:0,2:0:0:0:
393,139,8740,1,0,1:2:0:0:
451,208,8902,2,0,L|446:242,2,35,2|2|10,1:2|1:2|0:0,2:0:0:0:
456,94,9226,6,0,B|421:56|421:56|375:74|318:56,1,140,6|0,1:2|1:2,2:0:0:0:
258,103,9713,2,0,P|220:148|123:144,1,140,10|0,0:0|1:2,2:0:0:0:
81,87,10199,1,0,1:2:0:0:
1,132,10362,1,8,0:0:0:0:
2,222,10524,6,0,P|7:296|14:373,1,140,2|0,1:2|1:2,2:0:0:0:
95,324,11010,2,0,P|156:293|239:307,1,140,10|0,0:0|1:2,2:0:0:0:
303,347,11497,1,0,1:2:0:0:
375,291,11659,1,8,0:0:0:0:
438,356,11821,6,0,B|464:317|464:317|449:225,1,140,2|0,1:2|1:2,2:0:0:0:
433,136,12307,2,0,P|402:101|288:117,1,140,10|0,0:0|1:2,2:0:0:0:
238,149,12794,1,0,1:2:0:0:
161,95,12956,1,8,0:0:0:0:
79,134,13118,6,0,B|66:194|66:194|88:234|73:297,1,140,2|0,1:2|1:2,2:0:0:0:
83,361,13605,1,10,0:0:0:0:
166,325,13767,2,0,P|215:313|246:316,1,70,2|2,1:2|0:0,2:0:0:0:
305,370,14091,1,2,1:2:0:0:
364,307,14253,1,10,0:0:0:0:
440,362,14416,1,2,1:2:0:0:
440,362,14497,1,0,1:2:0:0:
440,362,14578,6,0,P|441:328|444:273,1,70,0|0,1:2|1:2,2:0:0:0:
359,211,14902,2,0,B|353:165|353:165|401:121|380:65,1,140,14|0,0:0|1:2,2:0:0:0:
330,24,15389,1,0,1:2:0:0:
257,78,15551,1,8,0:0:0:0:
183,24,15713,6,0,P|124:-9|36:9,1,140,6|0,1:2|1:2,2:0:0:0:
4,74,16199,2,0,B|-12:129|-11:179|-11:179|9:193|18:209,1,140,14|0,0:0|1:2,2:0:0:0:
97,166,16686,1,0,1:2:0:0:
171,217,16848,1,8,0:0:0:0:
240,158,17010,6,0,P|314:167|401:178,1,140,6|0,1:2|1:2,2:0:0:0:
452,228,17497,2,0,P|433:309|374:326,1,140,10|0,0:0|1:2,2:0:0:0:
308,266,17983,1,0,1:2:0:0:
234,319,18145,2,0,P|198:323|162:309,1,70,8|0,0:0|0:0,2:0:0:0:
108,258,18470,6,0,L|101:127,1,112,6|0,1:2|1:2,2:0:0:0:
96,69,18956,1,2,2:0:0:0:
166,31,19118,2,0,P|195:23|228:19,1,56,2|0,1:2|0:0,2:0:0:0:
285,74,19443,1,2,1:2:0:0:
285,74,19605,6,0,P|347:84|388:35,1,112,2|2,0:0|2:0,2:0:0:0:
460,35,20091,2,0,P|470:70|475:98,1,56,0|2,1:2|2:0,2:0:0:0:
410,135,20416,2,0,P|400:170|395:198,1,56,2|0,1:2|0:0,2:0:0:0:
458,237,20740,1,2,1:2:0:0:
403,299,20902,6,0,P|361:328|287:318,1,112,2|2,0:0|2:0,2:0:0:0:
268,254,21389,2,0,P|238:244|204:245,1,56,0|2,1:2|2:0,2:0:0:0:
160,302,21713,1,2,1:2:0:0:
160,302,21875,2,0,P|120:313|88:310,1,56,0|2,0:0|1:2,2:0:0:0:
36,274,22199,6,0,L|32:144,1,112,0|0,0:0|2:0,2:0:0:0:
60,85,22686,2,0,P|101:71|122:70,1,56,2|0,1:2|0:0,2:0:0:0:
169,132,23010,5,10,0:0:0:0:
279,60,23172,1,2,1:2:0:0:
279,60,23497,6,0,B|281:149|281:149|313:168|321:207,1,140,6|0,1:2|1:2,2:0:0:0:
405,182,23983,2,0,P|412:236|418:279,1,70,10|0,0:0|2:0,2:0:0:0:
379,335,24307,1,2,1:2:0:0:
379,335,24470,2,0,P|346:317|299:325,1,70,2|8,1:2|0:0,2:0:0:0:
235,359,24794,6,0,B|143:345|143:345|93:371,1,140,2|0,1:2|1:2,2:0:0:0:
12,383,25280,2,0,P|-1:345|11:297,1,70,10|0,0:0|1:2,2:0:0:0:
68,252,25605,1,2,1:2:0:0:
68,252,25767,2,0,P|82:214|70:169,1,70,2|8,1:2|0:0,2:0:0:0:
46,95,26091,6,0,L|201:78,1,140,2|0,1:2|1:2,2:0:0:0:
229,159,26578,2,0,P|278:164|311:169,1,70,10|0,0:0|1:2,2:0:0:0:
359,99,26902,1,2,1:2:0:0:
359,99,27064,2,0,P|404:88|443:114,1,70,2|8,1:2|0:0,2:0:0:0:
471,188,27389,6,0,P|488:258|479:348,1,140,2|0,1:2|1:2,2:0:0:0:
400,370,27875,1,10,0:0:0:0:
333,308,28037,1,2,0:0:0:0:
267,370,28199,2,0,P|231:385|195:380,1,70,2|2,1:2|1:2,2:0:0:0:
153,289,28524,2,0,P|118:287|85:297,1,70,14|2,0:0|0:0,2:0:0:0:
9,286,28848,6,0,P|1:224|15:154,1,112,6|0,1:2|1:2,2:0:0:0:
88,136,29335,1,0,2:0:0:0:
149,188,29497,2,0,P|190:191|221:191,1,56,2|0,1:2|0:0,2:0:0:0:
255,129,29821,1,2,1:2:0:0:
314,187,29983,6,0,P|350:218|426:208,1,112,2|0,0:0|0:2,0:0:0:0:
472,165,30470,2,0,L|468:99,1,56,0|0,1:2|2:0,2:0:0:0:
415,49,30794,2,0,P|380:42|337:45,1,56,2|0,1:2|0:0,2:0:0:0:
300,98,31118,1,2,1:2:0:0:
233,50,31280,6,0,L|101:41,1,112,2|0,0:0|2:0,2:0:0:0:
41,54,31767,2,0,P|37:89|32:124,1,56,0|0,1:2|2:0,2:0:0:0:
110,123,32091,2,0,P|114:158|119:193,1,56,2|0,1:2|0:0,2:0:0:0:
48,227,32416,1,2,0:0:0:0:
107,283,32578,5,2,0:0:0:0:
107,283,33389,5,10,0:0:0:0:
177,230,33551,1,2,1:2:0:0:
215,308,33713,1,8,0:0:0:0:
295,231,33875,6,0,B|345:209|345:209|391:238|435:238,1,140,6|0,1:2|1:2,2:0:0:0:
506,211,34362,2,0,P|523:174|505:125,1,70,10|0,0:0|1:2,2:0:0:0:
461,75,34686,1,2,1:2:0:0:
461,75,34848,2,0,P|410:80|371:86,1,70,2|8,1:2|0:0,2:0:0:0:
320,26,35172,6,0,B|273:5|273:5|176:14,1,140,2|0,1:2|1:2,2:0:0:0:
97,40,35659,2,0,P|77:76|87:132,1,70,10|0,0:0|1:2,2:0:0:0:
130,176,35983,1,2,1:2:0:0:
130,176,36145,2,0,P|140:222|129:257,1,70,2|8,1:2|0:0,2:0:0:0:
102,328,36470,6,0,P|157:360|238:342,1,140,2|0,1:2|1:2,2:0:0:0:
288,278,36956,2,0,P|332:286|372:296,1,70,10|0,0:0|1:2,2:0:0:0:
440,327,37280,1,2,1:2:0:0:
440,327,37443,2,0,P|447:289|431:239,1,70,2|8,1:2|0:0,2:0:0:0:
391,182,37767,1,2,1:2:0:0:
439,108,37929,6,0,P|403:94|362:100,1,70,0|2,1:2|1:2,2:0:0:0:
295,145,38253,1,14,0:0:0:0:
227,83,38416,2,0,L|236:20,2,35,2|0|10,1:2|1:2|0:0,2:0:0:0:
147,134,38740,1,10,2:3:0:0:
147,134,38902,1,6,2:3:0:0:
74,79,39064,1,10,2:3:0:0:
24,186,39226,6,0,P|49:238|119:240,1,112,6|2,1:2|1:2,2:0:0:0:
169,211,39713,1,2,2:0:0:0:
169,211,39875,2,0,P|221:224|243:273,1,112,2|2,1:2|1:2,2:0:0:0:
248,353,40362,1,2,0:0:0:0:
317,311,40524,6,0,P|376:299|417:345,1,112,2|0,1:2|1:2,2:0:0:0:
507,191,41172,2,0,P|474:186|440:163,1,56,2|0,1:2|2:0,2:0:0:0:
415,103,41497,2,0,P|384:97|337:108,1,56,2|0,1:2|2:0,2:0:0:0:
293,149,41821,6,0,P|238:143|174:138,1,112,10|0,2:3|1:2,2:0:0:0:
115,91,42307,1,8,2:3:0:0:
77,166,42470,2,0,P|65:226|82:286,1,112,2|2,1:2|1:2,2:0:0:0:
144,323,42956,1,0,2:0:0:0:
227,234,43118,6,0,L|225:180,3,28,2|0|0|0,1:2|1:2|1:2|1:2,2:0:0:0:
248,261,43443,2,0,P|285:284|356:277,1,112,0|2,1:2|1:2,2:0:0:0:
422,226,43929,1,10,0:0:0:0:
357,167,44091,1,2,1:2:0:0:
423,112,44253,1,10,0:0:0:0:
331,53,44416,6,0,P|283:26|218:37,1,112,6|0,1:2|1:2,2:0:0:0:
172,93,44902,1,0,2:0:0:0:
231,154,45064,2,0,B|251:189|251:189|247:283,1,112,2|0,1:2|1:2,2:0:0:0:
191,316,45551,1,2,2:0:0:0:
123,276,45713,6,0,B|41:274|41:274|5:250,1,112,2|0,1:2|1:2,2:0:0:0:
0,179,46199,1,0,2:0:0:0:
40,110,46362,2,0,P|70:84|158:92,1,112,2|0,1:2|1:2,2:0:0:0:
190,142,46848,1,0,2:0:0:0:
252,87,47010,6,0,L|312:78,1,56,2|8,1:2|0:0,2:0:0:0:
349,144,47335,2,0,L|403:156,1,56,0|8,1:2|0:0,2:0:0:0:
478,112,47659,2,0,P|489:148|487:174,1,56,2|8,1:2|0:0,0:0:0:0:
438,228,47983,2,0,P|427:264|429:290,1,56,0|8,1:2|0:0,0:0:0:0:
423,375,48307,5,2,1:2:0:0:
350,330,48470,2,0,L|345:298,2,31.4999990386963,0|0|0,1:2|1:2|1:2,2:0:0:0:
272,353,48794,2,0,L|268:384,2,31.4999990386963,0|0|14,1:2|1:2|0:0,2:0:0:0:
211,298,49118,1,2,2:0:0:0:
157,358,49280,2,0,P|124:374|88:376,1,62.9999980773926,14|2,0:0|1:2,2:0:0:0:
10,303,49605,5,6,1:2:0:0:
85,265,49767,2,0,L|139:269,2,31.4999990386963,8|8|0,0:0|0:0|1:2,2:0:0:0:
33,201,50091,2,0,L|-19:210,2,31.4999990386963,8|8|2,0:0|0:0|1:2,2:0:0:0:
91,143,50416,1,10,1:2:0:0:
91,143,50497,1,8,1:2:0:0:
91,143,50578,2,0,L|143:129,3,31.4999990386963,10|8|10|8,1:2|1:2|1:2|1:2,2:0:0:0:
160,122,50902,5,2,1:2:0:0:
256,192,50983,12,0,52524,2:0:0:0:
315,325,52848,6,0,L|250:314,1,62.9999980773926,2|2,1:2|1:2,2:0:0:0:
188,364,53172,1,2,1:2:0:0:
105,285,53335,6,0,P|73:214|104:132,1,154.000004699707,6|0,1:2|1:2,2:0:0:0:
172,205,53821,2,0,P|209:221|259:213,1,77.0000023498536,8|0,0:0|1:2,2:0:0:0:
333,171,54145,1,2,1:2:0:0:
333,171,54307,2,0,P|374:185|431:202,1,77.0000023498536,0|10,1:2|0:0,2:0:0:0:
490,140,54632,6,0,P|498:99|491:60,1,77.0000023498536,2|0,1:2|2:0,2:0:0:0:
415,0,54956,2,0,L|242:7,1,154.000004699707,2|2,1:2|0:0,2:0:0:0:
181,65,55443,1,2,1:2:0:0:
93,17,55605,2,0,P|79:62|85:98,1,77.0000023498536,2|8,1:2|0:0,2:0:0:0:
140,173,55929,6,0,B|49:182|49:182|34:216|-1:229,1,154.000004699707,2|0,1:2|1:2,2:0:0:0:
73,301,56416,2,0,P|118:323|162:314,1,77.0000023498536,8|0,0:0|1:2,2:0:0:0:
233,276,56740,1,2,1:2:0:0:
233,276,56902,2,0,P|280:258|331:270,1,77.0000023498536,0|10,1:2|0:0,2:0:0:0:
405,270,57226,6,0,L|397:185,1,77.0000023498536,2|0,1:2|2:0,2:0:0:0:
462,115,57551,2,0,P|424:96|380:93,1,77.0000023498536,2|8,1:2|0:0,2:0:0:0:
300,136,57875,2,0,P|254:155|212:150,1,77.0000023498536,2|0,1:2|1:2,2:0:0:0:
155,85,58199,1,2,1:2:0:0:
71,151,58362,1,10,0:0:0:0:
12,70,58524,1,2,1:2:0:0:
92,11,58686,6,0,P|133:6|190:-1,1,77.0000023498536,10|0,0:0|1:2,2:0:0:0:
241,70,59010,2,0,P|279:90|344:80,1,77.0000023498536,12|0,0:0|0:0,2:0:0:0:
400,34,59335,2,0,P|438:15|486:26,1,77.0000023498536,2|0,1:2|1:2,2:0:0:0:
512,105,59659,1,10,0:0:0:0:
439,204,59821,6,0,B|380:207|380:207|349:225|349:225|282:227,1,154.000004699707,6|0,1:2|1:2,2:0:0:0:
244,315,60307,2,0,P|204:333|156:333,1,77.0000023498536,8|0,0:0|1:2,2:0:0:0:
101,263,60632,2,0,P|59:257|15:252,1,77.0000023498536,2|0,1:2|1:2,2:0:0:0:
0,157,60956,1,10,0:0:0:0:
50,58,61118,6,0,P|96:15|190:31,1,154.000004699707,6|0,1:2|1:2,2:0:0:0:
245,101,61605,1,8,0:0:0:0:
330,48,61767,1,2,1:2:0:0:
422,102,61929,2,0,P|431:146|432:202,1,77.0000023498536,2|2,1:2|1:2,2:0:0:0:
357,243,62253,1,8,0:0:0:0:
357,243,62416,1,0,1:2:0:0:
268,335,62578,6,0,P|192:321|116:309,1,154.000004699707,6|8,1:2|0:0,2:0:0:0:
25,266,63064,1,0,0:0:0:0:
102,203,63226,2,0,P|115:162|104:122,1,77.0000023498536,2|0,1:2|1:2,2:0:0:0:
46,50,63551,1,10,0:0:0:0:
135,4,63713,6,0,P|188:8|231:18,1,77.0000023498536,2|2,1:2|2:0,2:0:0:0:
270,93,64037,2,0,B|371:81|371:81|389:108|442:124,1,154.000004699707,2|2,1:2|1:2,2:0:0:0:
499,161,64524,1,2,1:2:0:0:
420,222,64686,2,0,P|417:265|412:324,1,77.0000023498536,2|8,1:2|0:0,2:0:0:0:
341,367,65010,6,0,B|249:383|249:383|203:363|216:311,1,154.000004699707,2|0,1:2|1:2,2:0:0:0:
275,259,65497,2,0,P|284:217|271:182,1,77.0000023498536,8|0,0:0|1:2,2:0:0:0:
183,229,65821,2,0,P|147:237|94:248,1,77.0000023498536,2|0,1:2|1:2,2:0:0:0:
13,212,66145,1,10,0:0:0:0:
55,121,66307,6,0,P|85:97|123:97,1,77.0000023498536,2|0,1:2|0:0,2:0:0:0:
211,145,66632,2,0,P|250:145|284:125,1,77.0000023498536,2|8,1:2|0:0,2:0:0:0:
358,61,66956,2,0,L|372:156,1,77.0000023498536,2|0,1:2|1:2,2:0:0:0:
465,167,67280,2,0,L|451:262,1,77.0000023498536,2|8,1:2|0:0,2:0:0:0:
433,341,67605,1,2,0:0:0:0:
352,281,67767,5,2,1:2:0:0:
352,281,67929,1,0,1:2:0:0:
276,367,68091,2,0,P|239:373|176:383,1,77.0000023498536,12|0,0:0|0:0,2:0:0:0:
160,291,68416,2,0,P|117:285|62:280,1,77.0000023498536,2|0,1:2|1:2,0:0:0:0:
10,213,68740,1,10,0:0:0:0:
122,151,68902,6,0,B|187:154|187:154|219:180|219:180|278:186,1,154.000004699707,6|0,1:2|1:2,2:0:0:0:
366,197,69389,2,0,P|371:150|374:121,1,77.0000023498536,8|8,0:0|0:0,2:0:0:0:
308,44,69713,2,0,P|275:46|233:28,1,77.0000023498536,2|0,1:2|1:2,0:0:0:0:
147,0,70037,1,10,0:0:0:0:
99,110,70199,6,0,B|67:157|74:227|74:227|120:257,1,154.000004699707,6|0,1:2|1:2,2:0:0:0:
193,284,70686,1,8,0:0:0:0:
266,216,70848,1,2,1:2:0:0:
338,283,71010,1,10,0:0:0:0:
421,225,71172,2,8,L|413:168,5,38.5000011749268,10|8|8|8|10|8,0:2|0:2|0:2|0:2|0:2|0:2,0:0:0:0:
451,150,71659,6,0,L|358:137,1,77.0000023498536,6|2,1:2|0:0,2:0:0:0:
338,46,71983,2,0,L|261:35,1,77.0000023498536,10|2,0:0|0:0,2:0:0:0:
171,70,72307,1,10,0:0:0:0:
215,158,72470,1,2,1:2:0:0:
119,151,72632,1,10,0:0:0:0:
161,241,72794,1,2,1:2:0:0:
68,229,72956,6,0,P|35:215|-10:222,1,77.0000023498536,10|2,0:0|0:0,2:0:0:0:
22,315,73280,2,0,P|55:329|100:322,1,77.0000023498536,10|2,0:0|1:2,2:0:0:0:
161,241,73605,2,0,L|258:260,1,77.0000023498536,10|2,0:0|1:2,2:0:0:0:
295,344,73929,2,0,L|370:329,1,77.0000023498536,10|2,0:0|1:2,2:0:0:0:
466,302,74253,5,10,0:0:0:0:
388,237,74416,1,2,0:0:0:0:
479,195,74578,1,10,0:0:0:0:
411,121,74740,1,2,1:2:0:0:
322,166,74902,2,0,P|279:182|239:178,1,77.0000023498536,10|2,0:0|1:2,2:0:0:0:
198,93,75226,2,0,P|159:92|124:107,1,77.0000023498536,10|2,0:0|1:2,2:0:0:0:
88,201,75551,6,0,L|73:284,1,77.0000023498536,10|2,0:0|0:0,2:0:0:0:
147,344,75875,1,10,0:0:0:0:
147,344,76037,1,2,1:2:0:0:
232,292,76199,2,0,P|274:273|316:279,1,77.0000023498536,10|2,0:0|1:2,2:0:0:0:
356,361,76524,2,0,P|394:361|428:343,1,77.0000023498536,10|2,0:0|1:2,2:0:0:0:
511,250,76848,5,14,0:0:0:0:
432,182,77010,1,0,0:0:0:0:
345,231,77172,2,0,P|330:188|338:142,1,77.0000023498536,10|0,0:0|0:0,2:0:0:0:
414,99,77497,2,0,P|421:64|402:14,1,77.0000023498536,10|0,0:0|1:2,2:0:0:0:
318,65,77821,2,0,L|225:75,1,77.0000023498536,10|0,0:0|1:2,2:0:0:0:
161,13,78145,5,14,0:0:0:0:
87,81,78307,1,2,0:0:0:0:
145,162,78470,2,0,P|160:204|157:251,1,77.0000023498536,10|2,0:0|1:2,2:0:0:0:
137,333,78794,2,0,P|174:336|219:315,1,77.0000023498536,10|2,0:0|1:2,2:0:0:0:
292,263,79118,2,0,P|334:262|371:284,1,77.0000023498536,10|2,0:0|1:2,2:0:0:0:
390,304,79362,1,0,1:2:0:0:
390,304,79443,6,0,L|403:168,1,112,6|0,1:2|1:2,2:0:0:0:
386,114,79929,1,0,0:0:0:0:
328,58,80091,2,0,P|295:47|267:48,1,56,0|0,1:2|0:0,2:0:0:0:
246,121,80416,2,0,P|213:132|185:131,1,56,2|0,1:2|1:2,2:0:0:0:
154,130,80659,1,0,1:2:0:0:
154,130,80740,6,0,P|130:162|127:242,1,112,6|0,1:2|1:2,2:0:0:0:
93,307,81226,2,0,P|124:274|193:269,1,112,6|4,2:3|2:3,2:0:0:0:
243,324,81713,2,0,P|272:334|307:338,1,56,6|2,2:3|2:0,2:0:0:0:
393,273,82037,5,6,1:2:0:0:
256,192,82118,12,0,85118,2:0:0:0:
