osu file format v14

[General]
AudioFilename: audio.mp3
AudioLeadIn: 0
PreviewTime: 115043
Countdown: 0
SampleSet: Normal
StackLeniency: 0.7
Mode: 1
LetterboxInBreaks: 0
WidescreenStoryboard: 1

[Editor]
Bookmarks: 314,5341,18476,23503,28854,33881,39232,53341,71503,80746,85773,91124,96151,101503,115611,133935,141719,152097,162476,171395,180638,194746,213070,223449,226530
DistanceSpacing: 2
BeatDivisor: 4
GridSize: 4
TimelineZoom: 2

[Metadata]
Title:Heart no Shuchou
TitleUnicode:ハートの主張
Artist:CHiCO with HoneyWorks
ArtistUnicode:CHiCO with HoneyWorks
Creator:Zhuosh
Version:Muzukashii
Source:
Tags:-maruko- japanese pop jpop j-pop rock j-rock jrock Sekai wa i ni Michiteiru 世界はiに満ちている Confession Executive Committee 告白実行委員会 Love Series ~恋愛シリーズ~ Arisa Takamizawa 高見沢 アリサ Karen Miura 三浦加恋 female vocals vocalist
BeatmapID:4302172
BeatmapSetID:2058430

[Difficulty]
HPDrainRate:6
CircleSize:5
OverallDifficulty:5
ApproachRate:5
SliderMultiplier:1.4
SliderTickRate:1

[Events]
//Background and Video events
0,0,"bg.jpg",0,40
//Break Periods
//Storyboard Layer 0 (Background)
//Storyboard Layer 1 (Fail)
//Storyboard Layer 2 (Pass)
//Storyboard Layer 3 (Foreground)
//Storyboard Layer 4 (Overlay)
//Storyboard Sound Samples

[TimingPoints]
314,324.324324324324,4,1,0,50,1,0
314,-100,4,1,0,50,0,0
4847,-100,4,1,0,70,0,0
18469,-100,4,1,0,60,0,0
23009,-100,4,1,0,70,0,0
28847,-100,4,1,0,60,0,0
33874,-100,4,1,0,70,0,0
39225,-100,4,1,0,65,0,0
50982,-100,4,1,0,50,0,0
52847,-100,4,1,0,64,0,0
52928,-100,4,1,0,66,0,0
53009,-100,4,1,0,68,0,0
53090,-100,4,1,0,71,0,0
53171,-100,4,1,0,74,0,0
53341,-100,4,1,0,80,0,1
58692,-100,4,1,0,80,0,0
59016,-100,4,1,0,80,0,1
67773,-100,4,1,0,80,0,0
68097,-100,4,1,0,80,0,1
71503,-100,4,1,0,70,0,0
80739,-100,4,1,0,60,0,0
85279,-100,4,1,0,70,0,0
91117,-100,4,1,0,60,0,0
96144,-100,4,1,0,70,0,0
101496,-100,4,1,0,65,0,0
106685,-100,4,1,0,70,0,0
113252,-100,4,1,0,50,0,0
115117,-100,4,1,0,64,0,0
115198,-100,4,1,0,66,0,0
115279,-100,4,1,0,68,0,0
115361,-100,4,1,0,71,0,0
115442,-100,4,1,0,74,0,0
115611,-100,4,1,0,80,0,1
120962,-100,4,1,0,80,0,0
121286,-100,4,1,0,80,0,1
130043,-100,4,1,0,80,0,0
130368,-100,4,1,0,80,0,1
133935,-100,4,1,0,70,0,0
141171,-100,4,1,0,67,0,0
141279,-100,4,1,0,63,0,0
141388,-100,4,1,0,60,0,0
141496,-100,4,1,0,57,0,0
141604,-100,4,1,0,53,0,0
141712,-100,4,1,0,50,0,0
152090,-100,4,1,0,55,0,0
162469,-100,4,1,0,70,0,0
171395,-100,4,1,0,75,0,1
180638,-100,4,1,0,65,0,0
192388,-100,4,1,0,50,0,0
194253,-100,4,1,0,64,0,0
194334,-100,4,1,0,66,0,0
194415,-100,4,1,0,68,0,0
194497,-100,4,1,0,71,0,0
194578,-100,4,1,0,74,0,0
194746,-100,4,1,0,80,0,1
200097,-100,4,1,0,80,0,0
200422,-100,4,1,0,80,0,1
209178,-100,4,1,0,80,0,0
209503,-100,4,1,0,80,0,1
212422,-100,4,1,0,80,0,0
213070,-100,4,1,0,80,0,1
220854,-100,4,1,0,80,0,0
224090,-100,4,1,0,70,0,0
224739,-100,4,1,0,60,0,0
225388,-100,4,1,0,50,0,0
226036,-100,4,1,0,40,0,0

[HitObjects]
281,146,314,5,8,0:0:0:0:
301,150,962,1,0,0:0:0:0:
301,150,1286,1,0,0:0:0:0:
301,150,1449,1,8,0:0:0:0:
301,150,1773,1,0,0:0:0:0:
301,150,2097,1,8,0:0:0:0:
301,150,2259,1,8,0:0:0:0:
301,150,2422,1,0,0:0:0:0:
301,150,2746,1,8,0:0:0:0:
268,127,3557,1,8,0:0:0:0:
268,127,3881,1,0,0:0:0:0:
268,127,4043,1,8,0:0:0:0:
256,114,4368,1,8,0:0:0:0:
256,114,4692,1,0,0:0:0:0:
256,114,4854,1,12,0:0:0:0:
253,113,5016,1,12,0:0:0:0:
311,112,5341,1,4,0:0:0:0:
296,174,5665,1,0,0:0:0:0:
296,174,5827,1,8,0:0:0:0:
266,174,6151,1,0,0:0:0:0:
266,174,6313,1,0,0:0:0:0:
266,174,6476,1,8,0:0:0:0:
266,174,6638,1,4,0:0:0:0:
284,133,6962,1,0,0:0:0:0:
284,133,7124,1,8,0:0:0:0:
284,133,7449,1,0,0:0:0:0:
284,133,7530,1,0,0:0:0:0:
284,133,7611,1,0,0:0:0:0:
284,133,7773,1,0,0:0:0:0:
284,133,7935,1,12,0:0:0:0:
295,105,8259,1,0,0:0:0:0:
299,162,8422,1,8,0:0:0:0:
302,153,8746,1,0,0:0:0:0:
302,153,8908,1,8,0:0:0:0:
302,153,8989,1,8,0:0:0:0:
302,153,9070,1,8,0:0:0:0:
302,153,9232,1,4,0:0:0:0:
299,144,9719,1,8,0:0:0:0:
314,137,10043,1,0,0:0:0:0:
314,137,10206,1,0,0:0:0:0:
314,137,10368,1,8,0:0:0:0:
314,137,10530,1,0,0:0:0:0:
306,137,10854,1,0,0:0:0:0:
287,117,11016,1,8,0:0:0:0:
294,122,11341,1,8,0:0:0:0:
294,122,11503,1,0,0:0:0:0:
294,122,11665,1,8,0:0:0:0:
294,122,11827,1,0,0:0:0:0:
272,117,12152,1,0,0:0:0:0:
272,117,12314,1,8,0:0:0:0:
292,133,12638,1,0,0:0:0:0:
292,133,12800,1,0,0:0:0:0:
292,133,12962,1,8,0:0:0:0:
292,133,13125,1,8,0:0:0:0:
287,126,13449,1,0,0:0:0:0:
277,124,13611,1,8,0:0:0:0:
277,124,13773,1,0,0:0:0:0:
277,122,14098,1,8,0:0:0:0:
277,122,14260,1,8,0:0:0:0:
277,122,14422,1,0,0:0:0:0:
283,113,14503,1,0,0:0:0:0:
229,133,14584,1,0,0:0:0:0:
291,121,14746,1,0,0:0:0:0:
291,121,14908,1,12,0:0:0:0:
281,145,15232,1,0,0:0:0:0:
281,146,15395,1,8,0:0:0:0:
296,132,15557,1,8,0:0:0:0:
296,132,15719,1,4,0:0:0:0:
328,109,16206,1,8,0:0:0:0:
328,109,16530,1,0,0:0:0:0:
328,109,16692,1,0,0:0:0:0:
328,109,16854,1,8,0:0:0:0:
328,109,17016,1,4,0:0:0:0:
308,115,17341,1,0,0:0:0:0:
308,115,17503,1,8,0:0:0:0:
291,148,17746,1,0,0:0:0:0:
291,148,17827,1,0,0:0:0:0:
288,135,17989,1,0,0:0:0:0:
284,127,18151,1,8,0:0:0:0:
284,127,18476,1,4,0:0:0:0:
279,120,19124,1,8,0:0:0:0:
276,129,19449,1,0,0:0:0:0:
263,119,19611,1,8,0:0:0:0:
263,118,20097,1,0,0:0:0:0:
255,109,20422,1,8,0:0:0:0:
251,105,20746,1,8,0:0:0:0:
270,152,20908,1,0,0:0:0:0:
251,105,21395,1,0,0:0:0:0:
251,105,21719,1,8,0:0:0:0:
251,105,22043,1,8,0:0:0:0:
288,142,22205,1,8,0:0:0:0:
245,112,22368,1,0,0:0:0:0:
245,112,22692,1,0,0:0:0:0:
230,158,23016,1,12,0:0:0:0:
225,154,23178,1,12,0:0:0:0:
289,160,23503,1,4,0:0:0:0:
266,122,23827,1,0,0:0:0:0:
266,122,23989,1,8,0:0:0:0:
287,130,24314,1,8,0:0:0:0:
325,129,24476,1,0,0:0:0:0:
287,130,24800,1,8,0:0:0:0:
319,138,25125,1,0,0:0:0:0:
319,138,25287,1,8,0:0:0:0:
321,137,25611,1,8,0:0:0:0:
321,137,25773,1,8,0:0:0:0:
319,138,26098,1,0,0:0:0:0:
321,137,26422,1,8,0:0:0:0:
321,137,26584,1,0,0:0:0:0:
319,138,26908,1,0,0:0:0:0:
314,135,27071,1,8,0:0:0:0:
212,152,27395,1,0,0:0:0:0:
341,152,27719,1,0,0:0:0:0:
341,152,27881,1,8,0:0:0:0:
334,142,28206,1,0,0:0:0:0:
334,142,28368,1,0,0:0:0:0:
334,142,28530,1,12,0:0:0:0:
334,142,28854,1,4,0:0:0:0:
337,166,29503,1,0,0:0:0:0:
284,162,29827,1,0,0:0:0:0:
284,162,29989,1,8,0:0:0:0:
284,162,30151,1,0,0:0:0:0:
278,153,30476,1,0,0:0:0:0:
285,155,30800,1,8,0:0:0:0:
274,143,31124,1,8,0:0:0:0:
306,154,31286,1,8,0:0:0:0:
274,143,31449,1,0,0:0:0:0:
274,143,31773,1,0,0:0:0:0:
274,143,32097,1,8,0:0:0:0:
274,143,32422,1,0,0:0:0:0:
274,143,32584,1,8,0:0:0:0:
282,114,33395,1,8,0:0:0:0:
282,114,33557,1,0,0:0:0:0:
282,114,33719,1,8,0:0:0:0:
287,134,33881,1,4,0:0:0:0:
266,122,34205,1,0,0:0:0:0:
266,122,34367,1,8,0:0:0:0:
287,130,34692,1,0,0:0:0:0:
325,129,34854,1,0,0:0:0:0:
287,130,35178,1,8,0:0:0:0:
319,138,35503,1,0,0:0:0:0:
319,138,35665,1,8,0:0:0:0:
321,137,35989,1,8,0:0:0:0:
321,137,36151,1,0,0:0:0:0:
319,138,36476,1,8,0:0:0:0:
321,137,36800,1,0,0:0:0:0:
321,137,36962,1,8,0:0:0:0:
319,138,37286,1,8,0:0:0:0:
314,135,37449,1,8,0:0:0:0:
314,135,37773,1,0,0:0:0:0:
341,152,38097,1,0,0:0:0:0:
341,152,38259,1,12,0:0:0:0:
334,142,38584,1,0,0:0:0:0:
363,150,38665,1,0,0:0:0:0:
334,142,38746,1,0,0:0:0:0:
334,142,38908,1,8,0:0:0:0:
363,150,39070,1,8,0:0:0:0:
334,142,39232,1,4,0:0:0:0:
308,142,39881,1,0,0:0:0:0:
308,142,40205,1,0,0:0:0:0:
308,142,40368,1,0,0:0:0:0:
308,142,40530,1,8,0:0:0:0:
297,141,40854,1,0,0:0:0:0:
297,141,41178,1,8,0:0:0:0:
302,138,41503,1,8,0:0:0:0:
277,168,41827,1,0,0:0:0:0:
261,154,42151,1,8,0:0:0:0:
261,154,42313,1,0,0:0:0:0:
261,154,42476,1,0,0:0:0:0:
261,154,42800,1,0,0:0:0:0:
275,152,43124,1,8,0:0:0:0:
275,152,43205,1,8,0:0:0:0:
275,152,43286,1,8,0:0:0:0:
275,152,43449,1,0,0:0:0:0:
275,152,43773,1,0,0:0:0:0:
275,152,43935,1,8,0:0:0:0:
275,152,44097,1,0,0:0:0:0:
275,152,44259,1,8,0:0:0:0:
275,152,44422,1,4,0:0:0:0:
297,149,44746,1,0,0:0:0:0:
264,144,45070,1,8,0:0:0:0:
275,152,45395,1,8,0:0:0:0:
264,144,45719,1,0,0:0:0:0:
264,144,46043,1,0,0:0:0:0:
271,140,46368,1,8,0:0:0:0:
271,140,46530,1,8,0:0:0:0:
271,140,46692,1,8,0:0:0:0:
271,140,47016,1,0,0:0:0:0:
284,164,47503,1,8,0:0:0:0:
284,164,47665,1,0,0:0:0:0:
271,140,47827,1,0,0:0:0:0:
271,140,47989,1,8,0:0:0:0:
271,140,48151,1,8,0:0:0:0:
271,140,48313,1,0,0:0:0:0:
271,140,48557,1,8,0:0:0:0:
271,140,48638,1,8,0:0:0:0:
271,140,48800,1,0,0:0:0:0:
271,140,48962,1,8,0:0:0:0:
271,140,49124,1,8,0:0:0:0:
271,140,49286,1,12,0:0:0:0:
271,140,49611,1,4,0:0:0:0:
271,140,49935,1,8,0:0:0:0:
271,140,50097,1,8,0:0:0:0:
271,140,50259,1,0,0:0:0:0:
271,140,50341,1,0,0:0:0:0:
271,140,50422,1,0,0:0:0:0:
271,140,50584,1,8,0:0:0:0:
271,140,50746,1,8,0:0:0:0:
271,140,50827,1,8,0:0:0:0:
271,140,50908,1,8,0:0:0:0:
261,145,52854,5,0,0:0:0:0:
261,145,53016,1,0,0:0:0:0:
261,145,53178,1,0,0:0:0:0:
294,164,53341,1,12,0:0:0:0:
279,167,53665,1,0,0:0:0:0:
279,167,53827,1,8,0:0:0:0:
291,146,54151,1,8,0:0:0:0:
266,127,54232,1,8,0:0:0:0:
283,139,54313,1,8,0:0:0:0:
283,139,54476,1,0,0:0:0:0:
283,137,54638,1,8,0:0:0:0:
266,126,54962,1,8,0:0:0:0:
283,137,55124,1,0,0:0:0:0:
277,142,55286,1,8,0:0:0:0:
277,142,55449,1,8,0:0:0:0:
277,142,55611,1,0,0:0:0:0:
215,151,55773,1,0,0:0:0:0:
277,142,55935,1,8,0:0:0:0:
277,142,56259,1,0,0:0:0:0:
277,142,56422,1,8,0:0:0:0:
266,140,56746,1,8,0:0:0:0:
270,132,56908,1,0,0:0:0:0:
270,132,57070,1,8,0:0:0:0:
256,148,57232,1,0,0:0:0:0:
182,146,57313,1,0,0:0:0:0:
182,146,57395,1,0,0:0:0:0:
277,142,57557,1,0,0:0:0:0:
252,142,57719,1,8,0:0:0:0:
252,142,57881,1,0,0:0:0:0:
261,139,58205,1,0,0:0:0:0:
261,139,58368,1,8,0:0:0:0:
226,181,58530,1,8,0:0:0:0:
226,181,58692,1,0,0:0:0:0:
266,150,58773,1,0,0:0:0:0:
226,181,58854,1,0,0:0:0:0:
261,139,59016,1,12,0:0:0:0:
291,137,59341,1,0,0:0:0:0:
291,137,59503,1,0,0:0:0:0:
291,137,59665,1,8,0:0:0:0:
291,137,59827,1,4,0:0:0:0:
317,133,60313,1,8,0:0:0:0:
312,125,60638,1,8,0:0:0:0:
312,125,60800,1,0,0:0:0:0:
312,125,60881,1,0,0:0:0:0:
312,125,60962,1,0,0:0:0:0:
293,158,61124,1,12,0:0:0:0:
280,154,61449,1,0,0:0:0:0:
230,133,61611,1,8,0:0:0:0:
230,192,61773,1,0,0:0:0:0:
254,137,61854,1,0,0:0:0:0:
230,133,61935,1,0,0:0:0:0:
230,192,62097,1,0,0:0:0:0:
230,192,62259,1,8,0:0:0:0:
286,145,62584,1,4,0:0:0:0:
286,145,62908,1,12,0:0:0:0:
269,119,63232,1,8,0:0:0:0:
156,164,63313,1,8,0:0:0:0:
269,119,63395,1,8,0:0:0:0:
269,119,63557,1,0,0:0:0:0:
269,119,63719,1,8,0:0:0:0:
316,99,64043,1,8,0:0:0:0:
306,152,64205,1,0,0:0:0:0:
322,115,64368,1,8,0:0:0:0:
302,134,64530,1,0,0:0:0:0:
302,134,64692,1,8,0:0:0:0:
322,114,64854,1,8,0:0:0:0:
322,114,65016,1,0,0:0:0:0:
322,115,65341,1,0,0:0:0:0:
322,115,65503,1,8,0:0:0:0:
312,104,65827,1,8,0:0:0:0:
322,114,65989,1,8,0:0:0:0:
312,104,66151,1,0,0:0:0:0:
322,115,66313,1,8,0:0:0:0:
243,133,66395,1,8,0:0:0:0:
312,104,66476,1,8,0:0:0:0:
312,104,66638,1,0,0:0:0:0:
312,104,66800,1,0,0:0:0:0:
312,104,66962,1,8,0:0:0:0:
277,137,67286,1,8,0:0:0:0:
277,137,67449,1,0,0:0:0:0:
277,137,67611,1,8,0:0:0:0:
315,117,67773,1,0,0:0:0:0:
315,117,67854,1,0,0:0:0:0:
315,117,67935,1,0,0:0:0:0:
285,115,68097,1,12,0:0:0:0:
303,154,68422,1,0,0:0:0:0:
303,154,68584,1,0,0:0:0:0:
303,154,68746,1,8,0:0:0:0:
303,154,68908,1,4,0:0:0:0:
303,154,69395,1,8,0:0:0:0:
318,122,69719,1,8,0:0:0:0:
198,156,69800,1,8,0:0:0:0:
318,122,69881,1,8,0:0:0:0:
318,122,70043,1,0,0:0:0:0:
307,148,70205,1,12,0:0:0:0:
336,127,70530,1,0,0:0:0:0:
336,127,70692,1,8,0:0:0:0:
290,120,70854,1,0,0:0:0:0:
332,124,71016,1,8,0:0:0:0:
336,127,71178,1,8,0:0:0:0:
336,127,71259,1,8,0:0:0:0:
336,127,71341,1,8,0:0:0:0:
336,127,71503,1,4,0:0:0:0:
299,144,71989,1,8,0:0:0:0:
314,137,72313,1,0,0:0:0:0:
314,137,72476,1,0,0:0:0:0:
314,137,72638,1,8,0:0:0:0:
314,137,72800,1,0,0:0:0:0:
306,137,73124,1,0,0:0:0:0:
287,117,73286,1,8,0:0:0:0:
294,122,73611,1,8,0:0:0:0:
294,122,73773,1,0,0:0:0:0:
294,122,73935,1,8,0:0:0:0:
294,122,74097,1,0,0:0:0:0:
272,117,74422,1,0,0:0:0:0:
272,117,74584,1,8,0:0:0:0:
292,133,74908,1,0,0:0:0:0:
292,133,75070,1,0,0:0:0:0:
292,133,75232,1,8,0:0:0:0:
292,133,75395,1,8,0:0:0:0:
287,126,75719,1,0,0:0:0:0:
277,124,75881,1,8,0:0:0:0:
277,124,76043,1,0,0:0:0:0:
277,122,76368,1,8,0:0:0:0:
277,122,76530,1,8,0:0:0:0:
277,122,76692,1,0,0:0:0:0:
291,121,76854,1,8,0:0:0:0:
291,121,77016,1,0,0:0:0:0:
291,121,77178,1,12,0:0:0:0:
296,132,77503,1,0,0:0:0:0:
296,132,77584,1,0,0:0:0:0:
296,132,77665,1,0,0:0:0:0:
296,132,77827,1,8,0:0:0:0:
296,132,77989,1,4,0:0:0:0:
328,109,78476,1,8,0:0:0:0:
328,109,78800,1,0,0:0:0:0:
328,109,78962,1,0,0:0:0:0:
328,109,79124,1,8,0:0:0:0:
328,109,79286,1,4,0:0:0:0:
308,115,79611,1,0,0:0:0:0:
308,115,79773,1,8,0:0:0:0:
317,109,80097,1,0,0:0:0:0:
317,109,80259,1,8,0:0:0:0:
317,109,80341,1,8,0:0:0:0:
317,109,80422,1,8,0:0:0:0:
317,109,80584,1,8,0:0:0:0:
317,109,80746,1,4,0:0:0:0:
336,143,81395,1,8,0:0:0:0:
249,118,81719,1,0,0:0:0:0:
249,118,81881,1,0,0:0:0:0:
249,118,82043,1,8,0:0:0:0:
297,95,82368,1,0,0:0:0:0:
228,105,82692,1,8,0:0:0:0:
228,105,83016,1,0,0:0:0:0:
216,164,83178,1,8,0:0:0:0:
228,105,83341,1,0,0:0:0:0:
248,203,83665,1,0,0:0:0:0:
228,105,83989,1,8,0:0:0:0:
266,167,84313,1,8,0:0:0:0:
193,170,84476,1,8,0:0:0:0:
189,169,84638,1,0,0:0:0:0:
303,172,84962,1,0,0:0:0:0:
303,172,85286,1,12,0:0:0:0:
303,172,85449,1,12,0:0:0:0:
303,172,85773,1,4,0:0:0:0:
266,122,86097,1,0,0:0:0:0:
266,122,86259,1,8,0:0:0:0:
287,130,86584,1,8,0:0:0:0:
287,130,86746,1,0,0:0:0:0:
325,129,87070,1,8,0:0:0:0:
319,138,87395,1,0,0:0:0:0:
319,138,87557,1,8,0:0:0:0:
321,137,87881,1,8,0:0:0:0:
321,137,88043,1,8,0:0:0:0:
319,138,88368,1,0,0:0:0:0:
321,137,88692,1,8,0:0:0:0:
321,137,88854,1,0,0:0:0:0:
319,138,89178,1,0,0:0:0:0:
314,135,89341,1,8,0:0:0:0:
314,135,89665,1,0,0:0:0:0:
341,152,89989,1,0,0:0:0:0:
341,152,90151,1,8,0:0:0:0:
334,142,90476,1,0,0:0:0:0:
334,142,90638,1,0,0:0:0:0:
334,142,90800,1,8,0:0:0:0:
334,142,90962,1,8,0:0:0:0:
334,142,91124,1,4,0:0:0:0:
353,127,91773,1,0,0:0:0:0:
353,127,92097,1,0,0:0:0:0:
353,127,92259,1,8,0:0:0:0:
353,127,92422,1,0,0:0:0:0:
353,127,92746,1,0,0:0:0:0:
302,109,93070,1,0,0:0:0:0:
302,109,93232,1,8,0:0:0:0:
302,109,93395,1,8,0:0:0:0:
302,109,93719,1,0,0:0:0:0:
306,128,94043,1,0,0:0:0:0:
308,143,94368,1,0,0:0:0:0:
297,144,94692,1,8,0:0:0:0:
297,144,94854,1,8,0:0:0:0:
313,151,95665,1,8,0:0:0:0:
313,151,95827,1,0,0:0:0:0:
313,151,95989,1,8,0:0:0:0:
313,151,96151,1,4,0:0:0:0:
266,122,96476,1,0,0:0:0:0:
266,122,96638,1,8,0:0:0:0:
287,130,96963,1,8,0:0:0:0:
287,130,97125,1,0,0:0:0:0:
325,129,97449,1,8,0:0:0:0:
319,138,97774,1,0,0:0:0:0:
319,138,97936,1,8,0:0:0:0:
321,137,98260,1,8,0:0:0:0:
321,137,98422,1,8,0:0:0:0:
319,138,98747,1,0,0:0:0:0:
321,137,99071,1,8,0:0:0:0:
321,137,99233,1,0,0:0:0:0:
319,138,99557,1,8,0:0:0:0:
314,135,99719,1,8,0:0:0:0:
191,143,99882,1,4,0:0:0:0:
278,118,100205,1,0,0:0:0:0:
260,156,100368,1,0,0:0:0:0:
254,108,100530,1,8,0:0:0:0:
112,177,100692,1,0,0:0:0:0:
255,183,100854,1,8,0:0:0:0:
288,105,101178,1,8,0:0:0:0:
287,109,101503,1,4,0:0:0:0:
330,196,102151,1,0,0:0:0:0:
330,196,102476,1,0,0:0:0:0:
349,161,102638,1,0,0:0:0:0:
276,187,102800,1,8,0:0:0:0:
340,162,103124,1,0,0:0:0:0:
340,162,103449,1,0,0:0:0:0:
239,149,103611,1,8,0:0:0:0:
360,165,103773,1,0,0:0:0:0:
360,165,103935,1,8,0:0:0:0:
360,165,104097,1,0,0:0:0:0:
360,165,104422,1,8,0:0:0:0:
256,155,104584,1,0,0:0:0:0:
342,144,104746,1,0,0:0:0:0:
299,105,105070,1,0,0:0:0:0:
306,124,105395,1,8,0:0:0:0:
306,124,105476,1,8,0:0:0:0:
306,124,105557,1,8,0:0:0:0:
306,124,105719,1,0,0:0:0:0:
300,115,106043,1,0,0:0:0:0:
300,115,106205,1,8,0:0:0:0:
300,115,106368,1,0,0:0:0:0:
300,115,106530,1,8,0:0:0:0:
300,115,106692,1,4,0:0:0:0:
280,149,107016,1,8,0:0:0:0:
280,149,107259,1,0,0:0:0:0:
276,112,107341,1,0,0:0:0:0:
276,112,107503,1,0,0:0:0:0:
276,112,107665,1,8,0:0:0:0:
281,123,107908,1,0,0:0:0:0:
281,123,107989,1,0,0:0:0:0:
281,123,108151,1,0,0:0:0:0:
281,123,108313,1,8,0:0:0:0:
303,155,108557,1,0,0:0:0:0:
261,99,108638,1,0,0:0:0:0:
267,99,108800,1,8,0:0:0:0:
267,99,108962,1,8,0:0:0:0:
242,82,109286,1,4,0:0:0:0:
320,166,109773,1,8,0:0:0:0:
275,90,109935,1,0,0:0:0:0:
275,90,110097,1,0,0:0:0:0:
275,90,110259,1,8,0:0:0:0:
275,90,110422,1,8,0:0:0:0:
275,90,110584,1,0,0:0:0:0:
275,90,110827,1,8,0:0:0:0:
275,90,110908,1,8,0:0:0:0:
250,146,111070,1,0,0:0:0:0:
250,146,111232,1,8,0:0:0:0:
250,146,111395,1,8,0:0:0:0:
297,97,111557,1,12,0:0:0:0:
297,97,111881,1,4,0:0:0:0:
284,107,112205,1,8,0:0:0:0:
287,113,112368,1,8,0:0:0:0:
287,113,112530,1,0,0:0:0:0:
287,113,112611,1,0,0:0:0:0:
287,113,112692,1,0,0:0:0:0:
287,113,112854,1,8,0:0:0:0:
287,113,113016,1,8,0:0:0:0:
287,113,113097,1,8,0:0:0:0:
287,113,113178,1,8,0:0:0:0:
282,108,115124,5,0,0:0:0:0:
282,106,115286,1,0,0:0:0:0:
282,106,115449,1,0,0:0:0:0:
282,106,115611,1,12,0:0:0:0:
279,167,115935,1,0,0:0:0:0:
279,167,116097,1,8,0:0:0:0:
291,146,116421,1,8,0:0:0:0:
196,129,116503,1,8,0:0:0:0:
283,139,116583,1,8,0:0:0:0:
283,139,116746,1,0,0:0:0:0:
283,137,116908,1,8,0:0:0:0:
283,137,117232,1,8,0:0:0:0:
196,129,117395,1,0,0:0:0:0:
277,142,117556,1,8,0:0:0:0:
277,142,117719,1,8,0:0:0:0:
277,142,117881,1,0,0:0:0:0:
215,151,118043,1,0,0:0:0:0:
277,142,118205,1,8,0:0:0:0:
277,142,118529,1,0,0:0:0:0:
277,142,118692,1,8,0:0:0:0:
266,140,119016,1,8,0:0:0:0:
270,132,119178,1,0,0:0:0:0:
270,132,119340,1,8,0:0:0:0:
270,132,119502,1,0,0:0:0:0:
306,142,119584,1,0,0:0:0:0:
277,142,119665,1,0,0:0:0:0:
275,145,119827,1,0,0:0:0:0:
252,142,119989,1,8,0:0:0:0:
252,142,120151,1,0,0:0:0:0:
261,139,120475,1,0,0:0:0:0:
261,139,120638,1,8,0:0:0:0:
261,170,120800,1,8,0:0:0:0:
261,170,120962,1,0,0:0:0:0:
261,170,121043,1,0,0:0:0:0:
261,139,121124,1,0,0:0:0:0:
261,139,121286,1,12,0:0:0:0:
291,137,121611,1,0,0:0:0:0:
291,137,121773,1,0,0:0:0:0:
291,137,121935,1,8,0:0:0:0:
291,137,122097,1,4,0:0:0:0:
317,133,122583,1,8,0:0:0:0:
312,125,122908,1,8,0:0:0:0:
312,125,123070,1,0,0:0:0:0:
312,125,123151,1,0,0:0:0:0:
312,125,123232,1,0,0:0:0:0:
293,158,123394,1,12,0:0:0:0:
241,179,123719,1,0,0:0:0:0:
297,150,123881,1,8,0:0:0:0:
287,120,124043,1,0,0:0:0:0:
287,120,124124,1,0,0:0:0:0:
287,120,124205,1,0,0:0:0:0:
286,145,124368,1,0,0:0:0:0:
287,120,124530,1,8,0:0:0:0:
287,120,124692,1,8,0:0:0:0:
287,120,124854,1,4,0:0:0:0:
286,145,125178,1,12,0:0:0:0:
269,119,125502,1,8,0:0:0:0:
149,134,125584,1,8,0:0:0:0:
269,119,125665,1,8,0:0:0:0:
269,119,125827,1,0,0:0:0:0:
269,119,125989,1,8,0:0:0:0:
316,99,126313,1,8,0:0:0:0:
149,134,126476,1,0,0:0:0:0:
322,115,126638,1,8,0:0:0:0:
302,134,126800,1,0,0:0:0:0:
302,134,126962,1,8,0:0:0:0:
322,114,127124,1,8,0:0:0:0:
322,114,127286,1,0,0:0:0:0:
322,115,127611,1,0,0:0:0:0:
322,115,127773,1,8,0:0:0:0:
312,104,128097,1,8,0:0:0:0:
322,114,128259,1,0,0:0:0:0:
312,104,128421,1,8,0:0:0:0:
322,115,128583,1,8,0:0:0:0:
305,94,128665,1,8,0:0:0:0:
312,104,128746,1,8,0:0:0:0:
312,104,128908,1,0,0:0:0:0:
312,104,129070,1,0,0:0:0:0:
312,104,129232,1,8,0:0:0:0:
315,117,129556,1,8,0:0:0:0:
315,117,129719,1,0,0:0:0:0:
163,132,129881,1,8,0:0:0:0:
315,117,130043,1,0,0:0:0:0:
315,117,130124,1,0,0:0:0:0:
315,117,130205,1,0,0:0:0:0:
285,115,130367,1,12,0:0:0:0:
303,154,130692,1,0,0:0:0:0:
303,154,130854,1,0,0:0:0:0:
303,154,131016,1,8,0:0:0:0:
303,154,131178,1,4,0:0:0:0:
303,154,131665,1,8,0:0:0:0:
276,184,131989,1,8,0:0:0:0:
258,138,132070,1,8,0:0:0:0:
276,184,132151,1,8,0:0:0:0:
276,184,132313,1,0,0:0:0:0:
307,148,132475,1,12,0:0:0:0:
286,109,132800,1,0,0:0:0:0:
286,109,132962,1,8,0:0:0:0:
292,105,133124,1,0,0:0:0:0:
292,105,133286,1,0,0:0:0:0:
292,105,133368,1,0,0:0:0:0:
261,112,133449,1,0,0:0:0:0:
261,112,133611,1,12,0:0:0:0:
261,112,133935,1,4,0:0:0:0:
261,112,134097,1,4,0:0:0:0:
335,114,134422,1,12,0:0:0:0:
335,114,134584,1,4,0:0:0:0:
335,114,134908,1,12,0:0:0:0:
335,114,135070,1,12,0:0:0:0:
335,114,135395,1,4,0:0:0:0:
335,114,135557,1,12,0:0:0:0:
335,114,135881,1,4,0:0:0:0:
335,114,136205,1,4,0:0:0:0:
335,114,136530,1,12,0:0:0:0:
283,101,137016,1,0,0:0:0:0:
283,101,137178,1,12,0:0:0:0:
292,109,137503,1,8,0:0:0:0:
308,127,137665,1,0,0:0:0:0:
292,109,137827,1,0,0:0:0:0:
292,109,137989,1,8,0:0:0:0:
292,109,138313,1,0,0:0:0:0:
292,109,138476,1,12,0:0:0:0:
292,109,138800,1,8,0:0:0:0:
292,109,138962,1,0,0:0:0:0:
298,111,139124,1,8,0:0:0:0:
292,109,139286,1,0,0:0:0:0:
292,109,139449,1,0,0:0:0:0:
292,109,139611,1,8,0:0:0:0:
292,109,139935,1,0,0:0:0:0:
298,111,140097,1,8,0:0:0:0:
292,109,140422,1,8,0:0:0:0:
289,103,141070,1,0,0:0:0:0:
251,120,141395,1,0,0:0:0:0:
198,66,141719,1,12,0:0:0:0:
325,120,142854,1,8,0:0:0:0:
319,120,143016,1,0,0:0:0:0:
289,107,144313,1,8,0:0:0:0:
293,126,144962,1,8,0:0:0:0:
293,126,145611,1,8,0:0:0:0:
293,126,146259,1,0,0:0:0:0:
293,126,146908,1,8,0:0:0:0:
293,126,147881,1,8,0:0:0:0:
293,126,148043,1,8,0:0:0:0:
293,126,148205,1,0,0:0:0:0:
303,128,149503,1,8,0:0:0:0:
303,128,150800,1,0,0:0:0:0:
306,137,151449,1,8,0:0:0:0:
303,128,151773,1,0,0:0:0:0:
307,127,151935,1,8,0:0:0:0:
307,127,152097,1,0,0:0:0:0:
316,113,152422,1,0,0:0:0:0:
316,113,152584,1,8,0:0:0:0:
316,113,152908,1,8,0:0:0:0:
316,113,153070,1,0,0:0:0:0:
316,113,153232,1,0,0:0:0:0:
316,113,153395,1,8,0:0:0:0:
316,113,153719,1,0,0:0:0:0:
316,113,153881,1,8,0:0:0:0:
316,113,154205,1,8,0:0:0:0:
316,113,154368,1,0,0:0:0:0:
316,113,154692,1,8,0:0:0:0:
316,113,155016,1,8,0:0:0:0:
316,113,155178,1,0,0:0:0:0:
316,113,155341,1,8,0:0:0:0:
316,113,155665,1,0,0:0:0:0:
316,113,155827,1,0,0:0:0:0:
316,113,155989,1,8,0:0:0:0:
316,113,156313,1,8,0:0:0:0:
316,113,156476,1,0,0:0:0:0:
301,103,156800,1,0,0:0:0:0:
291,123,157286,1,8,0:0:0:0:
310,119,157935,1,8,0:0:0:0:
310,119,158097,1,8,0:0:0:0:
310,119,158259,1,0,0:0:0:0:
310,119,158422,1,0,0:0:0:0:
310,119,158746,1,8,0:0:0:0:
310,119,159232,1,0,0:0:0:0:
305,106,159557,1,0,0:0:0:0:
316,86,159881,1,8,0:0:0:0:
305,106,160205,1,0,0:0:0:0:
305,106,160530,1,8,0:0:0:0:
305,106,160692,1,0,0:0:0:0:
305,106,160854,1,8,0:0:0:0:
270,86,161016,1,8,0:0:0:0:
333,146,161827,1,0,0:0:0:0:
328,98,162476,1,12,0:0:0:0:
270,143,162800,1,8,0:0:0:0:
270,143,162962,1,0,0:0:0:0:
270,143,163286,1,0,0:0:0:0:
270,143,163449,1,0,0:0:0:0:
270,143,163611,1,8,0:0:0:0:
270,143,163935,1,0,0:0:0:0:
270,143,164097,1,8,0:0:0:0:
270,143,164259,1,0,0:0:0:0:
270,143,164341,1,0,0:0:0:0:
270,143,164422,1,0,0:0:0:0:
299,159,164584,1,0,0:0:0:0:
299,159,164746,1,8,0:0:0:0:
299,159,164908,1,0,0:0:0:0:
286,136,165232,1,8,0:0:0:0:
286,136,165313,1,8,0:0:0:0:
286,136,165395,1,8,0:0:0:0:
273,141,165557,1,8,0:0:0:0:
253,118,165719,1,0,0:0:0:0:
273,141,165881,1,0,0:0:0:0:
253,118,166043,1,8,0:0:0:0:
253,118,166205,1,0,0:0:0:0:
253,118,166530,1,8,0:0:0:0:
253,118,166692,1,0,0:0:0:0:
253,118,166854,1,8,0:0:0:0:
267,124,167178,1,0,0:0:0:0:
267,124,167341,1,8,0:0:0:0:
263,122,167503,1,8,0:0:0:0:
257,121,167665,1,0,0:0:0:0:
257,121,167827,1,0,0:0:0:0:
257,121,167989,1,12,0:0:0:0:
322,135,168476,1,8,0:0:0:0:
347,134,168638,1,0,0:0:0:0:
347,134,168800,1,12,0:0:0:0:
282,99,169124,1,8,0:0:0:0:
294,110,169286,1,8,0:0:0:0:
294,110,169449,1,0,0:0:0:0:
285,92,169611,1,0,0:0:0:0:
285,92,169773,1,8,0:0:0:0:
285,92,169935,1,0,0:0:0:0:
285,92,170097,1,12,0:0:0:0:
279,101,170422,1,8,0:0:0:0:
279,101,170503,1,8,0:0:0:0:
279,101,170584,1,8,0:0:0:0:
279,101,170746,1,0,0:0:0:0:
280,104,170908,1,8,0:0:0:0:
274,103,171070,1,0,0:0:0:0:
274,103,171232,1,0,0:0:0:0:
300,113,171395,1,12,0:0:0:0:
310,127,171881,1,8,0:0:0:0:
288,135,172043,1,8,0:0:0:0:
288,135,172205,1,0,0:0:0:0:
288,135,172286,1,0,0:0:0:0:
288,135,172368,1,0,0:0:0:0:
288,135,172530,1,0,0:0:0:0:
288,135,172692,1,8,0:0:0:0:
299,127,173016,1,8,0:0:0:0:
299,127,173178,1,0,0:0:0:0:
299,127,173341,1,8,0:0:0:0:
299,127,173422,1,8,0:0:0:0:
299,127,173503,1,8,0:0:0:0:
299,127,173665,1,8,0:0:0:0:
299,127,173827,1,0,0:0:0:0:
299,127,173989,1,0,0:0:0:0:
284,128,174313,1,0,0:0:0:0:
284,128,174476,1,8,0:0:0:0:
275,127,174638,1,0,0:0:0:0:
275,127,174800,1,0,0:0:0:0:
275,127,174962,1,8,0:0:0:0:
275,127,175124,1,8,0:0:0:0:
275,127,175286,1,0,0:0:0:0:
275,127,175611,1,8,0:0:0:0:
275,127,175773,1,0,0:0:0:0:
275,127,175935,1,8,0:0:0:0:
275,127,176016,1,8,0:0:0:0:
275,127,176097,1,8,0:0:0:0:
271,144,176259,1,0,0:0:0:0:
271,144,176422,1,8,0:0:0:0:
271,144,176584,1,8,0:0:0:0:
271,144,176746,1,0,0:0:0:0:
271,144,176908,1,0,0:0:0:0:
326,126,177070,1,12,0:0:0:0:
302,153,177395,1,0,0:0:0:0:
289,132,177557,1,8,0:0:0:0:
289,132,177719,1,8,0:0:0:0:
289,132,177881,1,4,0:0:0:0:
293,119,178368,1,8,0:0:0:0:
293,118,178530,1,0,0:0:0:0:
293,118,178692,1,8,0:0:0:0:
293,118,178773,1,8,0:0:0:0:
293,118,178854,1,8,0:0:0:0:
293,119,179016,1,0,0:0:0:0:
293,119,179178,1,12,0:0:0:0:
309,124,179503,1,0,0:0:0:0:
309,124,179665,1,8,0:0:0:0:
309,127,179827,1,0,0:0:0:0:
309,127,179908,1,0,0:0:0:0:
309,127,179989,1,0,0:0:0:0:
309,127,180151,1,8,0:0:0:0:
309,124,180313,1,0,0:0:0:0:
309,124,180476,1,0,0:0:0:0:
309,124,180638,1,4,0:0:0:0:
341,126,181286,1,0,0:0:0:0:
341,126,181611,1,0,0:0:0:0:
288,150,181773,1,8,0:0:0:0:
288,150,181854,1,8,0:0:0:0:
288,150,181935,1,8,0:0:0:0:
343,132,182259,1,0,0:0:0:0:
343,132,182584,1,0,0:0:0:0:
351,130,182746,1,0,0:0:0:0:
351,130,182908,1,8,0:0:0:0:
351,130,183232,1,0,0:0:0:0:
351,130,183557,1,8,0:0:0:0:
318,96,183719,1,0,0:0:0:0:
351,130,183881,1,0,0:0:0:0:
313,116,184205,1,0,0:0:0:0:
312,105,184530,1,8,0:0:0:0:
312,105,184611,1,8,0:0:0:0:
312,105,184692,1,8,0:0:0:0:
312,105,184854,1,0,0:0:0:0:
285,93,185178,1,0,0:0:0:0:
285,93,185341,1,8,0:0:0:0:
285,93,185503,1,0,0:0:0:0:
285,93,185665,1,8,0:0:0:0:
285,93,185827,1,4,0:0:0:0:
321,151,186151,1,0,0:0:0:0:
285,133,186476,1,8,0:0:0:0:
332,113,186800,1,8,0:0:0:0:
332,113,187124,1,0,0:0:0:0:
332,113,187449,1,0,0:0:0:0:
310,125,187773,1,8,0:0:0:0:
310,125,187935,1,8,0:0:0:0:
310,125,188097,1,8,0:0:0:0:
349,143,188422,1,0,0:0:0:0:
271,167,188908,1,8,0:0:0:0:
349,143,189070,1,0,0:0:0:0:
349,143,189232,1,0,0:0:0:0:
349,143,189395,1,8,0:0:0:0:
349,143,189557,1,8,0:0:0:0:
349,143,189719,1,0,0:0:0:0:
333,121,189962,1,8,0:0:0:0:
333,121,190043,1,8,0:0:0:0:
333,121,190205,1,0,0:0:0:0:
333,121,190368,1,8,0:0:0:0:
333,121,190530,1,8,0:0:0:0:
333,121,190692,1,12,0:0:0:0:
311,130,191016,1,4,0:0:0:0:
298,122,191341,1,0,0:0:0:0:
298,122,191503,1,8,0:0:0:0:
298,122,191665,1,0,0:0:0:0:
298,122,191746,1,0,0:0:0:0:
298,122,191827,1,0,0:0:0:0:
307,123,191989,1,0,0:0:0:0:
307,123,192151,1,8,0:0:0:0:
307,123,192232,1,8,0:0:0:0:
307,123,192313,1,8,0:0:0:0:
331,123,194259,5,0,0:0:0:0:
331,123,194422,1,0,0:0:0:0:
331,123,194584,1,0,0:0:0:0:
331,123,194746,1,12,0:0:0:0:
279,167,195070,1,0,0:0:0:0:
279,167,195232,1,8,0:0:0:0:
283,143,195395,1,0,0:0:0:0:
291,146,195556,1,8,0:0:0:0:
253,116,195638,1,8,0:0:0:0:
283,139,195719,1,8,0:0:0:0:
283,139,195881,1,0,0:0:0:0:
283,137,196043,1,8,0:0:0:0:
253,116,196368,1,8,0:0:0:0:
283,137,196530,1,0,0:0:0:0:
277,142,196691,1,8,0:0:0:0:
277,142,196854,1,8,0:0:0:0:
277,142,197016,1,0,0:0:0:0:
215,151,197178,1,0,0:0:0:0:
277,142,197340,1,8,0:0:0:0:
277,142,197664,1,0,0:0:0:0:
277,142,197827,1,8,0:0:0:0:
266,140,198151,1,8,0:0:0:0:
270,132,198313,1,0,0:0:0:0:
270,132,198475,1,8,0:0:0:0:
270,132,198637,1,0,0:0:0:0:
306,142,198719,1,0,0:0:0:0:
277,142,198800,1,0,0:0:0:0:
275,145,198962,1,0,0:0:0:0:
252,142,199124,1,8,0:0:0:0:
252,142,199286,1,0,0:0:0:0:
261,139,199610,1,0,0:0:0:0:
261,139,199773,1,8,0:0:0:0:
261,139,199935,1,8,0:0:0:0:
261,139,200097,1,0,0:0:0:0:
193,115,200178,1,0,0:0:0:0:
261,139,200259,1,0,0:0:0:0:
261,139,200421,1,12,0:0:0:0:
291,137,200746,1,0,0:0:0:0:
291,137,200908,1,0,0:0:0:0:
291,137,201070,1,8,0:0:0:0:
291,137,201232,1,4,0:0:0:0:
317,133,201718,1,8,0:0:0:0:
312,125,202043,1,8,0:0:0:0:
312,125,202205,1,0,0:0:0:0:
312,125,202286,1,0,0:0:0:0:
312,125,202367,1,0,0:0:0:0:
293,158,202529,1,12,0:0:0:0:
297,178,202854,1,0,0:0:0:0:
297,150,203016,1,8,0:0:0:0:
287,120,203178,1,8,0:0:0:0:
234,173,203341,1,0,0:0:0:0:
234,173,203503,1,8,0:0:0:0:
234,173,203584,1,8,0:0:0:0:
234,173,203665,1,8,0:0:0:0:
287,120,203827,1,0,0:0:0:0:
287,120,203908,1,0,0:0:0:0:
287,120,203989,1,0,0:0:0:0:
281,157,204313,1,12,0:0:0:0:
284,151,204476,1,0,0:0:0:0:
269,119,204638,1,8,0:0:0:0:
199,155,204719,1,8,0:0:0:0:
269,119,204800,1,8,0:0:0:0:
269,119,204962,1,0,0:0:0:0:
269,119,205124,1,8,0:0:0:0:
204,152,205449,1,8,0:0:0:0:
316,99,205611,1,0,0:0:0:0:
322,115,205773,1,8,0:0:0:0:
302,134,205935,1,0,0:0:0:0:
302,134,206097,1,8,0:0:0:0:
322,114,206259,1,8,0:0:0:0:
322,114,206422,1,0,0:0:0:0:
322,115,206746,1,0,0:0:0:0:
322,115,206908,1,8,0:0:0:0:
312,104,207232,1,8,0:0:0:0:
322,114,207394,1,0,0:0:0:0:
312,104,207557,1,8,0:0:0:0:
322,115,207719,1,8,0:0:0:0:
198,196,207800,1,8,0:0:0:0:
312,104,207881,1,8,0:0:0:0:
312,104,208043,1,0,0:0:0:0:
312,104,208205,1,0,0:0:0:0:
312,104,208367,1,8,0:0:0:0:
315,117,208692,1,8,0:0:0:0:
315,117,208854,1,0,0:0:0:0:
321,142,209016,1,8,0:0:0:0:
315,117,209178,1,0,0:0:0:0:
315,117,209259,1,0,0:0:0:0:
315,117,209340,1,0,0:0:0:0:
285,115,209502,1,12,0:0:0:0:
303,154,209827,1,0,0:0:0:0:
303,154,209989,1,0,0:0:0:0:
303,154,210151,1,8,0:0:0:0:
303,154,210313,1,4,0:0:0:0:
303,154,210800,1,8,0:0:0:0:
318,122,211124,1,8,0:0:0:0:
286,138,211205,1,8,0:0:0:0:
318,122,211286,1,8,0:0:0:0:
318,122,211448,1,0,0:0:0:0:
307,148,211610,1,12,0:0:0:0:
297,112,211935,1,0,0:0:0:0:
295,130,212097,1,8,0:0:0:0:
352,119,212259,1,0,0:0:0:0:
352,119,212422,1,8,0:0:0:0:
281,127,212503,1,8,0:0:0:0:
281,127,212584,1,8,0:0:0:0:
281,127,212746,1,0,0:0:0:0:
281,127,212827,1,0,0:0:0:0:
281,127,212908,1,0,0:0:0:0:
281,127,213070,1,12,0:0:0:0:
281,148,213395,1,8,0:0:0:0:
281,148,213719,1,8,0:0:0:0:
281,148,213881,1,0,0:0:0:0:
281,148,214043,1,8,0:0:0:0:
281,148,214205,1,0,0:0:0:0:
281,148,214368,1,8,0:0:0:0:
291,117,214692,1,8,0:0:0:0:
286,137,214854,1,8,0:0:0:0:
291,117,215016,1,0,0:0:0:0:
267,131,215178,1,8,0:0:0:0:
268,131,215259,1,8,0:0:0:0:
291,117,215341,1,8,0:0:0:0:
291,117,215503,1,8,0:0:0:0:
291,117,215665,1,0,0:0:0:0:
276,128,215989,1,8,0:0:0:0:
276,128,216313,1,8,0:0:0:0:
276,128,216476,1,8,0:0:0:0:
276,128,216638,1,0,0:0:0:0:
276,128,216800,1,0,0:0:0:0:
276,128,216962,1,8,0:0:0:0:
276,128,217286,1,8,0:0:0:0:
276,128,217449,1,8,0:0:0:0:
231,137,217530,1,8,0:0:0:0:
276,128,217611,1,8,0:0:0:0:
276,128,217773,1,0,0:0:0:0:
276,128,217935,1,8,0:0:0:0:
276,128,218097,1,0,0:0:0:0:
276,128,218259,1,12,0:0:0:0:
276,128,218584,1,8,0:0:0:0:
276,128,218908,1,0,0:0:0:0:
276,128,219232,1,8,0:0:0:0:
294,127,219395,1,0,0:0:0:0:
276,128,219557,1,8,0:0:0:0:
292,92,219719,1,8,0:0:0:0:
228,144,219881,1,0,0:0:0:0:
320,166,220205,1,8,0:0:0:0:
255,129,220368,1,8,0:0:0:0:
255,129,220530,1,0,0:0:0:0:
226,136,220611,1,0,0:0:0:0:
149,136,220692,1,0,0:0:0:0:
303,159,220854,1,12,0:0:0:0:
282,117,221178,1,0,0:0:0:0:
291,106,221503,1,0,0:0:0:0:
302,104,221665,1,0,0:0:0:0:
291,96,221827,1,8,0:0:0:0:
291,96,221989,1,0,0:0:0:0:
256,119,222151,1,12,0:0:0:0:
320,103,222476,1,0,0:0:0:0:
320,103,222638,1,8,0:0:0:0:
320,103,222962,1,8,0:0:0:0:
320,103,223124,1,0,0:0:0:0:
256,119,223449,1,12,0:0:0:0:
256,192,223611,8,0,226530,0:0:0:0:
