osu file format v14

[General]
AudioFilename: audio.mp3
AudioLeadIn: 0
PreviewTime: 115043
Countdown: 0
SampleSet: Normal
StackLeniency: 0.7
Mode: 1
LetterboxInBreaks: 0
WidescreenStoryboard: 0

[Editor]
Bookmarks: 314,5341,18476,23503,28854,33881,39232,53341,71503,80746,85773,91124,96151,101503,115611,133935,141719,152097,162476,171395,180638,194746,213070,223449,226530
DistanceSpacing: 2
BeatDivisor: 4
GridSize: 4
TimelineZoom: 1.2

[Metadata]
Title:Heart no Shuchou
TitleUnicode:ハートの主張
Artist:CHiCO with HoneyWorks
ArtistUnicode:CHiCO with HoneyWorks
Creator:Zhuosh
Version:Heartache
Source:
Tags:-maruko- japanese pop jpop j-pop rock j-rock jrock Sekai wa i ni Michiteiru 世界はiに満ちている Confession Executive Committee 告白実行委員会 Love Series ~恋愛シリーズ~ Arisa Takamizawa 高見沢 アリサ Karen Miura 三浦加恋 female vocals vocalist
BeatmapID:4302170
BeatmapSetID:2058430

[Difficulty]
HPDrainRate:6
CircleSize:5
OverallDifficulty:6
ApproachRate:5
SliderMultiplier:1.4
SliderTickRate:1

[Events]
//Background and Video events
0,0,"bg.jpg",0,40
//Break Periods
//Storyboard Layer 0 (Background)
//Storyboard Layer 1 (Fail)
//Storyboard Layer 2 (Pass)
//Storyboard Layer 3 (Foreground)
//Storyboard Layer 4 (Overlay)
//Storyboard Sound Samples

[TimingPoints]
314,324.324324324324,4,1,0,50,1,0
314,-125,4,1,0,50,0,0
4847,-90.909090909091,4,1,0,70,0,0
5334,-100,4,1,0,70,0,0
17334,-100,4,1,0,70,0,0
17496,-101.447979978548,4,1,0,70,0,0
17658,-102.938508978777,4,1,0,70,0,0
17739,-103.700319780722,4,1,0,70,0,0
17820,-104.473490427099,4,1,0,70,0,0
17982,-106.054943001308,4,1,0,70,0,0
18144,-107.685009487666,4,1,0,70,0,0
18306,-109.365966467527,4,1,0,70,0,0
18469,-111.111111111111,4,1,0,60,0,0
23009,-90.909090909091,4,1,0,70,0,0
23496,-100,4,1,0,70,0,0
27712,-100,4,1,0,70,0,0
27874,-101.447979978548,4,1,0,70,0,0
28036,-102.938508978777,4,1,0,70,0,0
28117,-103.700319780722,4,1,0,70,0,0
28199,-104.483107797109,4,1,0,70,0,0
28361,-106.064853751986,4,1,0,70,0,0
28523,-107.695227251162,4,1,0,70,0,0
28604,-108.529355517307,4,1,0,70,0,0
28685,-109.376505733834,4,1,0,70,0,0
28847,-111.111111111111,4,1,0,60,0,0
33388,-111.111111111111,4,1,0,60,0,0
33550,-107.142857142857,4,1,0,60,0,0
33712,-103.448275862069,4,1,0,60,0,0
33874,-100,4,1,0,70,0,0
38252,-100,4,1,0,70,0,0
38415,-101.703773387687,4,1,0,70,0,0
38577,-103.455608718767,4,1,0,70,0,0
38658,-104.354354354354,4,1,0,70,0,0
38739,-105.268852104295,4,1,0,70,0,0
38820,-106.199519755512,4,1,0,70,0,0
38901,-107.146790001101,4,1,0,70,0,0
39063,-109.09294763987,4,1,0,70,0,0
39225,-111.111111111111,4,1,0,65,0,0
47009,-111.111111111111,4,1,0,65,0,0
47171,-109.376505733834,4,1,0,65,0,0
47334,-107.685009487666,4,1,0,65,0,0
47496,-106.054943001308,4,1,0,65,0,0
47577,-105.25827691737,4,1,0,65,0,0
47658,-104.473490427099,4,1,0,65,0,0
47820,-102.938508978777,4,1,0,65,0,0
47982,-101.447979978548,4,1,0,65,0,0
48144,-100,4,1,0,65,0,0
48225,-99.291400577377,4,1,0,65,0,0
48306,-98.59277275886,4,1,0,65,0,0
48469,-97.216274089936,4,1,0,65,0,0
48550,-96.546444368833,4,1,0,65,0,0
48631,-95.885781870406,4,1,0,65,0,0
48712,-95.234099681155,4,1,0,65,0,0
48793,-94.591215934661,4,1,0,65,0,0
48955,-93.331140531206,4,1,0,65,0,0
49036,-92.713608887437,4,1,0,65,0,0
49117,-92.104195406963,4,1,0,65,0,0
49279,-90.909090909091,4,1,0,65,0,0
49604,-111.111111111111,4,1,0,65,0,0
49766,-108.110360923564,4,1,0,65,0,0
49928,-105.267429591754,4,1,0,65,0,0
50009,-103.901305775855,4,1,0,65,0,0
50090,-102.570185844207,4,1,0,65,0,0
50252,-100.007710694734,4,1,0,65,0,0
50415,-97.555471981948,4,1,0,65,0,0
50496,-96.381065616408,4,1,0,65,0,0
50577,-95.234598722373,4,1,0,65,0,0
50658,-94.115085987954,4,1,0,65,0,0
50739,-93.021587893567,4,1,0,65,0,0
50820,-91.95320808224,4,1,0,65,0,0
50901,-90.909090909091,4,1,0,65,0,0
50982,-125,4,1,0,50,0,0
51225,-125,4,1,0,50,0,0
51469,-124.951624924402,4,1,0,50,0,0
51550,-124.885745523923,4,1,0,50,0,0
51712,-124.61640549861,4,1,0,50,0,0
51874,-124.095930331139,4,1,0,51,0,0
52117,-122.679524871419,4,1,0,52,0,0
52198,-122.00480080417,4,1,0,53,0,0
52361,-120.299864256511,4,1,0,55,0,0
52442,-119.270521144373,4,1,0,56,0,0
52523,-118.115966803407,4,1,0,57,0,0
52685,-115.426426267521,4,1,0,60,0,0
52847,-112.235783503465,4,1,0,64,0,0
52928,-110.460152490339,4,1,0,66,0,0
53009,-108.571081226004,4,1,0,68,0,0
53090,-106.575194505927,4,1,0,71,0,0
53171,-104.480213861962,4,1,0,74,0,0
53341,-90.909090909091,4,1,0,80,0,1
53415,-100,4,1,0,80,0,1
58692,-100,4,1,0,80,0,0
59016,-90.909090909091,4,1,0,80,0,1
59090,-100,4,1,0,80,0,1
59820,-90.909090909091,4,1,0,80,0,1
59901,-100,4,1,0,80,0,1
61117,-90.909090909091,4,1,0,80,0,1
61198,-100,4,1,0,80,0,1
61442,-100,4,1,0,80,0,1
61604,-101.447979978548,4,1,0,80,0,1
61766,-102.938508978777,4,1,0,80,0,1
61847,-103.700319780722,4,1,0,80,0,1
61928,-104.473490427099,4,1,0,80,0,1
62090,-106.054943001308,4,1,0,80,0,1
62252,-107.685009487666,4,1,0,80,0,1
62415,-109.376505733834,4,1,0,80,0,1
62496,-110.236985236985,4,1,0,80,0,1
62584,-111.111111111111,4,1,0,80,0,0
62908,-90.909090909091,4,1,0,80,0,1
62982,-100,4,1,0,80,0,1
67773,-100,4,1,0,80,0,0
68097,-90.909090909091,4,1,0,80,0,1
68171,-100,4,1,0,80,0,1
68901,-90.909090909091,4,1,0,80,0,1
68982,-100,4,1,0,80,0,1
70198,-90.909090909091,4,1,0,80,0,1
70279,-100,4,1,0,80,0,1
71503,-100,4,1,0,70,0,0
79604,-100,4,1,0,70,0,0
79766,-101.447979978548,4,1,0,70,0,0
79928,-102.938508978777,4,1,0,70,0,0
80090,-104.473490427099,4,1,0,70,0,0
80252,-106.054943001308,4,1,0,70,0,0
80334,-106.873822975518,4,1,0,70,0,0
80415,-107.695227251162,4,1,0,70,0,0
80496,-108.529355517307,4,1,0,70,0,0
80577,-109.376505733834,4,1,0,70,0,0
80739,-111.111111111111,4,1,0,60,0,0
85279,-90.909090909091,4,1,0,70,0,0
85766,-100,4,1,0,70,0,0
89982,-100,4,1,0,70,0,0
90144,-101.447979978548,4,1,0,70,0,0
90306,-102.938508978777,4,1,0,70,0,0
90388,-103.709795321637,4,1,0,70,0,0
90469,-104.483107797109,4,1,0,70,0,0
90631,-106.064853751986,4,1,0,70,0,0
90793,-107.695227251162,4,1,0,70,0,0
90874,-108.529355517307,4,1,0,70,0,0
90955,-109.376505733834,4,1,0,70,0,0
91117,-111.111111111111,4,1,0,60,0,0
95658,-111.111111111111,4,1,0,60,0,0
95820,-107.142857142857,4,1,0,60,0,0
95982,-103.448275862069,4,1,0,60,0,0
96144,-100,4,1,0,70,0,0
100036,-100,4,1,0,70,0,0
100117,-100.557889661822,4,1,0,70,0,0
100198,-101.122039063582,4,1,0,70,0,0
100361,-102.276707530648,4,1,0,70,0,0
100523,-103.450719195068,4,1,0,70,0,0
100604,-104.047890535918,4,1,0,70,0,0
100685,-104.651996272669,4,1,0,70,0,0
100847,-105.881499746174,4,1,0,70,0,0
100955,-106.717345223302,4,1,0,70,0,0
101063,-107.566492300891,4,1,0,70,0,0
101171,-108.429261047159,4,1,0,70,0,0
101279,-109.305981882159,4,1,0,70,0,0
101388,-110.205314009662,4,1,0,70,0,0
101496,-111.111111111111,4,1,0,65,0,0
106685,-111.111111111111,4,1,0,70,0,0
106847,-110.294951143758,4,1,0,70,0,0
107009,-109.490693853667,4,1,0,70,0,0
107252,-108.306062022752,4,1,0,70,0,0
107334,-107.912073287048,4,1,0,70,0,0
107496,-107.142070605854,4,1,0,70,0,0
107658,-106.382978723404,4,1,0,70,0,0
107820,-105.634567365107,4,1,0,70,0,0
107901,-105.264296687366,4,1,0,70,0,0
107982,-104.896612691089,4,1,0,70,0,0
108144,-104.168897072993,4,1,0,70,0,0
108306,-103.451208880005,4,1,0,70,0,0
108550,-102.388719351784,4,1,0,70,0,0
108631,-102.040816326531,4,1,0,70,0,0
108793,-101.352055165517,4,1,0,70,0,0
108955,-100.672529746508,4,1,0,70,0,0
109036,-100.336172582342,4,1,0,70,0,0
109117,-100.00205554071,4,1,0,70,0,0
109279,-99.34045290262,4,1,0,70,0,0
109442,-98.68354327674,4,1,0,70,0,0
109604,-98.039215686275,4,1,0,70,0,0
109766,-97.403247442289,4,1,0,70,0,0
109847,-97.088347402662,4,1,0,70,0,0
109928,-96.77547691512,4,1,0,70,0,0
110090,-96.155746615278,4,1,0,70,0,0
110252,-95.543903061725,4,1,0,70,0,0
110415,-94.936091325983,4,1,0,70,0,0
110496,-94.636917151361,4,1,0,70,0,0
110577,-94.339622641509,4,1,0,70,0,0
110739,-93.750602200682,4,1,0,70,0,0
110820,-93.458841609836,4,1,0,70,0,0
110901,-93.168891357221,4,1,0,70,0,0
110982,-92.880734645564,4,1,0,70,0,0
111063,-92.594354884757,4,1,0,70,0,0
111225,-92.026860872033,4,1,0,70,0,0
111306,-91.745714447357,4,1,0,70,0,0
111388,-91.462841458141,4,1,0,70,0,0
111550,-90.909090909091,4,1,0,70,0,0
111874,-111.111111111111,4,1,0,70,0,0
112036,-108.110360923564,4,1,0,70,0,0
112198,-105.267429591754,4,1,0,70,0,0
112279,-103.901305775855,4,1,0,70,0,0
112361,-102.553965367281,4,1,0,70,0,0
112523,-99.992290494179,4,1,0,70,0,0
112685,-97.555471981948,4,1,0,70,0,0
112766,-96.381065616408,4,1,0,70,0,0
112847,-95.234598722373,4,1,0,70,0,0
112928,-94.115085987954,4,1,0,70,0,0
113009,-93.021587893567,4,1,0,70,0,0
113090,-91.95320808224,4,1,0,70,0,0
113171,-90.909090909091,4,1,0,70,0,0
113252,-125,4,1,0,50,0,0
113496,-125,4,1,0,50,0,0
113739,-124.95214903068,4,1,0,50,0,0
113820,-124.886634950122,4,1,0,50,0,0
113982,-124.618215296458,4,1,0,50,0,0
114144,-124.098800812461,4,1,0,51,0,0
114388,-122.676282340207,4,1,0,52,0,0
114469,-122.000638493859,4,1,0,53,0,0
114631,-120.305376064846,4,1,0,55,0,0
114712,-119.276221906163,4,1,0,56,0,0
114793,-118.121749506482,4,1,0,57,0,0
114955,-115.432017934086,4,1,0,60,0,0
115117,-112.24068017913,4,1,0,64,0,0
115198,-110.464511476916,4,1,0,66,0,0
115279,-108.574780611218,4,1,0,68,0,0
115361,-106.552832304707,4,1,0,71,0,0
115442,-104.455799126273,4,1,0,74,0,0
115611,-90.909090909091,4,1,0,80,0,1
115685,-100,4,1,0,80,0,1
120962,-100,4,1,0,80,0,0
121286,-90.909090909091,4,1,0,80,0,1
121360,-100,4,1,0,80,0,1
122090,-90.909090909091,4,1,0,80,0,1
122171,-100,4,1,0,80,0,1
123388,-90.909090909091,4,1,0,80,0,1
123469,-100,4,1,0,80,0,1
123712,-100,4,1,0,80,0,1
123874,-101.447979978548,4,1,0,80,0,1
124036,-102.938508978777,4,1,0,80,0,1
124117,-103.700319780722,4,1,0,80,0,1
124198,-104.473490427099,4,1,0,80,0,1
124360,-106.054943001308,4,1,0,80,0,1
124522,-107.685009487666,4,1,0,80,0,1
124604,-108.529355517307,4,1,0,80,0,1
124685,-109.376505733834,4,1,0,80,0,1
124766,-110.236985236985,4,1,0,80,0,1
124854,-111.111111111111,4,1,0,80,0,0
125178,-90.909090909091,4,1,0,80,0,1
125252,-100,4,1,0,80,0,1
130043,-100,4,1,0,80,0,0
130368,-90.909090909091,4,1,0,80,0,1
130441,-100,4,1,0,80,0,1
131171,-90.909090909091,4,1,0,80,0,1
131252,-100,4,1,0,80,0,1
132469,-90.909090909091,4,1,0,80,0,1
132631,-93.02103250478,4,1,0,80,0,1
132793,-93.746989112631,4,1,0,80,0,1
132874,-94.3396226415094,4,1,0,80,0,1
132955,-95.233434471959,4,1,0,80,0,1
133117,-96.767777225261,4,1,0,80,0,1
133198,-97.553639462603,4,1,0,80,0,1
133279,-98.352370362883,4,1,0,80,0,1
133361,-99.174396086026,4,1,0,80,0,1
133442,-100,4,1,0,80,0,1
133604,-90.909090909091,4,1,0,80,0,1
133935,-100,4,1,0,70,0,0
141063,-100,4,1,0,70,0,0
141171,-101.692259479787,4,1,0,67,0,0
141279,-103.442779725853,4,1,0,63,0,0
141388,-105.271695052717,4,1,0,60,0,0
141496,-107.148753508337,4,1,0,57,0,0
141604,-109.093965372331,4,1,0,53,0,0
141712,-111.111111111111,4,1,0,50,0,0
152090,-111.111111111111,4,1,0,55,0,0
161820,-111.111111111111,4,1,0,40,0,0
162469,-100,4,1,0,70,0,0
171395,-100,4,1,0,75,0,1
179496,-100,4,1,0,75,0,1
179658,-101.447979978548,4,1,0,75,0,1
179820,-102.938508978777,4,1,0,75,0,1
179901,-103.700319780722,4,1,0,75,0,1
179982,-104.473490427099,4,1,0,75,0,1
180144,-106.054943001308,4,1,0,75,0,1
180306,-107.685009487666,4,1,0,75,0,1
180469,-109.376505733834,4,1,0,75,0,1
180638,-111.111111111111,4,1,0,65,0,0
188415,-111.111111111111,4,1,0,65,0,0
188577,-109.376505733834,4,1,0,65,0,0
188739,-107.695227251162,4,1,0,65,0,0
188901,-106.064853751986,4,1,0,65,0,0
188982,-105.268039324801,4,1,0,65,0,0
189063,-104.483107797109,4,1,0,65,0,0
189225,-102.947845804989,4,1,0,65,0,0
189388,-101.447979978548,4,1,0,65,0,0
189550,-100,4,1,0,65,0,0
189631,-99.291400577377,4,1,0,65,0,0
189712,-98.59277275886,4,1,0,65,0,0
189874,-97.224601678945,4,1,0,65,0,0
189955,-96.554657592514,4,1,0,65,0,0
190036,-95.893883068604,4,1,0,65,0,0
190117,-95.242091130318,4,1,0,65,0,0
190198,-94.599099849975,4,1,0,65,0,0
190361,-93.331140531206,4,1,0,65,0,0
190442,-92.713608887437,4,1,0,65,0,0
190523,-92.104195406963,4,1,0,65,0,0
190685,-90.909090909091,4,1,0,65,0,0
191009,-111.111111111111,4,1,0,65,0,0
191171,-108.110360923564,4,1,0,65,0,0
191334,-105.250344883551,4,1,0,65,0,0
191415,-103.884661593913,4,1,0,65,0,0
191496,-102.553965367281,4,1,0,65,0,0
191658,-99.992290494179,4,1,0,65,0,0
191820,-97.555471981948,4,1,0,65,0,0
191901,-96.381065616408,4,1,0,65,0,0
191982,-95.234598722373,4,1,0,65,0,0
192063,-94.115085987954,4,1,0,65,0,0
192144,-93.021587893567,4,1,0,65,0,0
192225,-91.95320808224,4,1,0,65,0,0
192306,-90.909090909091,4,1,0,65,0,0
192388,-125,4,1,0,50,0,0
192632,-125,4,1,0,50,0,0
192875,-124.95214903068,4,1,0,50,0,0
192956,-124.886634950122,4,1,0,50,0,0
193118,-124.618215296458,4,1,0,50,0,0
193280,-124.098800812461,4,1,0,51,0,0
193524,-122.676282340207,4,1,0,52,0,0
193605,-122.000638493859,4,1,0,53,0,0
193767,-120.305376064846,4,1,0,55,0,0
193848,-119.276221906163,4,1,0,56,0,0
193929,-118.121749506482,4,1,0,57,0,0
194091,-115.432017934086,4,1,0,60,0,0
194253,-112.24068017913,4,1,0,64,0,0
194334,-110.464511476916,4,1,0,66,0,0
194415,-108.574780611218,4,1,0,68,0,0
194497,-106.552832304707,4,1,0,71,0,0
194578,-104.455799126273,4,1,0,74,0,0
194746,-90.9090909090909,4,1,0,80,0,1
194820,-100,4,1,0,80,0,1
200097,-100,4,1,0,80,0,0
200422,-90.909090909091,4,1,0,80,0,1
200496,-100,4,1,0,80,0,1
201225,-90.909090909091,4,1,0,80,0,1
201306,-100,4,1,0,80,0,1
202523,-90.909090909091,4,1,0,80,0,1
202604,-100,4,1,0,80,0,1
202847,-100,4,1,0,80,0,1
203009,-101.447979978548,4,1,0,80,0,1
203171,-102.938508978777,4,1,0,80,0,1
203252,-103.092783505155,4,1,0,80,0,1
203333,-104.473490427099,4,1,0,80,0,1
203415,-105.268039324801,4,1,0,80,0,1
203496,-106.064853751986,4,1,0,80,0,1
203657,-107.685009487666,4,1,0,80,0,1
203739,-108.529355517307,4,1,0,80,0,1
203820,-109.376505733834,4,1,0,80,0,1
203901,-110.236985236985,4,1,0,80,0,1
203989,-111.111111111111,4,1,0,80,0,0
204313,-90.909090909091,4,1,0,80,0,1
204387,-100,4,1,0,80,0,1
209178,-100,4,1,0,80,0,0
209503,-90.909090909091,4,1,0,80,0,1
209577,-100,4,1,0,80,0,1
210306,-90.909090909091,4,1,0,80,0,1
210388,-100,4,1,0,80,0,1
211604,-90.909090909091,4,1,0,80,0,1
211766,-100,4,1,0,80,0,1
211928,-98.76637222053,4,1,0,80,0,1
212009,-98.0392156862745,4,1,0,80,0,1
212090,-97.562810290357,4,1,0,80,0,1
212252,-96.388228299643,4,1,0,80,0,1
212422,-95.234598722373,4,1,0,80,0,0
212496,-94.671532846715,4,1,0,80,0,0
212577,-94.115085987954,4,1,0,80,0,0
212658,-93.565142115135,4,1,0,80,0,0
212739,-93.021587893567,4,1,0,80,0,0
212820,-92.48431260696,4,1,0,80,0,0
212901,-91.95320808224,4,1,0,80,0,0
212982,-91.428168616946,4,1,0,80,0,0
213070,-90.909090909091,4,1,0,90,0,1
220036,-90.909090909091,4,1,0,90,0,1
220117,-91.742081447964,4,1,0,90,0,1
220198,-92.59047836511,4,1,0,90,0,1
220279,-93.454713067527,4,1,0,90,0,1
220361,-94.34620753839,4,1,0,90,0,1
220442,-95.2436876101,4,1,0,90,0,1
220523,-96.158406450083,4,1,0,90,0,1
220685,-98.041586073501,4,1,0,90,0,1
220854,-100,4,1,0,80,0,0
224090,-100,4,1,0,70,0,0
224739,-100,4,1,0,60,0,0
225388,-100,4,1,0,50,0,0
226036,-100,4,1,0,40,0,0

[HitObjects]
286,157,314,5,8,0:0:0:0:
291,151,962,1,0,0:0:0:0:
291,153,1124,1,0,0:0:0:0:
291,153,1286,1,8,0:0:0:0:
291,151,1449,1,8,0:0:0:0:
291,151,1773,1,0,0:0:0:0:
291,153,2097,1,8,0:0:0:0:
291,153,2259,1,8,0:0:0:0:
291,156,2422,1,0,0:0:0:0:
291,156,2746,1,8,0:0:0:0:
301,103,3557,1,8,0:0:0:0:
299,122,3719,1,0,0:0:0:0:
299,122,3881,1,0,0:0:0:0:
299,122,4043,1,8,0:0:0:0:
286,120,4368,1,8,0:0:0:0:
286,120,4692,1,0,0:0:0:0:
318,114,4854,1,12,0:0:0:0:
312,109,5016,1,12,0:0:0:0:
312,109,5341,1,4,0:0:0:0:
315,163,5665,1,0,0:0:0:0:
315,163,5827,1,8,0:0:0:0:
269,148,6151,1,0,0:0:0:0:
281,140,6313,1,0,0:0:0:0:
216,154,6395,1,0,0:0:0:0:
281,140,6476,1,8,0:0:0:0:
281,140,6638,1,4,0:0:0:0:
262,141,6962,1,0,0:0:0:0:
153,142,7124,1,8,0:0:0:0:
256,166,7286,1,0,0:0:0:0:
301,166,7448,1,8,0:0:0:0:
301,166,7530,1,8,0:0:0:0:
301,166,7611,1,0,0:0:0:0:
251,168,7773,1,0,0:0:0:0:
301,166,7935,1,12,0:0:0:0:
315,164,8259,1,0,0:0:0:0:
315,164,8422,1,8,0:0:0:0:
296,153,8584,1,0,0:0:0:0:
302,130,8746,1,8,0:0:0:0:
302,130,8827,1,8,0:0:0:0:
302,130,8908,1,0,0:0:0:0:
301,138,8989,1,0,0:0:0:0:
302,130,9070,1,8,0:0:0:0:
296,149,9232,1,4,0:0:0:0:
310,148,9557,1,0,0:0:0:0:
323,158,9719,1,8,0:0:0:0:
306,153,9800,1,8,0:0:0:0:
288,158,9881,1,0,0:0:0:0:
313,153,10043,1,8,0:0:0:0:
313,153,10205,1,0,0:0:0:0:
313,153,10286,1,0,0:0:0:0:
298,158,10368,1,8,0:0:0:0:
298,158,10530,1,0,0:0:0:0:
279,172,10611,1,0,0:0:0:0:
279,172,10692,1,0,0:0:0:0:
164,172,10854,1,0,0:0:0:0:
312,164,11016,1,8,0:0:0:0:
311,172,11178,1,0,0:0:0:0:
311,172,11259,1,0,0:0:0:0:
311,172,11341,1,8,0:0:0:0:
309,138,11422,1,8,0:0:0:0:
311,172,11503,1,0,0:0:0:0:
311,172,11665,1,8,0:0:0:0:
311,172,11827,1,0,0:0:0:0:
336,169,12152,1,0,0:0:0:0:
315,147,12233,1,0,0:0:0:0:
336,169,12314,1,8,0:0:0:0:
336,169,12476,1,0,0:0:0:0:
336,169,12638,1,8,0:0:0:0:
336,169,12719,1,0,0:0:0:0:
310,127,12800,1,8,0:0:0:0:
334,127,12881,1,8,0:0:0:0:
336,169,12962,1,0,0:0:0:0:
336,169,13124,1,8,0:0:0:0:
308,149,13205,1,8,0:0:0:0:
308,149,13286,1,0,0:0:0:0:
323,171,13449,1,0,0:0:0:0:
323,171,13611,1,8,0:0:0:0:
322,171,13773,1,8,0:0:0:0:
322,171,13854,1,8,0:0:0:0:
322,171,13935,1,8,0:0:0:0:
322,171,14098,1,0,0:0:0:0:
323,171,14260,1,8,0:0:0:0:
323,171,14422,1,0,0:0:0:0:
323,171,14503,1,8,0:0:0:0:
323,171,14584,1,0,0:0:0:0:
322,171,14746,1,0,0:0:0:0:
322,171,14908,1,12,0:0:0:0:
323,153,15233,1,8,0:0:0:0:
320,156,15395,1,0,0:0:0:0:
320,156,15476,1,0,0:0:0:0:
320,156,15557,1,8,0:0:0:0:
316,145,15719,1,4,0:0:0:0:
331,148,16043,1,0,0:0:0:0:
331,148,16206,1,8,0:0:0:0:
350,157,16287,1,8,0:0:0:0:
350,157,16368,1,0,0:0:0:0:
350,157,16530,1,8,0:0:0:0:
350,157,16692,1,0,0:0:0:0:
205,134,16773,1,0,0:0:0:0:
350,157,16854,1,8,0:0:0:0:
350,157,17016,1,4,0:0:0:0:
350,157,17341,1,0,0:0:0:0:
350,157,17503,1,8,0:0:0:0:
321,164,17665,1,0,0:0:0:0:
281,131,17746,1,8,0:0:0:0:
321,164,17827,1,0,0:0:0:0:
321,164,17989,1,0,0:0:0:0:
309,151,18151,1,8,0:0:0:0:
309,151,18313,1,8,0:0:0:0:
309,151,18476,1,4,0:0:0:0:
326,165,18800,1,0,0:0:0:0:
326,165,19124,1,8,0:0:0:0:
326,165,19449,1,8,0:0:0:0:
315,125,19611,1,8,0:0:0:0:
326,165,19773,1,0,0:0:0:0:
326,165,20097,1,0,0:0:0:0:
326,165,20422,1,8,0:0:0:0:
299,159,20584,1,8,0:0:0:0:
299,159,20746,1,0,0:0:0:0:
285,119,20908,1,8,0:0:0:0:
285,119,21070,1,0,0:0:0:0:
326,165,21395,1,0,0:0:0:0:
326,165,21719,1,8,0:0:0:0:
304,106,21881,1,0,0:0:0:0:
326,165,22043,1,8,0:0:0:0:
304,106,22205,1,8,0:0:0:0:
326,165,22368,1,0,0:0:0:0:
295,118,22692,1,0,0:0:0:0:
273,151,23016,1,12,0:0:0:0:
273,151,23178,1,12,0:0:0:0:
299,152,23503,1,4,0:0:0:0:
305,140,23827,1,0,0:0:0:0:
305,140,23989,1,8,0:0:0:0:
339,181,24151,1,0,0:0:0:0:
263,137,24232,1,0,0:0:0:0:
295,141,24313,1,8,0:0:0:0:
295,141,24476,1,8,0:0:0:0:
311,135,24638,1,0,0:0:0:0:
311,135,24800,1,8,0:0:0:0:
310,133,25125,1,0,0:0:0:0:
310,133,25287,1,8,0:0:0:0:
336,124,25449,1,8,0:0:0:0:
336,124,25530,1,8,0:0:0:0:
336,124,25611,1,0,0:0:0:0:
336,124,25773,1,0,0:0:0:0:
336,124,25935,1,8,0:0:0:0:
332,121,26098,1,0,0:0:0:0:
322,115,26422,1,0,0:0:0:0:
322,115,26584,1,8,0:0:0:0:
296,112,26746,1,0,0:0:0:0:
296,112,26827,1,8,0:0:0:0:
296,112,26908,1,0,0:0:0:0:
296,112,26989,1,0,0:0:0:0:
296,112,27071,1,8,0:0:0:0:
296,112,27233,1,0,0:0:0:0:
296,112,27395,1,8,0:0:0:0:
311,116,27719,1,0,0:0:0:0:
311,116,27881,1,8,0:0:0:0:
296,112,28043,1,8,0:0:0:0:
296,139,28124,1,8,0:0:0:0:
296,112,28206,1,0,0:0:0:0:
296,112,28368,1,0,0:0:0:0:
294,116,28530,1,8,0:0:0:0:
269,147,28611,1,8,0:0:0:0:
294,116,28692,1,8,0:0:0:0:
308,136,28854,1,4,0:0:0:0:
293,140,29178,1,0,0:0:0:0:
293,140,29503,1,8,0:0:0:0:
306,157,29665,1,8,0:0:0:0:
293,140,29827,1,0,0:0:0:0:
286,138,29989,1,8,0:0:0:0:
262,150,30151,1,0,0:0:0:0:
286,138,30476,1,0,0:0:0:0:
286,138,30800,1,8,0:0:0:0:
248,97,30962,1,0,0:0:0:0:
248,97,31124,1,8,0:0:0:0:
248,97,31286,1,8,0:0:0:0:
286,138,31449,1,0,0:0:0:0:
286,138,31773,1,0,0:0:0:0:
286,138,32097,1,8,0:0:0:0:
286,138,32259,1,0,0:0:0:0:
286,138,32422,1,0,0:0:0:0:
286,138,32584,1,8,0:0:0:0:
297,151,33395,1,8,0:0:0:0:
297,151,33557,1,0,0:0:0:0:
297,151,33719,1,8,0:0:0:0:
297,151,33881,1,4,0:0:0:0:
305,140,34205,1,0,0:0:0:0:
305,140,34367,1,8,0:0:0:0:
339,181,34529,1,0,0:0:0:0:
263,135,34611,1,0,0:0:0:0:
295,141,34691,1,8,0:0:0:0:
295,141,34773,1,0,0:0:0:0:
295,141,34854,1,8,0:0:0:0:
311,135,35016,1,0,0:0:0:0:
311,135,35178,1,8,0:0:0:0:
310,133,35503,1,0,0:0:0:0:
310,133,35665,1,8,0:0:0:0:
336,124,35827,1,8,0:0:0:0:
336,124,35908,1,8,0:0:0:0:
336,124,35989,1,0,0:0:0:0:
336,124,36151,1,0,0:0:0:0:
336,124,36313,1,8,0:0:0:0:
332,121,36476,1,0,0:0:0:0:
322,115,36800,1,0,0:0:0:0:
322,115,36962,1,8,0:0:0:0:
296,112,37124,1,0,0:0:0:0:
296,112,37205,1,8,0:0:0:0:
296,112,37286,1,0,0:0:0:0:
296,112,37367,1,0,0:0:0:0:
296,112,37449,1,8,0:0:0:0:
296,112,37611,1,0,0:0:0:0:
296,112,37773,1,8,0:0:0:0:
306,127,37854,1,8,0:0:0:0:
289,121,37935,1,0,0:0:0:0:
289,121,38097,1,0,0:0:0:0:
284,121,38259,1,12,0:0:0:0:
253,127,38422,1,0,0:0:0:0:
253,127,38584,1,8,0:0:0:0:
253,127,38665,1,0,0:0:0:0:
253,127,38746,1,0,0:0:0:0:
253,127,38827,1,0,0:0:0:0:
253,127,38908,1,8,0:0:0:0:
253,127,39070,1,8,0:0:0:0:
253,127,39232,1,4,0:0:0:0:
278,161,39557,1,0,0:0:0:0:
278,161,39881,1,8,0:0:0:0:
278,161,40205,1,8,0:0:0:0:
278,161,40368,1,8,0:0:0:0:
278,161,40449,1,8,0:0:0:0:
278,161,40530,1,0,0:0:0:0:
278,161,40854,1,0,0:0:0:0:
200,164,41016,1,0,0:0:0:0:
293,149,41178,1,8,0:0:0:0:
293,139,41341,1,0,0:0:0:0:
293,139,41503,1,8,0:0:0:0:
293,139,41827,1,0,0:0:0:0:
293,139,42151,1,8,0:0:0:0:
293,139,42313,1,0,0:0:0:0:
293,139,42476,1,0,0:0:0:0:
261,135,42800,1,0,0:0:0:0:
293,139,43124,1,8,0:0:0:0:
293,139,43205,1,8,0:0:0:0:
293,139,43286,1,8,0:0:0:0:
293,139,43368,1,8,0:0:0:0:
293,139,43449,1,0,0:0:0:0:
293,139,43773,1,0,0:0:0:0:
293,139,43935,1,8,0:0:0:0:
293,139,44016,1,8,0:0:0:0:
293,139,44097,1,0,0:0:0:0:
293,139,44259,1,8,0:0:0:0:
293,139,44422,1,4,0:0:0:0:
270,171,44746,1,0,0:0:0:0:
270,171,45070,1,8,0:0:0:0:
270,171,45232,1,0,0:0:0:0:
270,171,45395,1,8,0:0:0:0:
270,171,45719,1,0,0:0:0:0:
270,171,46043,1,0,0:0:0:0:
270,171,46205,1,0,0:0:0:0:
270,171,46368,1,8,0:0:0:0:
340,102,46692,1,8,0:0:0:0:
340,102,47016,1,0,0:0:0:0:
340,102,47178,1,0,0:0:0:0:
340,102,47341,1,8,0:0:0:0:
340,102,47503,1,8,0:0:0:0:
270,171,47584,1,8,0:0:0:0:
340,102,47665,1,0,0:0:0:0:
340,102,47827,1,0,0:0:0:0:
340,102,47989,1,8,0:0:0:0:
340,102,48151,1,0,0:0:0:0:
270,171,48232,1,0,0:0:0:0:
340,102,48313,1,8,0:0:0:0:
340,102,48476,1,0,0:0:0:0:
340,102,48557,1,8,0:0:0:0:
340,102,48638,1,8,0:0:0:0:
318,107,48719,1,8,0:0:0:0:
318,107,48800,1,0,0:0:0:0:
318,107,48962,1,8,0:0:0:0:
245,174,49043,1,0,0:0:0:0:
318,107,49124,1,0,0:0:0:0:
326,104,49286,1,12,0:0:0:0:
326,104,49611,1,0,0:0:0:0:
326,104,49773,1,0,0:0:0:0:
326,104,49935,1,8,0:0:0:0:
326,104,50016,1,0,0:0:0:0:
326,104,50097,1,8,0:0:0:0:
326,104,50259,1,0,0:0:0:0:
326,104,50422,1,0,0:0:0:0:
326,104,50503,1,0,0:0:0:0:
326,104,50584,1,8,0:0:0:0:
326,104,50665,1,8,0:0:0:0:
326,104,50746,1,0,0:0:0:0:
326,104,50827,1,0,0:0:0:0:
321,99,50908,1,8,0:0:0:0:
321,99,51232,1,8,0:0:0:0:
321,99,51476,1,8,0:0:0:0:
321,99,51557,1,0,0:0:0:0:
321,99,51719,1,0,0:0:0:0:
321,99,51881,1,8,0:0:0:0:
321,99,52124,1,8,0:0:0:0:
321,99,52205,1,0,0:0:0:0:
321,99,52368,1,8,0:0:0:0:
311,100,52449,1,0,0:0:0:0:
311,100,52530,1,8,0:0:0:0:
298,95,52692,1,0,0:0:0:0:
272,159,52854,1,8,0:0:0:0:
272,159,52935,1,0,0:0:0:0:
272,159,53016,1,8,0:0:0:0:
272,159,53097,1,0,0:0:0:0:
272,159,53178,1,0,0:0:0:0:
274,186,53341,1,12,0:0:0:0:
353,167,53665,1,0,0:0:0:0:
353,167,53827,1,8,0:0:0:0:
353,167,53989,1,0,0:0:0:0:
340,150,54070,1,0,0:0:0:0:
353,167,54151,1,8,0:0:0:0:
353,167,54313,1,0,0:0:0:0:
353,167,54476,1,8,0:0:0:0:
327,139,54557,1,0,0:0:0:0:
353,167,54638,1,8,0:0:0:0:
327,139,54719,1,8,0:0:0:0:
353,167,54800,1,0,0:0:0:0:
263,147,54962,1,8,0:0:0:0:
248,149,55124,1,0,0:0:0:0:
248,149,55286,1,8,0:0:0:0:
331,133,55368,1,0,0:0:0:0:
353,167,55449,1,8,0:0:0:0:
353,167,55611,1,0,0:0:0:0:
353,167,55773,1,0,0:0:0:0:
353,167,55935,1,8,0:0:0:0:
341,173,56259,1,0,0:0:0:0:
341,173,56422,1,8,0:0:0:0:
333,174,56584,1,0,0:0:0:0:
319,142,56665,1,0,0:0:0:0:
333,174,56746,1,8,0:0:0:0:
333,174,56908,1,8,0:0:0:0:
333,174,57070,1,0,0:0:0:0:
333,174,57232,1,8,0:0:0:0:
319,142,57313,1,8,0:0:0:0:
333,174,57395,1,0,0:0:0:0:
168,181,57476,1,0,0:0:0:0:
333,174,57557,1,8,0:0:0:0:
333,174,57719,1,0,0:0:0:0:
333,174,57881,1,8,0:0:0:0:
180,138,57962,1,8,0:0:0:0:
309,167,58043,1,0,0:0:0:0:
309,167,58205,1,8,0:0:0:0:
227,158,58286,1,0,0:0:0:0:
290,141,58368,1,8,0:0:0:0:
290,141,58530,1,8,0:0:0:0:
290,141,58692,1,0,0:0:0:0:
290,141,58854,1,0,0:0:0:0:
290,141,59016,1,12,0:0:0:0:
310,148,59341,1,0,0:0:0:0:
310,148,59503,1,0,0:0:0:0:
310,148,59665,1,8,0:0:0:0:
310,148,59827,1,4,0:0:0:0:
287,150,60151,1,0,0:0:0:0:
288,139,60313,1,8,0:0:0:0:
288,139,60476,1,0,0:0:0:0:
317,136,60557,1,0,0:0:0:0:
288,139,60638,1,8,0:0:0:0:
317,136,60719,1,8,0:0:0:0:
288,139,60800,1,0,0:0:0:0:
288,139,60962,1,0,0:0:0:0:
288,139,61124,1,12,0:0:0:0:
288,139,61449,1,0,0:0:0:0:
288,139,61611,1,8,0:0:0:0:
311,116,61773,1,0,0:0:0:0:
266,112,61854,1,8,0:0:0:0:
288,139,61935,1,0,0:0:0:0:
316,121,62097,1,0,0:0:0:0:
301,121,62259,1,8,0:0:0:0:
245,121,62422,1,8,0:0:0:0:
311,116,62503,1,8,0:0:0:0:
315,135,62584,1,0,0:0:0:0:
231,116,62908,1,12,0:0:0:0:
260,121,63070,1,0,0:0:0:0:
216,126,63151,1,0,0:0:0:0:
260,121,63232,1,8,0:0:0:0:
260,121,63395,1,0,0:0:0:0:
260,121,63557,1,8,0:0:0:0:
285,150,63638,1,0,0:0:0:0:
260,121,63719,1,8,0:0:0:0:
285,150,63800,1,8,0:0:0:0:
260,121,63881,1,0,0:0:0:0:
260,121,64043,1,8,0:0:0:0:
281,114,64205,1,0,0:0:0:0:
281,114,64368,1,8,0:0:0:0:
297,97,64449,1,0,0:0:0:0:
281,114,64530,1,8,0:0:0:0:
296,142,64692,1,0,0:0:0:0:
281,114,64854,1,0,0:0:0:0:
281,114,65016,1,8,0:0:0:0:
274,116,65341,1,0,0:0:0:0:
274,116,65503,1,8,0:0:0:0:
279,120,65665,1,0,0:0:0:0:
279,120,65827,1,8,0:0:0:0:
278,139,65908,1,8,0:0:0:0:
279,120,65989,1,0,0:0:0:0:
279,120,66151,1,0,0:0:0:0:
279,120,66313,1,8,0:0:0:0:
278,139,66395,1,8,0:0:0:0:
279,120,66476,1,8,0:0:0:0:
279,120,66638,1,8,0:0:0:0:
279,120,66800,1,0,0:0:0:0:
279,120,66962,1,8,0:0:0:0:
321,137,67043,1,8,0:0:0:0:
279,120,67124,1,0,0:0:0:0:
321,137,67205,1,8,0:0:0:0:
279,120,67286,1,0,0:0:0:0:
227,125,67368,1,0,0:0:0:0:
227,125,67449,1,8,0:0:0:0:
279,120,67611,1,8,0:0:0:0:
305,125,67692,1,8,0:0:0:0:
279,120,67773,1,0,0:0:0:0:
279,120,67935,1,0,0:0:0:0:
279,120,68097,1,12,0:0:0:0:
269,121,68422,1,8,0:0:0:0:
269,121,68584,1,0,0:0:0:0:
269,121,68746,1,8,0:0:0:0:
269,121,68908,1,4,0:0:0:0:
269,121,69232,1,0,0:0:0:0:
269,121,69395,1,8,0:0:0:0:
269,121,69557,1,8,0:0:0:0:
276,137,69638,1,8,0:0:0:0:
269,121,69719,1,0,0:0:0:0:
276,137,69800,1,0,0:0:0:0:
269,121,69881,1,8,0:0:0:0:
269,121,70043,1,0,0:0:0:0:
269,121,70205,1,12,0:0:0:0:
296,126,70530,1,0,0:0:0:0:
297,129,70692,1,8,0:0:0:0:
297,129,70854,1,8,0:0:0:0:
287,162,70935,1,8,0:0:0:0:
297,129,71016,1,0,0:0:0:0:
294,167,71097,1,0,0:0:0:0:
297,129,71178,1,0,0:0:0:0:
307,155,71259,1,0,0:0:0:0:
296,126,71341,1,8,0:0:0:0:
296,126,71503,1,4,0:0:0:0:
310,148,71827,1,0,0:0:0:0:
323,158,71989,1,8,0:0:0:0:
306,153,72070,1,8,0:0:0:0:
313,153,72151,1,0,0:0:0:0:
313,153,72313,1,8,0:0:0:0:
313,153,72476,1,0,0:0:0:0:
313,153,72557,1,0,0:0:0:0:
298,158,72638,1,8,0:0:0:0:
298,158,72800,1,0,0:0:0:0:
263,148,72881,1,0,0:0:0:0:
263,148,72962,1,0,0:0:0:0:
312,164,73124,1,0,0:0:0:0:
312,164,73286,1,8,0:0:0:0:
311,172,73449,1,0,0:0:0:0:
311,172,73530,1,0,0:0:0:0:
311,172,73611,1,8,0:0:0:0:
319,146,73692,1,8,0:0:0:0:
311,172,73773,1,0,0:0:0:0:
311,172,73935,1,8,0:0:0:0:
311,172,74097,1,0,0:0:0:0:
336,169,74422,1,0,0:0:0:0:
315,147,74503,1,0,0:0:0:0:
336,169,74584,1,8,0:0:0:0:
336,169,74746,1,0,0:0:0:0:
336,169,74908,1,8,0:0:0:0:
336,169,74989,1,0,0:0:0:0:
336,169,75070,1,8,0:0:0:0:
308,132,75151,1,8,0:0:0:0:
336,169,75232,1,0,0:0:0:0:
336,169,75395,1,8,0:0:0:0:
231,123,75476,1,8,0:0:0:0:
231,123,75557,1,0,0:0:0:0:
323,171,75719,1,0,0:0:0:0:
323,171,75881,1,8,0:0:0:0:
322,171,76043,1,8,0:0:0:0:
322,171,76124,1,8,0:0:0:0:
322,171,76205,1,8,0:0:0:0:
322,171,76368,1,0,0:0:0:0:
323,171,76530,1,8,0:0:0:0:
248,107,76692,1,0,0:0:0:0:
248,107,76773,1,8,0:0:0:0:
248,107,76854,1,0,0:0:0:0:
248,107,77016,1,0,0:0:0:0:
248,107,77178,1,12,0:0:0:0:
323,153,77503,1,8,0:0:0:0:
320,156,77665,1,0,0:0:0:0:
320,156,77746,1,0,0:0:0:0:
320,156,77827,1,8,0:0:0:0:
316,145,77989,1,4,0:0:0:0:
331,148,78313,1,0,0:0:0:0:
331,148,78476,1,8,0:0:0:0:
350,157,78557,1,8,0:0:0:0:
350,157,78638,1,0,0:0:0:0:
350,157,78800,1,8,0:0:0:0:
350,157,78962,1,0,0:0:0:0:
205,134,79043,1,0,0:0:0:0:
350,157,79124,1,8,0:0:0:0:
350,157,79286,1,4,0:0:0:0:
350,157,79611,1,0,0:0:0:0:
350,157,79773,1,8,0:0:0:0:
268,109,79935,1,0,0:0:0:0:
268,109,80097,1,8,0:0:0:0:
283,101,80259,1,0,0:0:0:0:
274,106,80341,1,0,0:0:0:0:
283,101,80422,1,8,0:0:0:0:
283,101,80503,1,0,0:0:0:0:
274,106,80584,1,8,0:0:0:0:
350,165,80746,1,4,0:0:0:0:
336,148,81070,1,0,0:0:0:0:
336,148,81395,1,8,0:0:0:0:
336,148,81557,1,8,0:0:0:0:
336,148,81719,1,0,0:0:0:0:
336,148,81881,1,0,0:0:0:0:
336,148,82043,1,8,0:0:0:0:
335,141,82368,1,0,0:0:0:0:
335,141,82692,1,0,0:0:0:0:
335,141,82854,1,0,0:0:0:0:
335,141,83016,1,8,0:0:0:0:
335,141,83178,1,0,0:0:0:0:
335,141,83341,1,0,0:0:0:0:
306,123,83665,1,0,0:0:0:0:
306,123,83989,1,8,0:0:0:0:
306,123,84151,1,0,0:0:0:0:
306,123,84313,1,8,0:0:0:0:
306,123,84476,1,0,0:0:0:0:
306,123,84557,1,0,0:0:0:0:
306,123,84638,1,0,0:0:0:0:
306,123,84800,1,0,0:0:0:0:
306,123,84962,1,8,0:0:0:0:
301,131,85124,1,0,0:0:0:0:
301,131,85286,1,12,0:0:0:0:
301,131,85449,1,12,0:0:0:0:
295,141,85773,1,4,0:0:0:0:
305,140,86097,1,0,0:0:0:0:
305,140,86259,1,8,0:0:0:0:
295,141,86422,1,0,0:0:0:0:
295,141,86584,1,8,0:0:0:0:
339,181,86665,1,8,0:0:0:0:
295,141,86746,1,0,0:0:0:0:
311,135,86908,1,0,0:0:0:0:
311,135,87070,1,8,0:0:0:0:
310,133,87395,1,0,0:0:0:0:
310,133,87557,1,8,0:0:0:0:
336,124,87719,1,0,0:0:0:0:
336,124,87800,1,8,0:0:0:0:
336,124,87881,1,0,0:0:0:0:
336,124,88043,1,0,0:0:0:0:
336,124,88205,1,8,0:0:0:0:
332,121,88368,1,0,0:0:0:0:
322,115,88692,1,0,0:0:0:0:
322,115,88854,1,8,0:0:0:0:
296,112,89016,1,0,0:0:0:0:
296,112,89097,1,0,0:0:0:0:
296,112,89178,1,8,0:0:0:0:
296,112,89259,1,0,0:0:0:0:
296,112,89341,1,8,0:0:0:0:
296,112,89503,1,0,0:0:0:0:
296,112,89665,1,8,0:0:0:0:
311,116,89989,1,0,0:0:0:0:
311,116,90151,1,8,0:0:0:0:
296,112,90313,1,8,0:0:0:0:
296,112,90395,1,8,0:0:0:0:
296,112,90476,1,0,0:0:0:0:
296,112,90638,1,0,0:0:0:0:
294,116,90800,1,8,0:0:0:0:
357,146,90881,1,0,0:0:0:0:
294,116,90962,1,8,0:0:0:0:
308,136,91124,1,4,0:0:0:0:
305,149,91449,1,0,0:0:0:0:
323,137,91773,1,8,0:0:0:0:
323,137,91935,1,0,0:0:0:0:
305,149,92097,1,8,0:0:0:0:
305,149,92259,1,8,0:0:0:0:
261,154,92341,1,8,0:0:0:0:
305,149,92422,1,0,0:0:0:0:
305,149,92746,1,0,0:0:0:0:
267,145,92908,1,8,0:0:0:0:
305,149,93070,1,0,0:0:0:0:
300,138,93232,1,8,0:0:0:0:
300,138,93395,1,8,0:0:0:0:
267,145,93557,1,8,0:0:0:0:
300,138,93719,1,0,0:0:0:0:
300,138,94043,1,0,0:0:0:0:
300,138,94368,1,8,0:0:0:0:
300,138,94692,1,0,0:0:0:0:
300,138,94854,1,8,0:0:0:0:
300,138,95665,1,8,0:0:0:0:
300,138,95827,1,0,0:0:0:0:
300,138,95989,1,8,0:0:0:0:
300,138,96151,1,4,0:0:0:0:
307,143,96476,1,0,0:0:0:0:
307,143,96638,1,8,0:0:0:0:
313,145,96800,1,0,0:0:0:0:
304,168,96881,1,0,0:0:0:0:
313,145,96962,1,8,0:0:0:0:
304,168,97043,1,8,0:0:0:0:
313,145,97124,1,0,0:0:0:0:
313,145,97286,1,0,0:0:0:0:
287,167,97449,1,8,0:0:0:0:
313,145,97773,1,0,0:0:0:0:
313,145,97935,1,8,0:0:0:0:
313,145,98097,1,0,0:0:0:0:
313,145,98178,1,8,0:0:0:0:
313,145,98259,1,0,0:0:0:0:
313,145,98422,1,0,0:0:0:0:
313,145,98584,1,8,0:0:0:0:
296,170,98746,1,0,0:0:0:0:
313,145,99070,1,0,0:0:0:0:
313,145,99232,1,8,0:0:0:0:
313,145,99395,1,0,0:0:0:0:
313,145,99476,1,0,0:0:0:0:
313,145,99557,1,8,0:0:0:0:
313,145,99638,1,0,0:0:0:0:
313,145,99719,1,8,0:0:0:0:
313,145,99881,1,4,0:0:0:0:
313,145,100043,1,8,0:0:0:0:
291,127,100124,1,8,0:0:0:0:
291,127,100205,1,0,0:0:0:0:
291,127,100368,1,0,0:0:0:0:
284,121,100530,1,8,0:0:0:0:
282,106,100611,1,0,0:0:0:0:
282,106,100692,1,8,0:0:0:0:
282,106,100854,1,0,0:0:0:0:
329,121,100962,1,0,0:0:0:0:
329,121,101070,1,0,0:0:0:0:
329,121,101178,1,8,0:0:0:0:
329,121,101286,1,8,0:0:0:0:
329,121,101395,1,8,0:0:0:0:
329,121,101503,1,4,0:0:0:0:
299,155,101827,1,0,0:0:0:0:
308,162,102151,1,8,0:0:0:0:
308,162,102476,1,8,0:0:0:0:
308,162,102638,1,8,0:0:0:0:
308,162,102719,1,8,0:0:0:0:
308,162,102800,1,0,0:0:0:0:
308,162,103124,1,0,0:0:0:0:
273,140,103286,1,0,0:0:0:0:
308,162,103449,1,8,0:0:0:0:
308,162,103611,1,8,0:0:0:0:
308,162,103773,1,0,0:0:0:0:
308,162,103935,1,8,0:0:0:0:
308,162,104097,1,0,0:0:0:0:
308,162,104422,1,0,0:0:0:0:
308,162,104584,1,8,0:0:0:0:
308,162,104746,1,0,0:0:0:0:
280,155,105070,1,0,0:0:0:0:
310,167,105395,1,8,0:0:0:0:
310,167,105476,1,8,0:0:0:0:
310,167,105557,1,8,0:0:0:0:
310,167,105638,1,8,0:0:0:0:
310,167,105719,1,0,0:0:0:0:
308,162,106043,1,0,0:0:0:0:
308,162,106205,1,8,0:0:0:0:
310,167,106286,1,8,0:0:0:0:
310,167,106368,1,0,0:0:0:0:
310,167,106530,1,8,0:0:0:0:
310,167,106692,1,4,0:0:0:0:
326,184,106854,1,0,0:0:0:0:
326,184,107016,1,8,0:0:0:0:
317,181,107259,1,8,0:0:0:0:
317,181,107341,1,0,0:0:0:0:
317,181,107503,1,0,0:0:0:0:
317,181,107665,1,8,0:0:0:0:
317,181,107827,1,8,0:0:0:0:
317,181,107908,1,8,0:0:0:0:
317,181,107989,1,0,0:0:0:0:
317,181,108151,1,0,0:0:0:0:
317,181,108313,1,8,0:0:0:0:
317,181,108557,1,8,0:0:0:0:
317,181,108638,1,0,0:0:0:0:
317,181,108800,1,0,0:0:0:0:
308,179,108962,1,8,0:0:0:0:
304,176,109043,1,8,0:0:0:0:
304,176,109124,1,8,0:0:0:0:
304,176,109286,1,4,0:0:0:0:
297,143,109449,1,0,0:0:0:0:
297,143,109611,1,8,0:0:0:0:
295,152,109773,1,8,0:0:0:0:
295,152,109854,1,8,0:0:0:0:
295,152,109935,1,0,0:0:0:0:
295,152,110097,1,0,0:0:0:0:
295,152,110259,1,8,0:0:0:0:
322,157,110422,1,0,0:0:0:0:
322,157,110503,1,0,0:0:0:0:
322,157,110584,1,8,0:0:0:0:
322,157,110746,1,0,0:0:0:0:
315,163,110827,1,0,0:0:0:0:
322,157,110908,1,8,0:0:0:0:
296,158,110989,1,0,0:0:0:0:
296,158,111070,1,0,0:0:0:0:
296,158,111232,1,8,0:0:0:0:
296,158,111313,1,8,0:0:0:0:
296,158,111395,1,0,0:0:0:0:
296,158,111557,1,12,0:0:0:0:
298,154,111881,1,0,0:0:0:0:
297,152,112043,1,0,0:0:0:0:
297,152,112205,1,8,0:0:0:0:
297,152,112286,1,0,0:0:0:0:
297,152,112368,1,8,0:0:0:0:
298,154,112530,1,0,0:0:0:0:
298,154,112692,1,0,0:0:0:0:
298,154,112773,1,8,0:0:0:0:
298,154,112854,1,8,0:0:0:0:
297,152,112935,1,8,0:0:0:0:
297,152,113016,1,0,0:0:0:0:
297,152,113097,1,0,0:0:0:0:
297,152,113178,1,8,0:0:0:0:
360,187,113503,1,8,0:0:0:0:
354,193,113746,1,8,0:0:0:0:
354,193,113827,1,0,0:0:0:0:
319,186,113989,1,0,0:0:0:0:
319,186,114151,1,8,0:0:0:0:
319,186,114395,1,8,0:0:0:0:
319,186,114476,1,0,0:0:0:0:
319,186,114638,1,8,0:0:0:0:
319,186,114719,1,0,0:0:0:0:
319,186,114800,1,8,0:0:0:0:
319,186,114962,1,0,0:0:0:0:
317,192,115124,1,8,0:0:0:0:
317,192,115205,1,8,0:0:0:0:
317,192,115286,1,8,0:0:0:0:
317,192,115368,1,0,0:0:0:0:
317,192,115449,1,0,0:0:0:0:
317,192,115611,1,12,0:0:0:0:
353,167,115935,1,0,0:0:0:0:
353,167,116097,1,8,0:0:0:0:
353,167,116259,1,0,0:0:0:0:
340,150,116340,1,0,0:0:0:0:
353,167,116421,1,8,0:0:0:0:
353,167,116583,1,0,0:0:0:0:
353,167,116746,1,8,0:0:0:0:
327,139,116827,1,0,0:0:0:0:
353,167,116908,1,8,0:0:0:0:
327,139,116989,1,8,0:0:0:0:
353,167,117070,1,0,0:0:0:0:
308,154,117151,1,0,0:0:0:0:
353,167,117232,1,8,0:0:0:0:
353,167,117394,1,0,0:0:0:0:
353,167,117556,1,8,0:0:0:0:
331,133,117638,1,0,0:0:0:0:
353,167,117719,1,8,0:0:0:0:
353,167,117881,1,0,0:0:0:0:
353,167,118043,1,0,0:0:0:0:
353,167,118205,1,8,0:0:0:0:
341,173,118529,1,0,0:0:0:0:
341,173,118692,1,8,0:0:0:0:
333,174,118854,1,0,0:0:0:0:
319,142,118935,1,0,0:0:0:0:
333,174,119016,1,8,0:0:0:0:
273,171,119097,1,0,0:0:0:0:
333,174,119178,1,8,0:0:0:0:
333,174,119340,1,0,0:0:0:0:
333,174,119502,1,8,0:0:0:0:
319,142,119583,1,8,0:0:0:0:
333,174,119665,1,0,0:0:0:0:
306,140,119746,1,0,0:0:0:0:
333,174,119827,1,8,0:0:0:0:
333,174,119989,1,0,0:0:0:0:
333,174,120151,1,8,0:0:0:0:
198,117,120232,1,8,0:0:0:0:
309,167,120313,1,0,0:0:0:0:
309,167,120476,1,8,0:0:0:0:
319,142,120556,1,0,0:0:0:0:
290,141,120638,1,8,0:0:0:0:
290,141,120800,1,8,0:0:0:0:
290,141,120962,1,0,0:0:0:0:
290,141,121124,1,0,0:0:0:0:
290,141,121286,1,12,0:0:0:0:
310,148,121611,1,0,0:0:0:0:
310,148,121773,1,0,0:0:0:0:
310,148,121935,1,8,0:0:0:0:
310,148,122097,1,4,0:0:0:0:
287,150,122421,1,0,0:0:0:0:
288,139,122583,1,8,0:0:0:0:
288,139,122746,1,0,0:0:0:0:
317,136,122827,1,0,0:0:0:0:
288,139,122908,1,8,0:0:0:0:
317,136,122989,1,8,0:0:0:0:
288,139,123070,1,0,0:0:0:0:
289,129,123151,1,8,0:0:0:0:
288,139,123232,1,0,0:0:0:0:
288,139,123395,1,12,0:0:0:0:
288,139,123719,1,0,0:0:0:0:
288,139,123881,1,8,0:0:0:0:
288,139,124043,1,0,0:0:0:0:
266,112,124124,1,8,0:0:0:0:
288,139,124205,1,0,0:0:0:0:
316,121,124367,1,0,0:0:0:0:
301,121,124529,1,8,0:0:0:0:
311,116,124611,1,8,0:0:0:0:
311,116,124692,1,8,0:0:0:0:
311,116,124773,1,8,0:0:0:0:
315,135,124854,1,0,0:0:0:0:
231,116,125178,1,12,0:0:0:0:
260,121,125340,1,0,0:0:0:0:
309,117,125421,1,0,0:0:0:0:
260,121,125502,1,8,0:0:0:0:
260,121,125665,1,0,0:0:0:0:
260,121,125827,1,8,0:0:0:0:
285,150,125908,1,0,0:0:0:0:
260,121,125989,1,8,0:0:0:0:
285,150,126070,1,8,0:0:0:0:
260,121,126151,1,0,0:0:0:0:
271,127,126232,1,0,0:0:0:0:
260,121,126313,1,8,0:0:0:0:
281,114,126475,1,0,0:0:0:0:
281,114,126638,1,8,0:0:0:0:
297,97,126719,1,0,0:0:0:0:
281,114,126800,1,8,0:0:0:0:
296,142,126962,1,0,0:0:0:0:
281,114,127124,1,0,0:0:0:0:
281,114,127286,1,8,0:0:0:0:
274,116,127611,1,0,0:0:0:0:
274,116,127773,1,8,0:0:0:0:
279,120,127935,1,0,0:0:0:0:
230,152,128016,1,0,0:0:0:0:
279,120,128097,1,8,0:0:0:0:
278,139,128178,1,8,0:0:0:0:
279,120,128259,1,0,0:0:0:0:
279,120,128421,1,0,0:0:0:0:
279,120,128583,1,8,0:0:0:0:
278,139,128665,1,8,0:0:0:0:
279,120,128746,1,8,0:0:0:0:
279,120,128908,1,8,0:0:0:0:
279,120,129070,1,0,0:0:0:0:
279,120,129232,1,8,0:0:0:0:
321,137,129313,1,8,0:0:0:0:
279,120,129394,1,0,0:0:0:0:
321,137,129475,1,8,0:0:0:0:
279,120,129556,1,0,0:0:0:0:
278,139,129638,1,0,0:0:0:0:
279,120,129719,1,8,0:0:0:0:
279,120,129881,1,8,0:0:0:0:
305,125,129962,1,8,0:0:0:0:
279,120,130043,1,0,0:0:0:0:
279,120,130205,1,0,0:0:0:0:
279,120,130368,1,12,0:0:0:0:
269,121,130692,1,8,0:0:0:0:
269,121,130854,1,0,0:0:0:0:
269,121,131016,1,8,0:0:0:0:
269,121,131178,1,4,0:0:0:0:
269,121,131502,1,0,0:0:0:0:
269,121,131665,1,8,0:0:0:0:
269,121,131827,1,8,0:0:0:0:
276,137,131908,1,8,0:0:0:0:
269,121,131989,1,0,0:0:0:0:
276,137,132070,1,0,0:0:0:0:
269,121,132151,1,8,0:0:0:0:
316,126,132232,1,0,0:0:0:0:
269,121,132313,1,0,0:0:0:0:
269,121,132476,1,12,0:0:0:0:
322,172,132638,1,0,0:0:0:0:
296,126,132800,1,0,0:0:0:0:
334,181,132881,1,0,0:0:0:0:
297,129,132962,1,8,0:0:0:0:
265,107,133124,1,0,0:0:0:0:
265,107,133205,1,0,0:0:0:0:
254,108,133286,1,8,0:0:0:0:
254,108,133368,1,8,0:0:0:0:
254,108,133449,1,0,0:0:0:0:
296,126,133611,1,12,0:0:0:0:
289,87,133935,1,4,0:0:0:0:
329,164,134097,1,4,0:0:0:0:
329,164,134259,1,0,0:0:0:0:
306,163,134422,1,12,0:0:0:0:
306,163,134584,1,4,0:0:0:0:
301,167,134908,1,12,0:0:0:0:
301,167,135070,1,12,0:0:0:0:
306,163,135232,1,8,0:0:0:0:
306,163,135395,1,4,0:0:0:0:
306,163,135557,1,12,0:0:0:0:
311,159,135881,1,4,0:0:0:0:
306,163,136043,1,8,0:0:0:0:
306,163,136205,1,4,0:0:0:0:
244,147,136530,1,12,0:0:0:0:
297,152,136854,1,8,0:0:0:0:
297,152,137016,1,0,0:0:0:0:
297,152,137097,1,0,0:0:0:0:
297,152,137178,1,8,0:0:0:0:
374,190,137503,1,0,0:0:0:0:
371,184,137665,1,8,0:0:0:0:
371,184,137746,1,8,0:0:0:0:
371,184,137827,1,0,0:0:0:0:
371,184,137989,1,8,0:0:0:0:
371,184,138151,1,0,0:0:0:0:
371,184,138313,1,0,0:0:0:0:
371,184,138395,1,0,0:0:0:0:
371,184,138476,1,8,0:0:0:0:
371,184,138638,1,0,0:0:0:0:
371,184,138800,1,8,0:0:0:0:
371,184,138881,1,0,0:0:0:0:
371,184,138962,1,0,0:0:0:0:
277,164,139043,1,0,0:0:0:0:
371,184,139124,1,8,0:0:0:0:
332,171,139286,1,0,0:0:0:0:
332,171,139449,1,0,0:0:0:0:
332,171,139611,1,8,0:0:0:0:
336,166,139773,1,0,0:0:0:0:
254,148,139854,1,0,0:0:0:0:
254,148,139935,1,0,0:0:0:0:
254,148,140016,1,0,0:0:0:0:
345,162,140097,1,8,0:0:0:0:
346,156,140259,1,0,0:0:0:0:
345,162,140422,1,8,0:0:0:0:
336,166,140746,1,8,0:0:0:0:
335,167,140908,1,0,0:0:0:0:
380,144,141070,1,8,0:0:0:0:
380,144,141178,1,8,0:0:0:0:
380,144,141286,1,8,0:0:0:0:
380,144,141395,1,0,0:0:0:0:
380,144,141503,1,0,0:0:0:0:
380,144,141611,1,0,0:0:0:0:
342,180,141719,1,12,0:0:0:0:
347,145,142854,1,8,0:0:0:0:
347,145,142935,1,8,0:0:0:0:
347,145,143016,1,0,0:0:0:0:
347,145,144313,1,8,0:0:0:0:
344,160,144962,1,8,0:0:0:0:
344,160,145611,1,8,0:0:0:0:
344,160,146259,1,0,0:0:0:0:
344,160,146908,1,8,0:0:0:0:
338,152,147881,1,8,0:0:0:0:
338,152,148043,1,8,0:0:0:0:
338,152,148205,1,0,0:0:0:0:
319,139,149503,1,8,0:0:0:0:
138,111,150800,1,0,0:0:0:0:
242,117,151449,1,8,0:0:0:0:
242,117,151773,1,0,0:0:0:0:
242,117,151935,1,8,0:0:0:0:
242,117,152097,1,0,0:0:0:0:
278,166,152422,1,8,0:0:0:0:
276,147,152584,1,8,0:0:0:0:
296,163,152746,1,0,0:0:0:0:
274,151,152908,1,8,0:0:0:0:
296,163,153070,1,0,0:0:0:0:
274,151,153232,1,8,0:0:0:0:
296,163,153395,1,0,0:0:0:0:
276,147,153557,1,0,0:0:0:0:
296,163,153719,1,0,0:0:0:0:
274,151,153881,1,8,0:0:0:0:
296,163,154205,1,8,0:0:0:0:
296,163,154368,1,0,0:0:0:0:
296,163,154692,1,8,0:0:0:0:
314,149,154854,1,0,0:0:0:0:
296,163,155016,1,8,0:0:0:0:
314,149,155178,1,8,0:0:0:0:
296,163,155341,1,0,0:0:0:0:
314,149,155503,1,8,0:0:0:0:
296,163,155665,1,0,0:0:0:0:
314,149,155827,1,0,0:0:0:0:
296,163,155989,1,8,0:0:0:0:
296,163,156313,1,0,0:0:0:0:
314,149,156476,1,8,0:0:0:0:
296,163,156800,1,8,0:0:0:0:
272,152,156962,1,0,0:0:0:0:
272,152,157286,1,8,0:0:0:0:
272,152,157611,1,0,0:0:0:0:
272,152,157935,1,8,0:0:0:0:
290,121,158097,1,8,0:0:0:0:
272,152,158259,1,0,0:0:0:0:
290,121,158422,1,0,0:0:0:0:
272,152,158746,1,8,0:0:0:0:
272,152,158908,1,0,0:0:0:0:
272,152,159232,1,0,0:0:0:0:
272,152,159557,1,0,0:0:0:0:
272,152,159881,1,8,0:0:0:0:
272,152,160205,1,0,0:0:0:0:
272,152,160530,1,8,0:0:0:0:
301,131,160692,1,0,0:0:0:0:
272,152,160854,1,8,0:0:0:0:
301,131,161016,1,8,0:0:0:0:
114,134,161827,2,0,L|190:125,3,62.9999980773926
366,176,162476,1,12,0:0:0:0:
402,176,162800,1,8,0:0:0:0:
375,167,162962,1,8,0:0:0:0:
370,145,163043,1,8,0:0:0:0:
375,167,163124,1,0,0:0:0:0:
375,166,163286,1,8,0:0:0:0:
375,166,163449,1,0,0:0:0:0:
375,165,163611,1,8,0:0:0:0:
344,127,163692,1,8,0:0:0:0:
344,127,163773,1,8,0:0:0:0:
375,167,163935,1,0,0:0:0:0:
375,166,164097,1,8,0:0:0:0:
356,129,164178,1,0,0:0:0:0:
375,166,164259,1,8,0:0:0:0:
356,129,164341,1,8,0:0:0:0:
330,168,164422,1,0,0:0:0:0:
330,168,164584,1,0,0:0:0:0:
289,136,164665,1,0,0:0:0:0:
277,121,164746,1,8,0:0:0:0:
277,121,164908,1,0,0:0:0:0:
253,100,165232,1,8,0:0:0:0:
132,136,165313,1,0,0:0:0:0:
277,121,165395,1,8,0:0:0:0:
253,100,165476,1,0,0:0:0:0:
253,100,165557,1,8,0:0:0:0:
253,100,165719,1,0,0:0:0:0:
380,99,165881,1,8,0:0:0:0:
288,134,165962,1,8,0:0:0:0:
359,135,166043,1,0,0:0:0:0:
359,135,166124,1,0,0:0:0:0:
359,135,166205,1,8,0:0:0:0:
359,135,166368,1,0,0:0:0:0:
356,143,166530,1,8,0:0:0:0:
276,117,166611,1,8,0:0:0:0:
356,143,166692,1,0,0:0:0:0:
356,143,166854,1,8,0:0:0:0:
356,143,166935,1,0,0:0:0:0:
356,143,167016,1,0,0:0:0:0:
356,143,167097,1,0,0:0:0:0:
356,143,167178,1,8,0:0:0:0:
356,143,167341,1,0,0:0:0:0:
356,143,167503,1,8,0:0:0:0:
276,117,167584,1,8,0:0:0:0:
356,143,167665,1,0,0:0:0:0:
356,143,167827,1,0,0:0:0:0:
318,113,167989,1,12,0:0:0:0:
296,119,168313,1,0,0:0:0:0:
296,119,168476,1,0,0:0:0:0:
373,175,168557,1,8,0:0:0:0:
296,119,168638,1,0,0:0:0:0:
318,113,168800,1,12,0:0:0:0:
344,116,169124,1,0,0:0:0:0:
301,158,169205,1,0,0:0:0:0:
344,116,169286,1,8,0:0:0:0:
291,103,169449,1,0,0:0:0:0:
291,103,169611,1,8,0:0:0:0:
138,136,169692,1,8,0:0:0:0:
344,116,169773,1,0,0:0:0:0:
215,148,169854,1,8,0:0:0:0:
344,116,169935,1,0,0:0:0:0:
287,116,170097,1,12,0:0:0:0:
351,126,170422,1,8,0:0:0:0:
351,126,170476,1,8,0:0:0:0:
351,126,170530,1,8,0:0:0:0:
351,126,170584,1,0,0:0:0:0:
286,103,170746,1,0,0:0:0:0:
323,123,170827,1,0,0:0:0:0:
286,103,170908,1,8,0:0:0:0:
286,103,170989,1,8,0:0:0:0:
286,103,171070,1,0,0:0:0:0:
286,103,171151,1,0,0:0:0:0:
286,103,171232,1,8,0:0:0:0:
324,183,171395,1,12,0:0:0:0:
333,147,171719,1,0,0:0:0:0:
333,147,171881,1,8,0:0:0:0:
359,138,172043,1,8,0:0:0:0:
323,99,172124,1,8,0:0:0:0:
359,138,172205,1,0,0:0:0:0:
323,99,172286,1,8,0:0:0:0:
359,138,172368,1,0,0:0:0:0:
359,138,172530,1,8,0:0:0:0:
361,131,172692,1,0,0:0:0:0:
361,131,172773,1,8,0:0:0:0:
361,131,172854,1,0,0:0:0:0:
361,131,172935,1,0,0:0:0:0:
361,131,173016,1,8,0:0:0:0:
361,131,173097,1,8,0:0:0:0:
361,131,173178,1,0,0:0:0:0:
293,92,173341,1,8,0:0:0:0:
247,86,173422,1,8,0:0:0:0:
247,86,173503,1,0,0:0:0:0:
282,79,173584,1,0,0:0:0:0:
279,105,173665,1,8,0:0:0:0:
285,112,173827,1,0,0:0:0:0:
296,107,173989,1,8,0:0:0:0:
292,101,174313,1,0,0:0:0:0:
292,101,174476,1,8,0:0:0:0:
266,102,174638,1,8,0:0:0:0:
155,121,174719,1,0,0:0:0:0:
260,98,174800,1,8,0:0:0:0:
260,98,174881,1,8,0:0:0:0:
260,98,174962,1,0,0:0:0:0:
282,79,175043,1,0,0:0:0:0:
260,98,175124,1,8,0:0:0:0:
260,98,175286,1,8,0:0:0:0:
220,142,175368,1,8,0:0:0:0:
220,142,175449,1,0,0:0:0:0:
301,113,175611,1,0,0:0:0:0:
301,113,175773,1,8,0:0:0:0:
322,111,175935,1,8,0:0:0:0:
322,111,176016,1,0,0:0:0:0:
322,111,176097,1,8,0:0:0:0:
248,100,176259,1,0,0:0:0:0:
248,102,176341,1,0,0:0:0:0:
322,111,176422,1,8,0:0:0:0:
211,88,176503,1,0,0:0:0:0:
341,116,176584,1,8,0:0:0:0:
211,88,176665,1,8,0:0:0:0:
341,116,176746,1,0,0:0:0:0:
341,116,176908,1,0,0:0:0:0:
341,116,177070,1,12,0:0:0:0:
335,134,177395,1,8,0:0:0:0:
335,134,177557,1,8,0:0:0:0:
335,134,177638,1,8,0:0:0:0:
335,134,177719,1,8,0:0:0:0:
335,134,177881,1,4,0:0:0:0:
341,133,178205,1,0,0:0:0:0:
341,133,178368,1,8,0:0:0:0:
349,139,178530,1,0,0:0:0:0:
349,139,178692,1,8,0:0:0:0:
310,121,178773,1,8,0:0:0:0:
344,141,178854,1,0,0:0:0:0:
248,132,178935,1,0,0:0:0:0:
344,141,179016,1,8,0:0:0:0:
341,133,179178,1,12,0:0:0:0:
337,127,179503,1,0,0:0:0:0:
337,127,179665,1,8,0:0:0:0:
279,123,179827,1,8,0:0:0:0:
279,123,179908,1,0,0:0:0:0:
279,123,179989,1,8,0:0:0:0:
279,123,180151,1,0,0:0:0:0:
279,123,180313,1,0,0:0:0:0:
352,191,180476,1,8,0:0:0:0:
275,144,180638,1,4,0:0:0:0:
298,120,180962,1,8,0:0:0:0:
298,120,181286,1,0,0:0:0:0:
298,120,181611,1,8,0:0:0:0:
298,120,181773,1,8,0:0:0:0:
298,120,181854,1,8,0:0:0:0:
298,120,181935,1,8,0:0:0:0:
298,120,182259,1,0,0:0:0:0:
195,155,182422,1,8,0:0:0:0:
326,129,182584,1,0,0:0:0:0:
206,148,182746,1,0,0:0:0:0:
326,129,182908,1,8,0:0:0:0:
307,121,183232,1,0,0:0:0:0:
307,121,183557,1,8,0:0:0:0:
362,210,183719,1,0,0:0:0:0:
326,166,183881,1,0,0:0:0:0:
326,166,184205,1,0,0:0:0:0:
299,158,184530,1,8,0:0:0:0:
299,158,184611,1,8,0:0:0:0:
299,158,184692,1,8,0:0:0:0:
299,158,184773,1,8,0:0:0:0:
299,158,184854,1,0,0:0:0:0:
299,158,185178,1,0,0:0:0:0:
294,147,185341,1,8,0:0:0:0:
294,147,185422,1,8,0:0:0:0:
294,147,185503,1,0,0:0:0:0:
294,147,185665,1,8,0:0:0:0:
276,196,185827,1,4,0:0:0:0:
298,132,186151,1,0,0:0:0:0:
327,135,186476,1,8,0:0:0:0:
275,143,186638,1,8,0:0:0:0:
327,135,186800,1,0,0:0:0:0:
327,135,187124,1,8,0:0:0:0:
327,135,187449,1,0,0:0:0:0:
312,139,187611,1,0,0:0:0:0:
312,139,187773,1,8,0:0:0:0:
312,139,188097,1,8,0:0:0:0:
312,139,188422,1,0,0:0:0:0:
313,132,188584,1,0,0:0:0:0:
313,132,188746,1,8,0:0:0:0:
313,132,188908,1,8,0:0:0:0:
354,146,188989,1,8,0:0:0:0:
313,132,189070,1,0,0:0:0:0:
313,132,189232,1,0,0:0:0:0:
313,132,189395,1,8,0:0:0:0:
313,132,189557,1,0,0:0:0:0:
354,146,189638,1,0,0:0:0:0:
313,132,189719,1,8,0:0:0:0:
292,164,189881,1,0,0:0:0:0:
292,164,189962,1,0,0:0:0:0:
292,164,190043,1,8,0:0:0:0:
292,164,190124,1,0,0:0:0:0:
292,164,190205,1,8,0:0:0:0:
292,164,190368,1,0,0:0:0:0:
292,164,190449,1,8,0:0:0:0:
292,164,190530,1,0,0:0:0:0:
236,130,190692,1,12,0:0:0:0:
236,130,191016,1,0,0:0:0:0:
333,141,191178,1,0,0:0:0:0:
324,130,191341,1,8,0:0:0:0:
324,130,191422,1,0,0:0:0:0:
324,130,191503,1,8,0:0:0:0:
324,130,191665,1,0,0:0:0:0:
324,130,191827,1,0,0:0:0:0:
324,130,191908,1,0,0:0:0:0:
324,130,191989,1,8,0:0:0:0:
324,130,192070,1,0,0:0:0:0:
324,130,192151,1,0,0:0:0:0:
324,130,192232,1,0,0:0:0:0:
324,130,192313,1,8,0:0:0:0:
324,130,192638,1,8,0:0:0:0:
324,130,192881,1,8,0:0:0:0:
324,130,192962,1,0,0:0:0:0:
324,130,193124,1,0,0:0:0:0:
324,130,193286,1,8,0:0:0:0:
324,130,193530,1,8,0:0:0:0:
324,130,193611,1,0,0:0:0:0:
324,130,193773,1,8,0:0:0:0:
324,130,193854,1,0,0:0:0:0:
324,130,193935,1,8,0:0:0:0:
323,119,194097,1,0,0:0:0:0:
222,144,194259,1,8,0:0:0:0:
222,144,194341,1,0,0:0:0:0:
222,144,194422,1,8,0:0:0:0:
222,144,194503,1,0,0:0:0:0:
300,118,194584,1,0,0:0:0:0:
294,146,194746,1,12,0:0:0:0:
353,167,195070,1,0,0:0:0:0:
353,167,195232,1,8,0:0:0:0:
353,167,195394,1,0,0:0:0:0:
340,150,195475,1,0,0:0:0:0:
353,167,195556,1,8,0:0:0:0:
353,167,195718,1,0,0:0:0:0:
353,167,195881,1,8,0:0:0:0:
327,139,195962,1,0,0:0:0:0:
353,167,196043,1,8,0:0:0:0:
327,139,196124,1,8,0:0:0:0:
353,167,196205,1,0,0:0:0:0:
308,154,196286,1,0,0:0:0:0:
353,167,196367,1,8,0:0:0:0:
353,167,196529,1,0,0:0:0:0:
353,167,196691,1,8,0:0:0:0:
331,133,196773,1,0,0:0:0:0:
353,167,196854,1,8,0:0:0:0:
269,134,196935,1,8,0:0:0:0:
353,167,197016,1,0,0:0:0:0:
353,167,197178,1,0,0:0:0:0:
353,167,197340,1,8,0:0:0:0:
341,173,197664,1,0,0:0:0:0:
341,173,197827,1,8,0:0:0:0:
333,174,197989,1,0,0:0:0:0:
319,142,198070,1,0,0:0:0:0:
333,174,198151,1,8,0:0:0:0:
273,171,198232,1,0,0:0:0:0:
333,174,198313,1,8,0:0:0:0:
333,174,198475,1,0,0:0:0:0:
333,174,198637,1,8,0:0:0:0:
319,142,198718,1,8,0:0:0:0:
333,174,198800,1,0,0:0:0:0:
306,140,198881,1,0,0:0:0:0:
333,174,198962,1,8,0:0:0:0:
333,174,199124,1,0,0:0:0:0:
333,174,199286,1,8,0:0:0:0:
319,142,199368,1,8,0:0:0:0:
309,167,199448,1,0,0:0:0:0:
285,123,199530,1,0,0:0:0:0:
309,167,199610,1,8,0:0:0:0:
316,140,199692,1,0,0:0:0:0:
290,141,199773,1,8,0:0:0:0:
290,141,199935,1,8,0:0:0:0:
290,141,200097,1,0,0:0:0:0:
290,141,200259,1,0,0:0:0:0:
290,141,200422,1,12,0:0:0:0:
310,148,200746,1,0,0:0:0:0:
310,148,200908,1,0,0:0:0:0:
310,148,201070,1,8,0:0:0:0:
310,148,201232,1,4,0:0:0:0:
287,150,201556,1,0,0:0:0:0:
288,139,201718,1,8,0:0:0:0:
325,178,201881,1,0,0:0:0:0:
317,136,201962,1,0,0:0:0:0:
288,139,202043,1,8,0:0:0:0:
317,136,202124,1,8,0:0:0:0:
288,139,202205,1,0,0:0:0:0:
289,129,202286,1,8,0:0:0:0:
288,139,202367,1,0,0:0:0:0:
288,139,202530,1,12,0:0:0:0:
288,139,202854,1,0,0:0:0:0:
288,139,203016,1,8,0:0:0:0:
288,139,203178,1,0,0:0:0:0:
305,105,203259,1,0,0:0:0:0:
288,139,203341,1,8,0:0:0:0:
266,112,203422,1,8,0:0:0:0:
316,121,203503,1,0,0:0:0:0:
301,121,203664,1,8,0:0:0:0:
311,116,203746,1,8,0:0:0:0:
311,116,203827,1,8,0:0:0:0:
311,116,203908,1,8,0:0:0:0:
315,135,203989,1,0,0:0:0:0:
231,116,204313,1,12,0:0:0:0:
260,121,204475,1,0,0:0:0:0:
309,117,204556,1,0,0:0:0:0:
260,121,204637,1,8,0:0:0:0:
260,121,204800,1,0,0:0:0:0:
260,121,204962,1,8,0:0:0:0:
285,150,205043,1,0,0:0:0:0:
260,121,205124,1,8,0:0:0:0:
285,150,205205,1,8,0:0:0:0:
260,121,205286,1,0,0:0:0:0:
271,127,205367,1,0,0:0:0:0:
260,121,205448,1,8,0:0:0:0:
281,114,205610,1,0,0:0:0:0:
281,114,205773,1,8,0:0:0:0:
297,97,205854,1,0,0:0:0:0:
281,114,205935,1,8,0:0:0:0:
272,163,206016,1,8,0:0:0:0:
296,142,206097,1,0,0:0:0:0:
281,114,206259,1,0,0:0:0:0:
281,114,206421,1,8,0:0:0:0:
274,116,206746,1,0,0:0:0:0:
274,116,206908,1,8,0:0:0:0:
279,120,207070,1,0,0:0:0:0:
278,139,207151,1,0,0:0:0:0:
279,120,207232,1,8,0:0:0:0:
278,139,207313,1,8,0:0:0:0:
279,120,207395,1,0,0:0:0:0:
279,120,207556,1,0,0:0:0:0:
263,158,207638,1,0,0:0:0:0:
279,120,207718,1,8,0:0:0:0:
278,139,207800,1,8,0:0:0:0:
279,120,207881,1,8,0:0:0:0:
279,120,208043,1,8,0:0:0:0:
279,120,208205,1,0,0:0:0:0:
279,120,208367,1,8,0:0:0:0:
321,137,208448,1,8,0:0:0:0:
279,120,208529,1,0,0:0:0:0:
321,137,208610,1,8,0:0:0:0:
279,120,208691,1,0,0:0:0:0:
299,123,208773,1,0,0:0:0:0:
279,120,208854,1,8,0:0:0:0:
279,120,209016,1,8,0:0:0:0:
299,123,209097,1,8,0:0:0:0:
279,120,209178,1,0,0:0:0:0:
279,120,209340,1,0,0:0:0:0:
279,120,209503,1,12,0:0:0:0:
269,121,209827,1,8,0:0:0:0:
269,121,209989,1,0,0:0:0:0:
269,121,210151,1,8,0:0:0:0:
269,121,210313,1,4,0:0:0:0:
269,121,210637,1,0,0:0:0:0:
269,121,210800,1,8,0:0:0:0:
269,121,210962,1,8,0:0:0:0:
276,137,211043,1,8,0:0:0:0:
269,121,211124,1,0,0:0:0:0:
276,137,211205,1,0,0:0:0:0:
269,121,211286,1,8,0:0:0:0:
316,126,211367,1,0,0:0:0:0:
269,121,211448,1,0,0:0:0:0:
269,121,211611,1,12,0:0:0:0:
322,172,211773,1,0,0:0:0:0:
296,126,211935,1,0,0:0:0:0:
295,97,212016,1,0,0:0:0:0:
297,129,212097,1,8,0:0:0:0:
261,82,212259,1,0,0:0:0:0:
286,115,212422,1,8,0:0:0:0:
286,115,212503,1,0,0:0:0:0:
286,115,212584,1,8,0:0:0:0:
286,115,212665,1,8,0:0:0:0:
286,115,212746,1,0,0:0:0:0:
286,115,212827,1,8,0:0:0:0:
286,115,212908,1,0,0:0:0:0:
286,115,212989,1,0,0:0:0:0:
267,107,213070,1,8,0:0:0:0:
288,110,213395,1,8,0:0:0:0:
323,102,213557,1,0,0:0:0:0:
302,122,213638,1,0,0:0:0:0:
323,102,213719,1,8,0:0:0:0:
258,132,213800,1,8,0:0:0:0:
323,102,213881,1,0,0:0:0:0:
258,132,213962,1,8,0:0:0:0:
323,102,214043,1,0,0:0:0:0:
284,134,214205,1,0,0:0:0:0:
323,102,214368,1,8,0:0:0:0:
284,97,214449,1,8,0:0:0:0:
323,102,214530,1,8,0:0:0:0:
294,94,214692,1,0,0:0:0:0:
323,102,214854,1,8,0:0:0:0:
241,116,214935,1,0,0:0:0:0:
323,102,215016,1,8,0:0:0:0:
278,121,215097,1,8,0:0:0:0:
323,102,215178,1,0,0:0:0:0:
323,102,215341,1,8,0:0:0:0:
278,121,215422,1,8,0:0:0:0:
278,121,215503,1,0,0:0:0:0:
323,102,215665,1,8,0:0:0:0:
307,138,215827,1,0,0:0:0:0:
307,138,215908,1,0,0:0:0:0:
323,102,215989,1,8,0:0:0:0:
323,102,216151,1,8,0:0:0:0:
268,125,216232,1,8,0:0:0:0:
323,102,216313,1,0,0:0:0:0:
268,125,216395,1,0,0:0:0:0:
323,102,216476,1,8,0:0:0:0:
268,125,216557,1,0,0:0:0:0:
323,102,216638,1,8,0:0:0:0:
323,102,216800,1,8,0:0:0:0:
323,102,216962,1,0,0:0:0:0:
305,74,217043,1,0,0:0:0:0:
305,74,217124,1,0,0:0:0:0:
268,146,217286,1,8,0:0:0:0:
256,141,217368,1,8,0:0:0:0:
323,102,217449,1,0,0:0:0:0:
256,141,217530,1,8,0:0:0:0:
323,102,217611,1,0,0:0:0:0:
256,141,217692,1,0,0:0:0:0:
323,102,217773,1,8,0:0:0:0:
253,123,217854,1,0,0:0:0:0:
323,102,217935,1,8,0:0:0:0:
253,123,218016,1,8,0:0:0:0:
323,102,218097,1,0,0:0:0:0:
277,147,218259,1,12,0:0:0:0:
277,147,218584,1,8,0:0:0:0:
277,147,218665,1,8,0:0:0:0:
277,147,218746,1,8,0:0:0:0:
258,126,218908,1,0,0:0:0:0:
258,126,219070,1,8,0:0:0:0:
258,126,219151,1,0,0:0:0:0:
258,126,219232,1,8,0:0:0:0:
254,135,219313,1,8,0:0:0:0:
254,135,219395,1,0,0:0:0:0:
259,156,219476,1,0,0:0:0:0:
249,122,219557,1,8,0:0:0:0:
249,122,219719,1,0,0:0:0:0:
249,122,219800,1,0,0:0:0:0:
249,122,219881,1,8,0:0:0:0:
249,122,220043,1,0,0:0:0:0:
249,122,220124,1,0,0:0:0:0:
249,122,220205,1,8,0:0:0:0:
249,122,220286,1,0,0:0:0:0:
249,122,220368,1,0,0:0:0:0:
249,122,220449,1,0,0:0:0:0:
249,122,220530,1,8,0:0:0:0:
249,122,220692,1,0,0:0:0:0:
326,175,220854,1,12,0:0:0:0:
287,150,221178,1,0,0:0:0:0:
287,150,221341,1,0,0:0:0:0:
287,150,221503,1,8,0:0:0:0:
287,150,221665,1,8,0:0:0:0:
287,150,221827,1,0,0:0:0:0:
284,144,221908,1,0,0:0:0:0:
287,150,221989,1,0,0:0:0:0:
326,175,222151,1,12,0:0:0:0:
218,127,222476,1,0,0:0:0:0:
244,131,222638,1,8,0:0:0:0:
230,121,222719,1,8,0:0:0:0:
230,121,222800,1,0,0:0:0:0:
290,119,222962,1,8,0:0:0:0:
290,119,223124,1,0,0:0:0:0:
290,119,223286,1,0,0:0:0:0:
341,190,223449,1,12,0:0:0:0:
256,192,223611,8,0,226530,0:0:0:0:
