osu file format v14

[General]
AudioFilename: audio.mp3
AudioLeadIn: 0
PreviewTime: 52848
Countdown: 0
SampleSet: Soft
StackLeniency: 0.4
Mode: 0
LetterboxInBreaks: 0
WidescreenStoryboard: 1

[Editor]
Bookmarks: 48632,71659
DistanceSpacing: 1.4
BeatDivisor: 2
GridSize: 16
TimelineZoom: 2.2

[Metadata]
Title:Heart no Shuchou
TitleUnicode:ハートの主張
Artist:CHiCO with HoneyWorks
ArtistUnicode:CHiCO with HoneyWorks
Creator:Shiino
Version:Hard
Source:
Tags:世界はiに満ちている sekai wa i ni michiteiru japanese pop jpop cut ver
BeatmapID:2271269
BeatmapSetID:1085903

[Difficulty]
HPDrainRate:5
CircleSize:3.2
OverallDifficulty:6.5
ApproachRate:7.5
SliderMultiplier:1.42
SliderTickRate:1

[Events]
//Background and Video events
0,0,"bg.jpg",0,0
//Break Periods
//Storyboard Layer 0 (Background)
//Storyboard Layer 1 (Fail)
//Storyboard Layer 2 (Pass)
//Storyboard Layer 3 (Foreground)
//Storyboard Layer 4 (Overlay)
//Storyboard Sound Samples

[TimingPoints]
308,324.324324324324,4,2,1,35,1,0
308,-125,4,2,1,35,0,0
4848,-125,4,2,1,60,0,0
5497,-100,4,2,1,60,0,0
18470,-125,4,2,1,45,0,0
23497,-100,4,2,1,60,0,0
28848,-125,4,2,1,45,0,0
33875,-100,4,2,1,60,0,0
39226,-125,4,2,1,45,0,0
44416,-100,4,2,1,60,0,0
50659,-100,4,2,1,30,0,0
50740,-100,4,2,1,40,0,0
50821,-100,4,2,1,50,0,0
50902,-200,4,2,1,60,0,0
52848,-90.909090909091,4,2,1,25,0,0
52929,-90.909090909091,4,2,1,35,0,0
53010,-90.909090909091,4,2,1,45,0,0
53091,-90.909090909091,4,2,1,55,0,0
53172,-90.909090909091,4,2,1,65,0,0
53253,-90.909090909091,4,2,1,70,0,0
53335,-90.9090909090909,4,2,1,75,0,1
71659,-90.9090909090909,4,2,1,80,0,1
79443,-100,4,2,1,75,0,0
82037,-333.333333333333,4,2,1,75,0,0
82686,-333.333333333333,4,2,1,55,0,0
83335,-333.333333333333,4,2,1,35,0,0
83983,-333.333333333333,4,2,1,15,0,0
85118,-333.333333333333,4,2,1,5,0,0

[Colours]
Combo1 : 226,245,254
Combo2 : 0,152,202
Combo3 : 254,206,255
Combo4 : 255,198,206

[HitObjects]
464,206,308,6,0,B|320:192,1,113.6,2|0,0:0|0:0,0:0:0:0:
260,93,956,2,0,P|253:140|253:182,1,56.8,2|2,0:0|0:0,0:0:0:0:
230,234,1280,1,2,0:0:0:0:
230,234,1443,2,0,P|217:167|195:114,1,113.6,2|2,0:0|0:0,0:0:0:0:
87,47,2091,2,0,P|7:53|-19:56,2,56.8,2|2|2,0:0|0:0|0:0,0:0:0:0:
268,38,2740,2,0,B|374:34|310:81|465:82,1,170.4,2|0,0:0|0:0,0:0:0:0:
277,179,3551,6,0,P|270:237|269:266,2,56.8,2|2|2,0:0|0:0|0:0,0:0:0:0:
215,113,4037,2,0,P|156:100|102:162,2,113.6,2|2|2,0:0|0:0|0:0,0:0:0:0:
178,195,4848,5,8,0:2:0:0:
178,195,5010,1,10,0:2:0:0:
364,163,5335,5,14,0:1:0:0:
364,163,5497,2,0,P|349:261|348:292,1,71,2|8,0:0|0:1,0:0:0:0:
332,345,5821,2,0,P|266:329|240:326,1,71,8|8,0:0|0:0,0:0:0:0:
186,379,6145,2,0,P|120:361|92:354,1,71,10|10,0:1|0:1,0:0:0:0:
166,281,6470,1,10,0:0:0:0:
146,183,6632,6,0,B|63:180|96:229|4:225,1,142,14|8,0:1|0:1,0:0:0:0:
8,133,7118,2,0,P|14:69|16:30,1,71,8|8,0:0|0:0,0:0:0:0:
88,7,7443,2,0,P|129:30|169:35,1,71,10|10,0:1|0:1,0:0:0:0:
238,66,7767,1,10,0:0:0:0:
325,19,7929,6,0,P|314:101|308:201,1,142,14|8,0:1|0:1,0:0:0:0:
233,213,8416,2,0,P|270:198|324:191,1,71,8|2,0:0|0:0,0:0:0:0:
387,160,8740,2,0,P|421:167|454:180,1,71,8|10,0:0|0:0,0:0:0:0:
512,108,9064,1,8,0:0:0:0:
452,27,9226,6,0,P|358:32|318:90,1,142,14|8,0:1|0:1,0:0:0:0:
286,145,9713,2,0,P|298:200|285:252,1,71,8|0,0:0|0:0,0:0:0:0:
369,270,10037,2,0,P|364:305|364:340,1,71,8|8,0:1|0:1,0:0:0:0:
282,296,10362,1,8,0:0:0:0:
198,349,10524,6,0,B|111:330|157:293|60:271,1,142,8|8,0:1|0:1,0:0:0:0:
36,194,11010,2,0,P|88:189|134:180,1,71,8|0,0:0|0:0,0:0:0:0:
184,236,11335,2,0,P|224:229|267:227,1,71,8|8,0:1|0:1,0:0:0:0:
329,173,11659,1,8,0:0:0:0:
236,140,11821,6,0,P|230:67|221:-6,1,142,8|8,0:1|0:1,0:0:0:0:
313,10,12307,2,0,P|318:68|322:111,1,71,8|0,0:0|0:0,0:0:0:0:
389,141,12632,2,0,P|432:136|466:140,1,71,8|8,0:1|0:1,0:0:0:0:
415,219,12956,1,8,0:0:0:0:
500,268,13118,6,0,P|433:253|361:305,1,142,8|8,0:1|0:1,0:0:0:0:
435,355,13605,1,8,0:0:0:0:
344,373,13767,2,0,P|281:359|185:348,1,142,8|8,0:1|0:1,0:0:0:0:
259,275,14253,1,8,0:0:0:0:
166,264,14416,2,0,B|77:261|125:212|27:213,1,142,8|8,0:0|0:1,0:0:0:0:
32,114,14902,6,0,P|73:136|149:128,1,71,12|0,0:0|0:0,0:0:0:0:
177,183,15226,2,0,P|224:165|262:157,1,71,8|8,0:1|0:1,0:0:0:0:
207,74,15551,1,8,0:0:0:0:
298,35,15713,6,0,B|395:43|348:-2|460:2,1,142,12|8,0:1|0:1,0:0:0:0:
502,62,16199,2,0,P|492:132|490:173,1,71,8|0,0:0|0:0,0:0:0:0:
399,122,16524,2,0,P|409:192|411:233,1,71,8|8,0:1|0:1,0:0:0:0:
391,282,16848,1,8,0:0:0:0:
301,239,17010,6,0,P|230:226|143:218,1,142,12|8,0:1|0:1,0:0:0:0:
85,273,17497,2,0,P|102:307|110:348,1,71,8|8,0:0|0:0,0:0:0:0:
160,218,17821,5,8,0:1:0:0:
160,218,17983,1,8,0:1:0:0:
71,170,18145,2,0,P|81:114|82:86,1,71,8|0,0:0|0:0,0:0:0:0:
172,86,18470,6,0,P|222:121|224:210,1,113.6,14|8,0:1|0:1,0:0:0:0:
354,310,19118,2,0,P|338:333|330:360,2,56.8,10|0|10,0:1|0:0|0:1,0:0:0:0:
440,265,19605,2,0,B|481:169|393:190|439:67,1,170.4,2|8,0:0|0:1,0:0:0:0:
280,11,20416,6,0,P|210:24|187:26,2,56.8,10|2|10,0:1|0:0|0:1,0:0:0:0:
319,100,20902,2,0,P|238:88|129:73,1,170.4,2|8,0:0|0:1,0:0:0:0:
16,200,21713,6,0,P|29:239|32:276,2,56.8,10|2|10,0:1|0:0|0:1,0:0:0:0:
69,119,22199,2,0,P|133:115|211:196,1,170.4,2|10,0:0|0:1,0:0:0:0:
129,348,23010,1,10,0:0:0:0:
129,348,23172,1,10,0:0:0:0:
280,241,23497,6,0,B|361:227|311:183|429:173,1,142,14|8,0:1|0:1,0:0:0:0:
477,229,23983,2,0,P|474:278|474:328,1,71,10|0,0:0|0:0,0:0:0:0:
401,357,24307,2,0,P|377:337|338:314,1,71,10|10,0:1|0:1,0:0:0:0:
267,263,24632,1,8,0:0:0:0:
212,346,24794,6,0,P|139:317|130:225,1,142,10|8,0:1|0:1,0:0:0:0:
189,201,25280,2,0,P|200:158|188:113,1,71,10|0,0:0|0:0,0:0:0:0:
119,79,25605,2,0,P|108:36|120:-9,1,71,10|10,0:1|0:1,0:0:0:0:
200,36,25929,1,8,0:0:0:0:
291,75,26091,6,0,P|355:68|477:47,1,142,10|8,0:1|0:1,0:0:0:0:
494,134,26578,2,0,P|429:120|409:119,1,71,8|0,0:0|0:0,0:0:0:0:
348,170,26902,2,0,P|354:225|354:266,1,71,10|10,0:1|0:1,0:0:0:0:
414,310,27226,1,8,0:0:0:0:
324,334,27389,6,0,B|233:328|283:376|163:367,1,142,10|8,0:1|0:1,0:0:0:0:
126,296,27875,2,0,P|99:347|98:372,1,71,8|2,0:0|0:0,0:0:0:0:
216,278,28199,2,0,P|186:229|152:212,1,71,10|10,0:1|0:1,0:0:0:0:
56,287,28524,2,0,P|100:293|148:300,1,71,10|2,0:0|0:0,0:0:0:0:
245,174,28848,6,0,B|318:173|282:145|368:146,1,113.6,12|8,0:1|0:1,0:0:0:0:
490,19,29497,2,0,P|447:8|427:3,2,56.8,10|2|10,0:1|0:0|0:1,0:0:0:0:
498,115,29983,2,0,P|487:191|478:307,1,170.4,2|8,0:0|0:1,0:0:0:0:
318,369,30794,6,0,P|290:374|262:380,2,56.8,10|2|10,0:1|0:0|0:1,0:0:0:0:
361,284,31280,2,0,B|256:289|298:235|186:243,1,170.4,2|8,0:0|0:1,0:0:0:0:
39,327,32091,6,0,P|49:371|50:387,2,56.8,10|2|2,0:1|0:0|0:0,0:0:0:0:
49,229,32578,2,0,P|49:145|66:37,1,170.4,2|2,0:0|0:0,0:0:0:0:
230,8,33389,5,10,0:0:0:0:
230,8,33551,1,10,0:1:0:0:
298,68,33713,1,8,0:0:0:0:
377,6,33875,6,0,P|337:74|355:153,1,142,14|8,0:1|0:1,0:0:0:0:
430,168,34362,2,0,P|442:218|432:275,1,71,10|8,0:0|0:0,0:0:0:0:
362,284,34686,2,0,P|350:334|360:391,1,71,10|10,0:1|0:1,0:0:0:0:
263,323,35010,1,8,0:0:0:0:
179,376,35172,6,0,P|173:290|164:197,1,142,10|8,0:1|0:1,0:0:0:0:
85,191,35659,2,0,P|87:258|91:288,1,71,10|8,0:0|0:0,0:0:0:0:
2,226,35983,2,0,P|-1:190|-1:155,1,71,10|10,0:1|0:1,0:0:0:0:
78,108,36307,1,8,0:0:0:0:
9,35,36470,6,0,B|97:40|57:-3|155:1,1,142,10|8,0:1|0:1,0:0:0:0:
209,65,36956,2,0,P|248:73|294:59,1,71,10|8,0:0|0:0,0:0:0:0:
365,36,37280,1,10,0:1:0:0:
433,97,37443,2,0,P|424:132|417:167,1,71,10|8,0:1|0:0,0:0:0:0:
489,225,37767,1,10,0:0:0:0:
499,321,37929,5,8,0:1:0:0:
499,321,38091,1,10,0:1:0:0:
403,293,38253,2,0,P|365:281|315:274,1,71,14|10,0:0|0:0,0:0:0:0:
285,196,38578,2,0,P|228:211|196:212,1,71,10|10,0:0|0:0,0:0:0:0:
176,295,38902,2,0,P|142:283|107:279,1,71,10|10,0:0|0:0,0:0:0:0:
41,323,39226,6,0,P|50:266|60:211,1,113.6,14|10,0:1|0:1,0:0:0:0:
9,59,39875,2,0,P|82:78|111:123,1,113.6,10|10,0:1|0:1,0:0:0:0:
187,288,40524,5,8,0:1:0:0:
187,288,40848,1,10,0:1:0:0:
294,144,41172,6,0,P|324:206|317:265,1,113.6,10|10,0:1|0:1,0:0:0:0:
187,288,41821,2,0,P|157:226|163:167,1,113.6,10|8,0:1|0:1,0:0:0:0:
278,51,42470,6,0,P|226:96|168:106,1,113.6,6|6,0:3|0:3,0:0:0:0:
24,80,43118,2,0,P|12:72|-1:66,4,28.4,10|8|8|8|8,0:0|0:0|0:0|0:0|0:1,0:0:0:0:
302,129,43767,6,0,L|371:139,1,56.8,8|8,0:1|0:0,0:0:0:0:
399,168,44091,2,0,L|471:174,1,56.8,8|8,0:1|0:0,0:0:0:0:
481,218,44416,6,0,P|470:304|464:373,1,142,14|8,0:1|0:1,0:0:0:0:
362,383,45064,2,0,P|367:312|374:241,1,142,10|8,0:1|0:1,0:0:0:0:
286,168,45713,6,0,P|275:82|269:13,1,142,8|8,0:1|0:1,0:0:0:0:
175,29,46361,2,0,P|181:99|185:170,1,142,10|8,0:1|0:1,0:0:0:0:
70,261,47010,6,0,P|114:268|147:288,1,71,10|0,0:1|0:0,0:0:0:0:
217,250,47335,2,0,P|246:283|258:320,1,71,8|2,0:1|0:0,0:0:0:0:
313,384,47659,6,0,P|327:351|352:326,1,71,10|8,0:1|0:2,0:0:0:0:
367,242,47983,2,0,P|425:229|484:244,1,71,8|2,0:2|0:0,0:0:0:0:
480,157,48307,6,0,P|403:144|383:144,1,71,10|8,0:1|0:0,0:0:0:0:
365,73,48632,2,0,P|329:79|294:82,1,71,8|8,0:1|0:0,0:0:0:0:
242,149,48956,1,10,0:1:0:0:
242,149,49118,1,10,0:1:0:0:
200,74,49280,2,0,P|165:68|129:64,1,71,14|2,0:0|0:0,0:0:0:0:
87,154,49605,6,0,P|130:163|176:146,1,71,10|8,0:1|0:0,0:0:0:0:
186,250,49929,2,0,P|226:232|254:192,1,71,8|8,0:1|0:0,0:0:0:0:
325,276,50253,2,0,P|348:238|347:189,1,71,10|10,0:1|0:0,0:0:0:0:
458,205,50578,2,0,P|455:161|427:121,1,71,10|10,0:1|0:0,0:0:0:0:
387,75,50902,6,0,B|341:58|230:139|315:188|235:246|161:255,1,284,10|0,0:0|0:0,0:0:0:0:
186,250,52848,6,0,P|193:325|193:338,1,78.1000023834229,10|2,0:1|0:0,0:0:0:0:
77,273,53172,1,10,0:1:0:0:
38,170,53335,6,0,P|61:273|72:359,1,156.200004766846,14|8,0:1|0:1,0:0:0:0:
153,379,53821,2,0,P|204:351|259:343,1,78.1000023834229,8|8,0:0|0:0,0:0:0:0:
272,257,54145,2,0,P|304:277|341:289,1,78.1000023834229,10|8,0:1|0:1,0:0:0:0:
415,362,54470,1,10,0:0:0:0:
485,288,54632,6,0,P|489:225|498:185,1,78.1000023834229,10|0,0:1|0:0,0:0:0:0:
399,167,54956,2,0,P|395:104|386:64,1,78.1000023834229,10|8,0:1|0:0,0:0:0:0:
454,9,55280,1,2,0:0:0:0:
364,53,55443,1,10,0:1:0:0:
364,53,55605,2,0,P|322:61|254:38,1,78.1000023834229,10|8,0:1|0:0,0:0:0:0:
190,4,55929,6,0,P|254:105|231:184,1,156.200004766846,10|8,0:1|0:1,0:0:0:0:
158,94,56416,2,0,P|124:75|85:73,1,78.1000023834229,8|8,0:0|0:0,0:0:0:0:
57,175,56740,1,10,0:1:0:0:
57,175,56902,1,10,0:1:0:0:
128,246,57064,1,10,0:0:0:0:
42,313,57226,6,0,P|81:320|119:324,1,78.1000023834229,10|0,0:1|0:0,0:0:0:0:
205,378,57551,2,0,P|261:368|311:363,1,78.1000023834229,10|8,0:1|0:0,0:0:0:0:
382,381,57875,2,0,P|388:338|392:280,1,78.1000023834229,10|8,0:0|0:1,0:0:0:0:
459,229,58199,1,10,0:1:0:0:
459,229,58362,1,10,0:0:0:0:
422,134,58524,5,10,0:1:0:0:
485,54,58686,1,10,0:0:0:0:
485,54,58848,1,8,0:1:0:0:
378,36,59010,6,0,P|367:88|362:146,1,78.1000023834229,12|0,0:0|0:0,0:0:0:0:
384,218,59335,1,10,0:1:0:0:
384,218,59497,1,10,0:1:0:0:
297,164,59659,1,10,0:0:0:0:
244,260,59821,6,0,B|149:251|194:311|61:298,1,156.200004766846,14|8,0:1|0:1,0:0:0:0:
32,222,60307,2,0,P|23:159|15:121,1,78.1000023834229,8|0,0:0|0:0,0:0:0:0:
66,55,60632,1,10,0:1:0:0:
66,55,60794,1,10,0:1:0:0:
151,109,60956,1,10,0:0:0:0:
209,17,61118,6,0,P|201:96|193:196,1,156.200004766846,14|8,0:1|0:1,0:0:0:0:
265,246,61605,2,0,P|274:305|279:355,1,78.1000023834229,8|10,0:0|0:1,0:0:0:0:
367,378,61929,1,10,0:1:0:0:
367,378,62091,1,10,0:1:0:0:
443,310,62253,2,0,P|448:238|450:208,1,78.1000023834229,8|8,0:0|0:1,0:0:0:0:
482,129,62578,6,0,B|397:109|421:177|316:152,1,156.200004766846,14|8,0:1|0:0,0:0:0:0:
276,72,63064,1,0,0:0:0:0:
231,165,63226,1,10,0:1:0:0:
231,165,63389,1,10,0:1:0:0:
166,87,63551,1,10,0:0:0:0:
127,188,63713,6,0,P|184:172|233:166,1,78.1000023834229,10|0,0:1|0:0,0:0:0:0:
270,243,64037,2,0,P|307:254|345:262,1,78.1000023834229,10|8,0:1|0:0,0:0:0:0:
271,332,64362,1,10,0:0:0:0:
173,343,64524,1,10,0:1:0:0:
173,343,64686,2,0,P|173:263|187:226,1,78.1000023834229,10|10,0:1|0:0,0:0:0:0:
66,219,65010,6,0,B|168:209|108:162|225:155,1,156.200004766846,10|8,0:1|0:1,0:0:0:0:
294,135,65497,2,0,P|284:172|278:232,1,78.1000023834229,8|8,0:0|0:0,0:0:0:0:
348,272,65821,1,10,0:1:0:0:
425,217,65983,1,10,0:1:0:0:
425,217,66145,1,10,0:0:0:0:
499,273,66307,6,0,P|441:244|387:243,1,78.1000023834229,10|0,0:1|0:0,0:0:0:0:
346,181,66632,2,0,P|303:170|247:185,1,78.1000023834229,10|8,0:1|0:0,0:0:0:0:
189,237,66956,2,0,P|162:266|144:300,1,78.1000023834229,10|8,0:0|0:1,0:0:0:0:
56,350,67280,2,0,P|51:284|58:239,1,78.1000023834229,10|8,0:1|0:0,0:0:0:0:
111,189,67605,5,2,0:0:0:0:
26,142,67767,1,10,0:1:0:0:
26,142,67929,1,8,0:1:0:0:
119,85,68091,6,0,P|111:181|110:207,1,78.1000023834229,12|0,0:0|0:0,0:0:0:0:
192,225,68416,1,10,0:1:0:0:
192,225,68578,1,10,0:1:0:0:
227,132,68740,1,10,0:0:0:0:
307,207,68902,6,0,B|398:206|337:254|480:262,1,156.200004766846,14|8,0:1|0:1,0:0:0:0:
488,164,69389,2,0,P|419:183|372:185,1,78.1000023834229,8|8,0:0|0:0,0:0:0:0:
353,108,69713,1,10,0:1:0:0:
353,108,69875,1,10,0:1:0:0:
254,131,70037,1,10,0:0:0:0:
295,29,70199,6,0,P|215:34|130:34,1,156.200004766846,14|8,0:1|0:1,0:0:0:0:
53,89,70686,1,8,0:0:0:0:
139,142,70848,1,10,0:1:0:0:
46,184,71010,1,10,0:0:0:0:
58,284,71172,2,0,L|61:360,5,39.0500011917115,10|8|8|8|10|8,0:0|0:0|0:0|0:0|0:0|0:0,0:0:0:0:
42,371,71659,6,0,P|110:363|135:358,1,78.1000023834229,12|2,0:1|0:0,0:0:0:0:
169,272,71983,2,0,P|237:280|262:285,1,78.1000023834229,10|2,0:0|0:0,0:0:0:0:
326,353,72307,1,10,0:0:0:0:
326,353,72470,1,10,0:1:0:0:
382,268,72632,1,10,0:0:0:0:
434,354,72794,1,10,0:1:0:0:
503,278,72956,6,0,P|500:239|495:200,1,78.1000023834229,10|0,0:0|0:0,0:0:0:0:
410,184,73280,1,10,0:0:0:0:
410,184,73443,1,10,0:1:0:0:
501,95,73605,2,0,P|463:98|416:102,1,78.1000023834229,10|8,0:0|0:1,0:0:0:0:
479,8,73929,2,0,P|441:11|394:15,1,78.1000023834229,10|8,0:0|0:1,0:0:0:0:
315,81,74253,6,0,P|235:67|214:63,1,78.1000023834229,8|2,0:0|0:0,0:0:0:0:
169,2,74578,2,0,P|182:57|186:112,1,78.1000023834229,10|10,0:0|0:1,0:0:0:0:
139,171,74902,1,10,0:0:0:0:
139,171,75064,1,10,0:1:0:0:
51,118,75226,1,10,0:0:0:0:
3,208,75389,1,10,0:1:0:0:
98,266,75551,6,0,L|202:253,1,78.1000023834229,10|0,0:0|0:0,0:0:0:0:
144,355,75875,1,10,0:0:0:0:
144,355,76037,1,10,0:1:0:0:
240,323,76199,2,0,L|317:332,1,78.1000023834229,10|8,0:0|0:1,0:0:0:0:
273,240,76524,2,0,L|350:249,1,78.1000023834229,10|8,0:0|0:1,0:0:0:0:
433,307,76848,6,0,P|439:234|452:188,1,78.1000023834229,12|0,0:0|0:0,0:0:0:0:
500,159,77172,2,0,P|494:86|481:40,1,78.1000023834229,10|0,0:0|0:0,0:0:0:0:
429,1,77497,1,8,0:0:0:0:
398,97,77659,1,8,0:1:0:0:
328,23,77821,1,10,0:0:0:0:
302,121,77983,1,8,0:1:0:0:
229,50,78145,6,0,P|174:45|130:39,1,78.1000023834229,10|0,0:0|0:0,0:0:0:0:
74,108,78470,1,8,0:0:0:0:
166,150,78632,1,8,0:1:0:0:
77,198,78794,1,10,0:0:0:0:
169,239,78956,1,8,0:1:0:0:
89,301,79118,2,0,P|134:293|189:285,1,78.1000023834229,8|8,0:0|0:0,0:0:0:0:
229,344,79443,6,0,B|320:336|267:298|379:290,1,142,14|8,0:1|0:1,0:0:0:0:
488,192,80091,2,0,P|401:201|318:206,1,142,10|10,0:1|0:1,0:0:0:0:
287,142,80578,1,10,0:0:0:0:
287,142,80659,1,8,0:0:0:0:
287,142,80740,2,0,P|259:89|172:76,1,142,14|8,0:1|0:1,0:0:0:0:
113,23,81226,6,0,P|97:77|150:160,1,142,2|10,0:0|0:3,0:0:0:0:
105,230,81713,2,0,P|151:232|201:206,1,71,6|0,0:3|0:0,0:0:0:0:
252,163,82037,6,0,B|261:145|303:120|339:171|317:208|317:208|385:178|385:280|300:248|250:301|250:301|261:249|250:218,1,404.699987649537,12|0,0:1|0:0,0:0:0:0:
