osu file format v14

[General]
AudioFilename: audio.mp3
AudioLeadIn: 0
PreviewTime: 52524
Countdown: 0
SampleSet: Normal
StackLeniency: 0.7
Mode: 1
LetterboxInBreaks: 0
WidescreenStoryboard: 0

[Editor]
DistanceSpacing: 2
BeatDivisor: 4
GridSize: 4
TimelineZoom: 1.8

[Metadata]
Title:Heart no Shuchou
TitleUnicode:Heart no Shuchou
Artist:CHiCO with HoneyWorks
ArtistUnicode:CHiCO with HoneyWorks
Creator:Karee Pan
Version:Muzukashii
Source:
Tags:sekai wa i ni michiteiru 世界はiに満ちている
BeatmapID:1559215
BeatmapSetID:738817

[Difficulty]
HPDrainRate:6
CircleSize:5
OverallDifficulty:5
ApproachRate:5
SliderMultiplier:1.4
SliderTickRate:1

[Events]
//Background and Video events
0,0,"HWBG.jpg",0,0
//Break Periods
//Storyboard Layer 0 (Background)
//Storyboard Layer 1 (Fail)
//Storyboard Layer 2 (Pass)
//Storyboard Layer 3 (Foreground)
//Storyboard Sound Samples

[TimingPoints]
308,324.324324324324,4,1,0,50,1,0
4848,-100,4,1,0,70,0,0
19118,-111.111111111111,4,1,0,50,0,0
23010,-100,4,1,0,70,0,0
28848,-111.111111111111,4,1,0,50,0,0
33389,-100,4,1,0,70,0,0
39551,-105.263157894737,4,1,0,50,0,0
39875,-111.111111111111,4,1,0,50,0,0
44416,-111.111111111111,4,1,0,60,0,0
47010,-105.263157894737,4,1,0,65,0,0
49118,-100,4,1,0,70,0,0
51064,-100,4,1,0,40,0,0
51226,-111.111111111111,4,1,0,40,0,0
52524,-117.647058823529,4,1,0,40,0,0
52848,-117.647058823529,4,1,0,50,0,0
53010,-117.647058823529,4,1,0,60,0,0
53172,-117.647058823529,4,1,0,70,0,0
53335,-100,4,1,0,80,0,1
71659,-100,4,1,0,70,0,0
81226,-105.263157894737,4,1,0,65,0,0
81713,-111.111111111111,4,1,0,60,0,0
82037,-111.111111111111,4,1,0,50,0,0

[HitObjects]
252,200,308,5,8,0:0:0:0:
252,200,956,1,0,0:0:0:0:
252,200,1118,1,0,0:0:0:0:
252,200,1280,1,0,0:0:0:0:
252,200,1443,1,8,0:0:0:0:
252,200,1767,1,8,0:0:0:0:
252,200,2091,1,8,0:0:0:0:
252,200,2253,1,0,0:0:0:0:
252,200,2416,1,0,0:0:0:0:
252,200,2740,1,8,0:0:0:0:
252,200,3551,1,8,0:0:0:0:
252,200,3713,1,0,0:0:0:0:
252,200,3875,1,0,0:0:0:0:
252,200,4037,1,8,0:0:0:0:
252,200,4362,1,8,0:0:0:0:
252,200,4686,1,0,0:0:0:0:
252,188,4848,1,12,0:0:0:0:
252,188,5010,1,12,0:0:0:0:
252,188,5335,1,4,0:0:0:0:
252,188,5659,1,0,0:0:0:0:
252,188,5821,1,8,0:0:0:0:
252,188,6145,1,0,0:0:0:0:
252,188,6470,1,8,0:0:0:0:
252,188,6632,1,4,0:0:0:0:
252,188,6956,1,0,0:0:0:0:
252,188,7118,1,8,0:0:0:0:
252,188,7443,1,0,0:0:0:0:
236,184,7605,1,0,0:0:0:0:
252,188,7767,1,8,0:0:0:0:
252,188,7929,1,12,0:0:0:0:
252,188,8253,1,0,0:0:0:0:
252,188,8416,1,8,0:0:0:0:
228,176,8578,1,0,0:0:0:0:
252,188,8740,1,0,0:0:0:0:
260,176,8902,1,8,0:0:0:0:
228,176,8983,1,8,0:0:0:0:
228,176,9064,1,8,0:0:0:0:
252,188,9226,1,4,0:0:0:0:
108,160,9551,1,0,0:0:0:0:
252,188,9713,1,8,0:0:0:0:
252,188,10037,1,8,0:0:0:0:
252,188,10199,1,0,0:0:0:0:
252,188,10362,1,8,0:0:0:0:
252,188,10524,1,0,0:0:0:0:
248,180,10848,1,0,0:0:0:0:
252,188,11010,1,8,0:0:0:0:
252,188,11335,1,8,0:0:0:0:
252,188,11497,1,0,0:0:0:0:
252,188,11659,1,8,0:0:0:0:
252,188,11821,1,0,0:0:0:0:
228,184,12145,1,0,0:0:0:0:
252,188,12307,1,8,0:0:0:0:
252,188,12632,1,8,0:0:0:0:
252,188,12794,1,0,0:0:0:0:
252,188,12956,1,0,0:0:0:0:
252,188,13118,1,8,0:0:0:0:
252,188,13443,1,0,0:0:0:0:
252,188,13605,1,0,0:0:0:0:
252,196,13767,1,8,0:0:0:0:
252,188,13929,1,8,0:0:0:0:
252,188,14091,1,0,0:0:0:0:
252,188,14253,1,8,0:0:0:0:
252,188,14416,1,0,0:0:0:0:
224,188,14497,1,0,0:0:0:0:
224,188,14578,1,0,0:0:0:0:
232,200,14740,1,0,0:0:0:0:
236,184,14902,1,12,0:0:0:0:
236,184,15226,1,8,0:0:0:0:
236,184,15389,1,0,0:0:0:0:
236,184,15551,1,8,0:0:0:0:
236,184,15713,1,4,0:0:0:0:
208,200,16037,1,0,0:0:0:0:
236,184,16199,1,8,0:0:0:0:
236,184,16524,1,8,0:0:0:0:
236,184,16686,1,0,0:0:0:0:
236,184,16848,1,8,0:0:0:0:
236,184,17010,1,4,0:0:0:0:
220,208,17335,1,0,0:0:0:0:
236,184,17497,1,8,0:0:0:0:
236,184,17821,1,8,0:0:0:0:
236,184,17983,1,0,0:0:0:0:
236,184,18470,1,4,0:0:0:0:
264,196,19118,1,0,0:0:0:0:
264,196,19443,1,0,0:0:0:0:
264,196,19605,1,8,0:0:0:0:
264,196,20416,1,0,0:0:0:0:
264,196,20578,1,0,0:0:0:0:
264,196,20740,1,8,0:0:0:0:
264,196,20902,1,8,0:0:0:0:
264,196,21713,1,0,0:0:0:0:
264,196,21875,1,0,0:0:0:0:
264,196,22037,1,0,0:0:0:0:
264,196,22199,1,8,0:0:0:0:
264,196,22686,1,8,0:0:0:0:
264,196,23010,1,12,0:0:0:0:
264,196,23172,1,12,0:0:0:0:
264,196,23497,1,4,0:0:0:0:
256,192,23821,1,0,0:0:0:0:
264,196,23983,1,0,0:0:0:0:
264,196,24307,1,0,0:0:0:0:
264,196,24470,1,8,0:0:0:0:
264,196,24794,1,8,0:0:0:0:
272,212,25118,1,0,0:0:0:0:
264,196,25280,1,8,0:0:0:0:
264,196,25605,1,0,0:0:0:0:
264,196,25767,1,0,0:0:0:0:
264,196,26091,1,8,0:0:0:0:
264,196,26416,1,8,0:0:0:0:
240,204,26578,1,0,0:0:0:0:
264,196,26902,1,0,0:0:0:0:
264,196,27064,1,8,0:0:0:0:
264,196,27389,1,8,0:0:0:0:
264,196,27713,1,0,0:0:0:0:
264,196,27875,1,8,0:0:0:0:
264,196,28037,1,8,0:0:0:0:
264,196,28199,1,0,0:0:0:0:
280,208,28362,1,0,0:0:0:0:
272,192,28524,1,8,0:0:0:0:
264,196,28848,1,8,0:0:0:0:
256,200,29172,1,8,0:0:0:0:
272,200,29497,1,0,0:0:0:0:
272,200,29659,1,0,0:0:0:0:
272,200,29821,1,8,0:0:0:0:
272,200,30145,1,0,0:0:0:0:
272,200,30470,1,0,0:0:0:0:
240,200,30794,1,0,0:0:0:0:
240,200,30956,1,0,0:0:0:0:
240,200,31118,1,8,0:0:0:0:
272,200,31443,1,0,0:0:0:0:
272,200,31767,1,0,0:0:0:0:
272,200,32091,1,8,0:0:0:0:
260,204,32253,1,0,0:0:0:0:
272,200,32416,1,0,0:0:0:0:
272,200,32578,1,8,0:0:0:0:
260,204,33389,1,8,0:0:0:0:
260,204,33551,1,0,0:0:0:0:
260,204,33713,1,8,0:0:0:0:
260,204,33875,1,4,0:0:0:0:
216,196,34199,1,0,0:0:0:0:
216,196,34362,1,8,0:0:0:0:
216,188,34686,1,0,0:0:0:0:
216,188,34848,1,0,0:0:0:0:
216,188,35010,1,8,0:0:0:0:
216,188,35172,1,0,0:0:0:0:
216,188,35497,1,0,0:0:0:0:
216,188,35659,1,8,0:0:0:0:
216,188,35983,1,0,0:0:0:0:
216,188,36145,1,0,0:0:0:0:
216,188,36307,1,8,0:0:0:0:
216,188,36470,1,8,0:0:0:0:
296,188,36794,1,0,0:0:0:0:
296,188,36956,1,8,0:0:0:0:
216,188,37280,1,8,0:0:0:0:
216,188,37443,1,8,0:0:0:0:
216,188,37605,1,0,0:0:0:0:
216,188,37767,1,8,0:0:0:0:
216,188,38091,1,0,0:0:0:0:
216,188,38253,1,8,0:0:0:0:
216,188,38416,1,8,0:0:0:0:
216,188,38578,1,8,0:0:0:0:
216,188,38740,1,0,0:0:0:0:
216,188,38902,1,0,0:0:0:0:
216,188,39064,1,8,0:0:0:0:
216,188,39226,1,4,0:0:0:0:
216,188,39551,1,0,0:0:0:0:
224,192,39875,1,8,0:0:0:0:
224,192,40199,1,8,0:0:0:0:
224,192,40524,1,0,0:0:0:0:
40,180,41172,1,8,0:0:0:0:
208,176,41497,1,8,0:0:0:0:
208,176,41821,1,0,0:0:0:0:
152,164,42470,1,0,0:0:0:0:
152,164,42794,1,0,0:0:0:0:
152,164,43118,1,8,0:0:0:0:
172,176,43199,1,8,0:0:0:0:
172,176,43280,1,8,0:0:0:0:
152,172,43443,1,0,0:0:0:0:
152,172,43767,1,0,0:0:0:0:
152,172,43929,1,8,0:0:0:0:
152,172,44091,1,0,0:0:0:0:
152,172,44253,1,8,0:0:0:0:
152,172,44416,1,0,0:0:0:0:
152,172,44740,1,0,0:0:0:0:
176,152,45064,1,8,0:0:0:0:
176,152,45389,1,0,0:0:0:0:
176,152,45713,1,8,0:0:0:0:
176,152,46037,1,0,0:0:0:0:
176,152,46362,1,0,0:0:0:0:
176,152,46686,1,0,0:0:0:0:
176,152,47010,1,8,0:0:0:0:
176,152,47172,1,0,0:0:0:0:
176,152,47335,1,0,0:0:0:0:
176,152,47659,1,8,0:0:0:0:
176,152,47821,1,0,0:0:0:0:
176,152,47983,1,8,0:0:0:0:
176,152,48307,1,8,0:0:0:0:
176,152,48470,1,8,0:0:0:0:
192,168,48632,1,0,0:0:0:0:
212,176,48794,1,8,0:0:0:0:
212,176,48875,1,8,0:0:0:0:
184,168,48956,1,8,0:0:0:0:
184,168,49118,1,0,0:0:0:0:
184,168,49280,1,8,0:0:0:0:
184,168,49443,1,8,0:0:0:0:
184,168,49605,1,0,0:0:0:0:
188,168,49929,1,0,0:0:0:0:
184,168,50091,1,0,0:0:0:0:
184,168,50253,1,8,0:0:0:0:
184,168,50416,1,0,0:0:0:0:
184,168,50497,1,0,0:0:0:0:
184,168,50578,1,0,0:0:0:0:
184,168,50740,1,8,0:0:0:0:
184,168,50902,1,8,0:0:0:0:
256,192,51064,12,0,52524,0:0:0:0:
248,188,52848,5,0,0:0:0:0:
248,188,53010,1,0,0:0:0:0:
248,188,53172,1,0,0:0:0:0:
248,188,53335,1,12,0:0:0:0:
232,192,53659,1,0,0:0:0:0:
232,192,53821,1,8,0:0:0:0:
232,192,53983,1,0,0:0:0:0:
232,192,54064,1,0,0:0:0:0:
232,192,54145,1,0,0:0:0:0:
232,192,54307,1,0,0:0:0:0:
232,192,54470,1,8,0:0:0:0:
232,192,54632,1,0,0:0:0:0:
232,192,54956,1,8,0:0:0:0:
232,192,55280,1,0,0:0:0:0:
232,192,55443,1,8,0:0:0:0:
232,192,55605,1,0,0:0:0:0:
232,192,55767,1,0,0:0:0:0:
232,192,55929,1,8,0:0:0:0:
232,192,56253,1,0,0:0:0:0:
232,192,56416,1,8,0:0:0:0:
232,192,56578,1,0,0:0:0:0:
232,192,56659,1,0,0:0:0:0:
232,192,56740,1,0,0:0:0:0:
232,192,56902,1,8,0:0:0:0:
232,192,57064,1,0,0:0:0:0:
232,192,57226,1,0,0:0:0:0:
232,192,57551,1,8,0:0:0:0:
232,192,57875,1,0,0:0:0:0:
232,192,57956,1,0,0:0:0:0:
232,192,58037,1,0,0:0:0:0:
232,192,58199,1,8,0:0:0:0:
232,192,58362,1,8,0:0:0:0:
232,192,58524,1,0,0:0:0:0:
252,188,58686,1,8,0:0:0:0:
232,192,58848,1,0,0:0:0:0:
232,192,59010,1,12,0:0:0:0:
232,192,59335,1,0,0:0:0:0:
232,192,59497,1,0,0:0:0:0:
232,192,59659,1,8,0:0:0:0:
232,192,59821,1,4,0:0:0:0:
232,192,60145,1,0,0:0:0:0:
232,192,60307,1,8,0:0:0:0:
232,192,60632,1,0,0:0:0:0:
232,192,60794,1,8,0:0:0:0:
232,192,60956,1,0,0:0:0:0:
232,192,61118,1,12,0:0:0:0:
232,192,61443,1,0,0:0:0:0:
232,192,61605,1,8,0:0:0:0:
232,192,61767,1,0,0:0:0:0:
232,192,61929,1,8,0:0:0:0:
232,192,62091,1,0,0:0:0:0:
232,192,62578,1,12,0:0:0:0:
232,192,62902,1,8,0:0:0:0:
232,192,63064,1,0,0:0:0:0:
232,192,63145,1,0,0:0:0:0:
232,192,63226,1,0,0:0:0:0:
232,192,63389,1,0,0:0:0:0:
232,192,63551,1,8,0:0:0:0:
232,192,63713,1,0,0:0:0:0:
232,192,64037,1,8,0:0:0:0:
232,192,64362,1,0,0:0:0:0:
232,192,64524,1,8,0:0:0:0:
232,192,64686,1,0,0:0:0:0:
232,192,64848,1,0,0:0:0:0:
232,192,65010,1,8,0:0:0:0:
232,192,65335,1,0,0:0:0:0:
232,192,65497,1,8,0:0:0:0:
232,192,65659,1,0,0:0:0:0:
232,192,65740,1,0,0:0:0:0:
232,192,65821,1,0,0:0:0:0:
232,192,65983,1,0,0:0:0:0:
232,192,66145,1,8,0:0:0:0:
232,192,66307,1,0,0:0:0:0:
232,192,66632,1,8,0:0:0:0:
232,192,66956,1,8,0:0:0:0:
232,192,67037,1,8,0:0:0:0:
232,192,67118,1,8,0:0:0:0:
232,192,67280,1,0,0:0:0:0:
232,192,67443,1,8,0:0:0:0:
232,192,67605,1,8,0:0:0:0:
240,184,67767,1,0,0:0:0:0:
232,192,67929,1,0,0:0:0:0:
232,192,68091,1,12,0:0:0:0:
240,192,68416,1,0,0:0:0:0:
240,192,68578,1,0,0:0:0:0:
240,192,68740,1,8,0:0:0:0:
240,192,68902,1,4,0:0:0:0:
240,192,69226,1,0,0:0:0:0:
240,192,69389,1,8,0:0:0:0:
240,192,69713,1,0,0:0:0:0:
240,192,69875,1,8,0:0:0:0:
240,192,70037,1,0,0:0:0:0:
240,192,70199,1,12,0:0:0:0:
240,192,70524,1,0,0:0:0:0:
240,192,70686,1,8,0:0:0:0:
240,192,70848,1,0,0:0:0:0:
240,192,71010,1,8,0:0:0:0:
240,192,71172,1,0,0:0:0:0:
240,192,71497,1,8,0:0:0:0:
240,192,71659,1,0,0:0:0:0:
224,184,71821,1,0,0:0:0:0:
224,184,71983,1,8,0:0:0:0:
224,184,72145,1,8,0:0:0:0:
224,184,72307,1,0,0:0:0:0:
224,184,72470,1,0,0:0:0:0:
224,184,72632,1,8,0:0:0:0:
232,176,72794,1,0,0:0:0:0:
224,184,72956,1,8,0:0:0:0:
224,184,73280,1,0,0:0:0:0:
224,184,73443,1,8,0:0:0:0:
224,184,73605,1,0,0:0:0:0:
224,184,73929,1,8,0:0:0:0:
224,184,74253,1,0,0:0:0:0:
208,176,74416,1,8,0:0:0:0:
224,184,74578,1,0,0:0:0:0:
224,184,74740,1,0,0:0:0:0:
224,184,74902,1,8,0:0:0:0:
224,184,75064,1,8,0:0:0:0:
208,176,75226,1,0,0:0:0:0:
224,184,75389,1,0,0:0:0:0:
224,184,75551,1,8,0:0:0:0:
224,184,75875,1,8,0:0:0:0:
224,184,76037,1,0,0:0:0:0:
224,184,76199,1,8,0:0:0:0:
224,184,76524,1,0,0:0:0:0:
212,176,76848,1,12,0:0:0:0:
232,180,77010,1,0,0:0:0:0:
232,180,77172,1,8,0:0:0:0:
232,180,77497,1,8,0:0:0:0:
232,180,77659,1,0,0:0:0:0:
232,180,77821,1,8,0:0:0:0:
232,180,77983,1,0,0:0:0:0:
232,180,78064,1,0,0:0:0:0:
232,180,78145,1,0,0:0:0:0:
232,180,78307,1,0,0:0:0:0:
232,180,78470,1,8,0:0:0:0:
232,180,78794,1,0,0:0:0:0:
232,180,78956,1,8,0:0:0:0:
236,184,79037,1,8,0:0:0:0:
232,180,79118,1,8,0:0:0:0:
232,180,79280,1,8,0:0:0:0:
232,180,79443,1,0,0:0:0:0:
232,180,79767,1,0,0:0:0:0:
232,180,79929,1,8,0:0:0:0:
232,180,80091,1,8,0:0:0:0:
232,180,80253,1,0,0:0:0:0:
232,180,80416,1,0,0:0:0:0:
232,180,80578,1,8,0:0:0:0:
240,184,80659,1,8,0:0:0:0:
240,184,80740,1,8,0:0:0:0:
232,180,81226,1,8,0:0:0:0:
232,180,81713,1,0,0:0:0:0:
232,180,82037,1,4,0:0:0:0:
