osu file format v14

[General]
AudioFilename: audio.mp3
AudioLeadIn: 0
PreviewTime: 52524
Countdown: 0
SampleSet: Normal
StackLeniency: 0.7
Mode: 1
LetterboxInBreaks: 0
WidescreenStoryboard: 0

[Editor]
DistanceSpacing: 2
BeatDivisor: 1
GridSize: 4
TimelineZoom: 1.8

[Metadata]
Title:Heart no Shuchou
TitleUnicode:Heart no Shuchou
Artist:CHiCO with HoneyWorks
ArtistUnicode:CHiCO with HoneyWorks
Creator:Karee Pan
Version:Kantan
Source:
Tags:sekai wa i ni michiteiru 世界はiに満ちている
BeatmapID:1559214
BeatmapSetID:738817

[Difficulty]
HPDrainRate:8
CircleSize:5
OverallDifficulty:3
ApproachRate:5
SliderMultiplier:1.4
SliderTickRate:1

[Events]
//Background and Video events
0,0,"HWBG.jpg",0,0
//Break Periods
//Storyboard Layer 0 (Background)
//Storyboard Layer 1 (Fail)
//Storyboard Layer 2 (Pass)
//Storyboard Layer 3 (Foreground)
//Storyboard Sound Samples

[TimingPoints]
308,324.324324324324,4,1,0,50,1,0
4848,-100,4,1,0,70,0,0
18470,-100,4,1,0,50,0,0
23010,-100,4,1,0,70,0,0
28848,-100,4,1,0,50,0,0
33389,-100,4,1,0,70,0,0
39226,-100,4,1,0,50,0,0
47010,-100,4,1,0,60,0,0
49605,-100,4,1,0,70,0,0
51064,-100,4,1,0,40,0,0
52848,-100,4,1,0,65,0,0
53335,-100,4,1,0,80,0,1
71659,-100,4,1,0,70,0,0
81713,-100,4,1,0,60,0,0
82037,-100,4,1,0,50,0,0

[HitObjects]
256,196,308,5,8,0:0:0:0:
284,208,956,1,0,0:0:0:0:
260,200,1443,1,8,0:0:0:0:
260,200,2740,1,8,0:0:0:0:
260,200,3551,1,0,0:0:0:0:
192,204,4037,1,8,0:0:0:0:
240,212,4848,1,12,0:0:0:0:
240,212,5335,1,4,0:0:0:0:
256,200,6145,1,8,0:0:0:0:
256,200,6632,1,4,0:0:0:0:
256,200,7443,1,0,0:0:0:0:
256,200,7929,1,12,0:0:0:0:
256,200,8740,1,8,0:0:0:0:
256,200,9226,1,4,0:0:0:0:
252,180,10037,1,8,0:0:0:0:
252,180,10524,1,0,0:0:0:0:
252,180,11335,1,8,0:0:0:0:
252,180,11821,1,0,0:0:0:0:
252,180,12632,1,8,0:0:0:0:
252,180,13118,1,8,0:0:0:0:
252,180,13929,1,8,0:0:0:0:
252,180,14902,1,12,0:0:0:0:
252,180,15713,1,0,0:0:0:0:
252,180,16524,1,8,0:0:0:0:
252,180,17010,1,0,0:0:0:0:
252,180,17821,1,8,0:0:0:0:
252,180,18470,1,4,0:0:0:0:
256,180,19767,1,8,0:0:0:0:
256,180,21064,1,0,0:0:0:0:
256,180,22362,1,8,0:0:0:0:
256,180,23010,1,12,0:0:0:0:
256,180,23497,1,4,0:0:0:0:
256,180,24307,1,8,0:0:0:0:
256,180,24794,1,0,0:0:0:0:
256,180,25605,1,0,0:0:0:0:
256,180,26091,1,8,0:0:0:0:
256,180,26902,1,8,0:0:0:0:
256,180,27389,1,0,0:0:0:0:
256,180,28848,1,8,0:0:0:0:
256,180,29497,1,0,0:0:0:0:
256,180,30145,1,0,0:0:0:0:
256,180,31443,1,0,0:0:0:0:
256,180,32091,1,8,0:0:0:0:
256,180,32578,1,8,0:0:0:0:
256,180,33875,1,4,0:0:0:0:
256,180,34686,1,0,0:0:0:0:
256,180,35172,1,8,0:0:0:0:
256,180,35983,1,8,0:0:0:0:
256,180,36470,1,0,0:0:0:0:
256,180,37280,1,0,0:0:0:0:
256,180,37767,1,8,0:0:0:0:
256,180,39226,1,4,0:0:0:0:
256,180,39875,1,8,0:0:0:0:
256,180,40524,1,0,0:0:0:0:
256,180,41821,1,0,0:0:0:0:
256,180,42470,1,0,0:0:0:0:
256,180,43118,1,8,0:0:0:0:
256,180,44416,1,0,0:0:0:0:
248,184,45064,1,8,0:0:0:0:
260,192,45713,1,8,0:0:0:0:
260,192,47010,1,8,0:0:0:0:
260,192,47659,1,0,0:0:0:0:
260,192,48307,1,8,0:0:0:0:
268,196,48956,1,0,0:0:0:0:
260,192,49605,1,0,0:0:0:0:
260,192,50253,1,8,0:0:0:0:
260,192,50578,1,0,0:0:0:0:
260,192,50902,1,8,0:0:0:0:
256,192,51064,8,0,52199,0:0:0:0:
260,192,52848,5,0,0:0:0:0:
260,192,53335,1,12,0:0:0:0:
260,192,54145,1,0,0:0:0:0:
260,192,54632,1,8,0:0:0:0:
260,192,55443,1,8,0:0:0:0:
260,192,55929,1,0,0:0:0:0:
260,192,56740,1,0,0:0:0:0:
260,192,57226,1,8,0:0:0:0:
240,196,57875,1,8,0:0:0:0:
248,192,58686,1,0,0:0:0:0:
240,196,59010,1,12,0:0:0:0:
240,208,59821,1,4,0:0:0:0:
240,188,60632,1,0,0:0:0:0:
240,208,61118,1,12,0:0:0:0:
216,208,61929,1,8,0:0:0:0:
240,208,62578,1,12,0:0:0:0:
228,200,63226,1,0,0:0:0:0:
240,208,63713,1,8,0:0:0:0:
240,208,64524,1,8,0:0:0:0:
240,208,65010,1,0,0:0:0:0:
232,208,65821,1,0,0:0:0:0:
232,208,66307,1,8,0:0:0:0:
232,208,66956,1,8,0:0:0:0:
228,200,67767,1,0,0:0:0:0:
232,208,68091,1,12,0:0:0:0:
232,208,68902,1,4,0:0:0:0:
232,208,69713,1,0,0:0:0:0:
232,208,70199,1,12,0:0:0:0:
232,208,71010,1,8,0:0:0:0:
232,208,71659,1,0,0:0:0:0:
232,208,72307,1,0,0:0:0:0:
232,208,72956,1,8,0:0:0:0:
232,208,73605,1,0,0:0:0:0:
232,208,73929,1,8,0:0:0:0:
232,208,74253,1,0,0:0:0:0:
232,208,74902,1,0,0:0:0:0:
232,208,75551,1,8,0:0:0:0:
232,208,76199,1,8,0:0:0:0:
232,208,76524,1,0,0:0:0:0:
232,208,77172,1,12,0:0:0:0:
232,208,77821,1,0,0:0:0:0:
232,208,78145,1,8,0:0:0:0:
232,208,78794,1,8,0:0:0:0:
232,208,79443,1,0,0:0:0:0:
232,208,80416,1,0,0:0:0:0:
232,208,80740,1,8,0:0:0:0:
200,188,81713,1,0,0:0:0:0:
232,208,82037,1,4,0:0:0:0:
