osu file format v14

[General]
AudioFilename: audio.mp3
AudioLeadIn: 0
PreviewTime: 52686
Countdown: 0
SampleSet: Soft
StackLeniency: 0.7
Mode: 0
LetterboxInBreaks: 0
WidescreenStoryboard: 1

[Editor]
DistanceSpacing: 0.3
BeatDivisor: 4
GridSize: 4
TimelineZoom: 2.799999

[Metadata]
Title:Heart no Shuchou
TitleUnicode:ハートの主張
Artist:CHiCO with HoneyWorks
ArtistUnicode:CHiCO with HoneyWorks
Creator:-Latias-
Version:Insane
Source:
Tags:Sekai wa i ni Michiteiru 世界はiに満ちている ProEzreal Rieri jpop cut version
BeatmapID:2424327
BeatmapSetID:633920

[Difficulty]
HPDrainRate:6
CircleSize:4
OverallDifficulty:7.8
ApproachRate:9
SliderMultiplier:1.6
SliderTickRate:1

[Events]
//Background and Video events
0,0,"kakushitai heart no.jpg",0,0
//Break Periods
//Storyboard Layer 0 (Background)
//Storyboard Layer 1 (Fail)
//Storyboard Layer 2 (Pass)
//Storyboard Layer 3 (Foreground)
//Storyboard Layer 4 (Overlay)
//Storyboard Sound Samples

[TimingPoints]
308,324.324324324324,4,2,1,25,1,0
308,-133.333333333333,4,2,1,25,0,0
2740,-120.481927710843,4,2,1,25,0,0
4848,-105.263157894737,4,2,1,40,0,0
5253,-105.263157894737,4,2,1,5,0,0
5335,-95.2380952380952,4,2,1,50,0,0
8172,-95.2380952380952,4,2,1,5,0,0
8253,-95.2380952380952,4,2,1,50,0,0
9226,-100,4,2,1,60,0,0
18145,-133.333333333333,4,2,1,60,0,0
18470,-125,4,2,1,30,0,0
23010,-105.263157894737,4,2,1,75,0,0
23416,-105.263157894737,4,2,1,5,0,0
23497,-105.263157894737,4,2,1,50,0,0
28686,-105.263157894737,4,2,1,42,0,0
28848,-125,4,2,1,35,0,0
32578,-125,4,2,1,50,0,0
33875,-105.263157894737,4,2,1,60,0,0
35902,-105.263157894737,4,2,1,5,0,0
35983,-105.263157894737,4,2,1,60,0,0
38740,-105.263157894737,4,2,1,45,0,0
38902,-105.263157894737,4,2,1,40,0,0
39064,-105.263157894737,4,2,1,35,0,0
39226,-125,4,2,1,35,0,0
44416,-103.092783505155,4,2,1,45,0,0
47010,-103.092783505155,4,2,1,50,0,0
47335,-103.092783505155,4,2,1,55,0,0
47659,-103.092783505155,4,2,1,60,0,0
47983,-103.092783505155,4,2,1,65,0,0
52686,-100,4,2,1,5,0,0
52848,-90.9090909090909,4,2,1,65,0,0
53335,-98.0392156862745,4,2,1,70,0,1
61767,-98.0392156862745,4,2,1,60,0,0
62253,-300,4,2,1,60,0,0
62497,-300,4,2,1,5,0,0
62578,-98.0392156862745,4,2,1,70,0,1
70443,-98.0392156862745,4,2,1,5,0,1
70524,-98.0392156862745,4,2,1,70,0,1
71172,-90.9090909090909,4,2,1,70,0,0
71659,-90.9090909090909,4,2,1,75,0,1
79443,-117.647058823529,4,2,1,50,0,0
84956,-117.647058823529,4,2,1,25,0,0
85280,-117.647058823529,4,2,1,5,0,0

[Colours]
Combo1 : 0,128,128
Combo2 : 0,0,255
Combo3 : 128,128,255
Combo4 : 0,191,255

[HitObjects]
117,98,308,6,0,P|172:78|227:99,1,120.000004577637,2|0,0:0|0:0,0:0:0:0:
283,186,794,1,0,0:0:0:0:
342,93,956,2,0,L|335:30,2,60.0000022888184
432,188,1443,2,0,P|399:195|359:187,1,60.0000022888184,2|0,0:0|0:0,0:0:0:0:
309,271,1767,2,0,P|276:264|236:272,1,60.0000022888184
152,274,2091,2,0,L|147:355,2,60.0000022888184
152,274,2578,1,0,0:0:0:0:
164,133,2740,6,0,B|112:133|112:133|73:147|73:147|31:147,1,132.800001925049,2|0,0:0|0:0,0:0:0:0:
36,244,3226,1,0,0:0:0:0:
121,272,3389,1,0,0:0:0:0:
121,272,3551,2,0,L|113:362,2,66.4000009625244
99,119,4037,2,0,P|103:53|156:7,2,132.800001925049,2|0|2,0:0|0:0|0:0,0:0:0:0:
276,252,4848,5,8,0:1:0:0:
178,87,5010,2,0,P|228:62|281:78,1,113.999996955872,8|0,0:1|0:0,0:0:0:0:
296,90,5335,6,0,L|394:81,1,83.9999974365235,4|0,0:0|0:0,0:0:0:0:
489,144,5659,1,8,0:1:0:0:
359,219,5821,2,0,L|248:228,1,83.9999974365235,8|0,0:0|0:0,0:0:0:0:
201,104,6145,1,8,0:1:0:0:
140,218,6307,1,8,0:1:0:0:
112,57,6470,1,8,0:0:0:0:
102,290,6632,6,0,P|56:215|94:148,1,167.999994873047,4|8,0:0|0:1,0:0:0:0:
201,62,7118,2,0,L|284:69,1,83.9999974365235,8|0,0:0|0:0,0:0:0:0:
386,142,7443,1,8,0:1:0:0:
392,276,7605,1,8,0:1:0:0:
490,153,7768,1,8,0:0:0:0:
364,364,7929,6,0,P|455:341|474:272,1,167.999994873047,4|8,0:0|0:1,0:0:0:0:
470,142,8416,2,0,L|354:133,1,83.9999974365235,8|0,0:0|0:0,0:0:0:0:
264,189,8740,1,8,1:0:0:0:
394,266,8902,1,8,0:0:0:0:
397,249,8983,1,8,0:0:0:0:
399,232,9064,1,8,0:0:0:0:
260,324,9226,6,0,B|197:324|197:324|154:345|154:345|79:345,1,160,4|8,0:0|0:1,0:0:0:0:
16,208,9713,2,0,P|28:177|81:149,1,80,8|0,0:0|0:0,0:0:0:0:
128,258,10037,1,8,0:1:0:0:
152,129,10199,1,8,0:1:0:0:
125,277,10362,1,8,0:0:0:0:
134,47,10524,6,0,P|208:69|234:150,1,160,8|8,0:1|0:1,0:0:0:0:
230,293,11010,2,0,P|268:291|301:262,1,80,8|0,0:0|0:0,0:0:0:0:
322,125,11335,1,8,0:1:0:0:
397,234,11497,1,8,0:1:0:0:
308,101,11659,1,8,0:0:0:0:
437,305,11821,6,0,P|475:238|444:168,1,160,8|8,0:1|0:1,0:0:0:0:
291,82,12307,2,0,L|189:90,1,80,8|0,0:0|0:0,0:0:0:0:
97,142,12632,1,8,0:1:0:0:
95,261,12794,1,8,0:1:0:0:
97,109,12956,1,8,0:0:0:0:
31,316,13118,6,0,P|105:345|175:282,1,160,8|8,0:1|0:1,0:0:0:0:
246,155,13605,1,10,2:0:0:0:
268,313,13767,1,8,0:1:0:0:
243,126,13929,1,2,0:2:0:0:
138,195,14091,1,8,0:1:0:0:
342,223,14253,1,8,0:1:0:0:
123,195,14416,2,0,L|83:200,2,40,8|8|8,0:1|0:1|0:1,0:0:0:0:
243,126,14740,1,8,0:1:0:0:
136,292,14902,6,0,B|152:115,1,160,4|8,0:0|0:1,0:0:0:0:
282,89,15389,1,8,0:1:0:0:
240,235,15551,1,8,0:0:0:0:
294,7,15713,6,0,P|363:66|354:133,1,160,4|8,0:0|0:1,0:0:0:0:
319,242,16199,2,0,L|217:233,1,80,8|0,0:0|0:0,0:0:0:0:
113,156,16524,1,8,0:1:0:0:
101,291,16686,1,8,0:1:0:0:
113,129,16848,1,8,0:0:0:0:
27,331,17010,6,0,P|107:375|181:315,1,160,4|0,0:0|0:0,0:0:0:0:
275,218,17497,1,8,0:1:0:0:
306,336,17659,1,8,0:1:0:0:
307,355,17740,1,8,0:1:0:0:
307,374,17821,1,8,0:1:0:0:
400,229,17983,1,8,0:1:0:0:
255,213,18145,1,8,0:0:0:0:
304,316,18307,1,0,0:0:0:0:
372,100,18470,6,0,L|244:88,1,128,4|8,0:0|0:1,0:0:0:0:
151,211,19118,2,0,L|214:216,1,64,8|0,0:1|0:0,0:0:0:0:
245,116,19443,2,0,L|182:111,1,64,8|0,0:1|0:0,0:0:0:0:
75,181,19767,2,0,P|76:252|119:291,1,128,8|8,0:1|0:1,0:0:0:0:
247,195,20416,2,0,L|243:259,1,64,8|0,0:1|0:0,0:0:0:0:
318,314,20740,2,0,L|324:251,1,64,8|0,0:1|0:0,0:0:0:0:
166,193,21064,6,0,P|195:130|250:113,1,128,8|8,0:1|0:1,0:0:0:0:
365,33,21713,2,0,P|361:64|374:93,1,64,8|0,0:1|0:0,0:0:0:0:
462,122,22037,2,0,P|465:90|452:61,1,64,8|0,0:1|0:0,0:0:0:0:
433,222,22362,2,0,L|305:233,1,128,8|8,0:1|0:1,0:0:0:0:
152,248,23010,5,8,0:1:0:0:
273,94,23172,2,0,P|218:80|166:101,1,113.999996955872,8|0,0:1|0:0,0:0:0:0:
151,109,23497,6,0,L|-12:123,1,151.999995941162,4|8,0:0|0:1,0:0:0:0:
117,269,23983,2,0,P|119:231|108:195,1,75.9999979705811,8|0,0:0|0:0,0:0:0:0:
78,63,24307,1,8,0:1:0:0:
22,205,24470,1,8,0:1:0:0:
140,105,24632,1,8,0:0:0:0:
236,262,24794,6,0,B|326:308|382:219,1,151.999995941162,8|0,0:1|0:0,0:0:0:0:
277,104,25280,2,0,L|290:180,1,75.9999979705811,8|0,0:0|0:0,0:0:0:0:
313,350,25605,1,8,0:1:0:0:
381,207,25767,1,8,0:1:0:0:
204,190,25929,1,8,0:0:0:0:
62,76,26091,6,0,L|48:227,1,151.999995941162,8|8,0:1|0:1,0:0:0:0:
204,190,26578,2,0,P|166:180|128:183,1,75.9999979705811,8|0,0:0|0:0,0:0:0:0:
117,341,26902,1,8,0:1:0:0:
35,207,27064,1,8,0:1:0:0:
194,281,27226,1,8,0:0:0:0:
333,91,27389,6,0,P|298:149|321:224,1,151.999995941162,8|8,0:1|0:1,0:0:0:0:
460,155,27875,2,0,L|374:162,1,75.9999979705811,8|2,0:0|0:0,0:0:0:0:
252,280,28199,1,8,0:1:0:0:
402,245,28362,1,8,0:1:0:0:
297,133,28524,1,10,0:0:0:0:
322,225,28686,1,2,0:0:0:0:
414,74,28848,6,0,P|464:149|442:205,1,128,4|8,0:0|0:1,0:0:0:0:
352,247,29497,2,0,L|261:239,1,64,8|0,0:1|0:0,0:0:0:0:
317,144,29821,2,0,L|380:149,1,64,8|0,0:1|0:0,0:0:0:0:
224,281,30145,2,0,P|174:311|99:287,1,128,8|8,0:1|0:1,0:0:0:0:
93,159,30794,2,0,P|99:126|128:98,2,64,8|0|8,0:1|0:0|0:1,0:0:0:0:
162,231,31280,1,0,0:0:0:0:
203,67,31443,6,0,L|334:55,1,128,8|8,0:1|0:1,0:0:0:0:
343,240,32091,1,8,0:1:0:0:
429,134,32253,1,0,0:0:0:0:
477,261,32416,1,0,0:0:0:0:
297,124,32578,5,2,0:0:0:0:
363,309,33389,5,8,0:0:0:0:
362,174,33552,1,8,0:1:0:0:
478,288,33714,1,8,0:0:0:0:
230,268,33875,6,0,B|169:268|169:268|130:282|130:282|70:282,1,151.999995941162,4|8,0:0|0:1,0:0:0:0:
35,156,34362,2,0,P|58:124|92:112,1,75.9999979705811,8|0,0:0|0:0,0:0:0:0:
245,154,34686,1,8,0:1:0:0:
110,194,34848,1,8,0:1:0:0:
211,86,35010,1,8,0:0:0:0:
34,231,35172,6,0,P|103:277|176:242,1,151.999995941162,8|8,0:1|0:1,0:0:0:0:
245,154,35659,2,0,L|345:145,1,75.9999979705811,8|0,0:0|0:0,0:0:0:0:
462,62,35983,1,8,0:1:0:0:
436,188,36145,1,8,0:1:0:0:
335,71,36307,1,8,0:0:0:0:
434,270,36470,6,0,B|373:270|373:270|334:284|334:284|285:284,1,151.999995941162,8|8,0:1|0:1,0:0:0:0:
186,217,36956,2,0,P|181:166|201:137,1,75.9999979705811,8|0,0:0|0:0,0:0:0:0:
326,73,37280,1,8,0:1:0:0:
263,191,37443,1,8,0:1:0:0:
265,19,37605,1,8,0:0:0:0:
349,158,37767,1,2,0:0:0:0:
145,70,37929,5,8,0:1:0:0:
78,206,38091,1,8,0:1:0:0:
29,59,38253,1,8,0:0:0:0:
196,186,38416,1,8,0:0:0:0:
197,168,38497,1,8,0:0:0:0:
198,150,38578,1,8,0:0:0:0:
57,205,38740,1,8,0:1:0:0:
247,270,38902,1,8,0:1:0:0:
199,134,39064,1,8,0:1:0:0:
180,322,39226,6,0,P|244:352|300:329,1,128,4|8,0:0|0:1,0:0:0:0:
407,275,39875,2,0,L|418:142,1,128,10|10,0:1|0:1,0:0:0:0:
334,83,40362,1,8,0:0:0:0:
332,98,40443,1,8,0:0:0:0:
330,113,40524,2,0,L|319:240,1,128,8|8,0:1|0:1,0:0:0:0:
192,234,41172,2,0,P|155:244|126:235,1,64,10|0,0:1|0:0,0:0:0:0:
91,140,41497,2,0,P|121:130|152:136,1,64,10|0,0:1|0:0,0:0:0:0:
32,199,41821,6,0,P|8:147|32:79,1,128,10|8,0:1|0:1,0:0:0:0:
125,32,42307,1,0,0:0:0:0:
152,136,42470,2,0,L|159:219,1,64,10|0,0:1|0:0,0:0:0:0:
242,261,42794,2,0,L|236:197,1,64,10|0,0:1|0:0,0:0:0:0:
183,344,43118,5,8,0:1:0:0:
198,344,43199,1,8,0:0:0:0:
213,345,43280,1,8,0:0:0:0:
228,345,43361,1,8,0:0:0:0:
244,346,43443,2,0,L|325:340,1,64,8|0,0:1|0:0,0:0:0:0:
411,221,43767,5,8,0:1:0:0:
378,65,43929,1,8,0:0:0:0:
312,182,44091,1,8,0:1:0:0:
284,9,44253,1,8,0:0:0:0:
176,194,44416,6,0,P|107:227|28:183,1,155.200003670654,8|8,0:1|0:1,0:0:0:0:
106,144,44902,1,2,0:0:0:0:
245,289,45064,6,0,L|258:134,1,155.200003670654,8|8,0:1|0:1,0:0:0:0:
273,38,45551,1,2,0:0:0:0:
352,228,45713,6,0,P|326:155|239:138,1,155.200003670654,8|8,0:1|0:1,0:0:0:0:
269,216,46199,1,2,0:0:0:0:
84,305,46362,6,0,L|97:150,1,155.200003670654,8|8,0:1|0:1,0:0:0:0:
109,61,46848,1,0,0:0:0:0:
254,193,47010,5,8,0:1:0:0:
274,83,47172,1,2,0:0:0:0:
255,214,47335,1,8,0:1:0:0:
380,143,47497,1,2,0:0:0:0:
256,240,47659,1,8,0:1:0:0:
431,253,47821,1,2,0:0:0:0:
257,262,47983,1,8,0:1:0:0:
418,357,48145,1,2,0:0:0:0:
381,127,48307,5,8,0:1:0:0:
471,262,48470,1,8,0:0:0:0:
456,274,48551,1,8,0:0:0:0:
444,287,48632,1,8,0:0:0:0:
355,155,48794,1,8,0:0:0:0:
368,140,48875,1,8,0:0:0:0:
381,127,48956,1,8,0:0:0:0:
307,296,49118,1,8,0:1:0:0:
215,204,49280,2,0,L|205:80,1,116.400002752991,8|0,0:0|0:0,0:0:0:0:
199,69,49605,5,4,0:0:0:0:
81,173,49767,2,0,L|23:185,2,38.8000009176636,8|8|8,0:0|0:0|0:1,0:0:0:0:
240,206,50091,2,0,L|277:198,2,38.8000009176636,8|8|8,0:0|0:0|0:1,0:0:0:0:
103,308,50416,1,8,0:0:0:0:
103,288,50497,1,8,0:0:0:0:
103,268,50578,1,8,0:1:0:0:
252,312,50740,1,8,0:0:0:0:
252,332,50821,1,8,0:0:0:0:
252,352,50902,1,8,0:1:0:0:
256,192,51064,12,0,52686,0:0:0:0:
115,115,52848,6,0,L|111:71,1,44.0000013427735,8|0,0:1|0:0,0:0:0:0:
215,171,53010,2,0,L|219:215,1,44.0000013427735,8|0,0:1|0:0,0:0:0:0:
106,268,53172,2,0,L|103:225,1,44.0000013427735,8|0,0:0|0:0,0:0:0:0:
224,76,53335,6,0,P|300:126|307:201,1,163.200000996094,4|8,0:0|0:1,0:0:0:0:
208,274,53821,2,0,L|126:276,1,81.6000004980469,8|0,0:0|0:0,0:0:0:0:
96,108,54145,1,10,0:1:0:0:
228,181,54307,1,10,0:1:0:0:
47,205,54470,1,8,0:0:0:0:
305,210,54632,6,0,P|347:220|383:209,1,81.6000004980469,10|2,0:1|0:0,0:0:0:0:
495,90,54956,2,0,P|455:79|417:90,1,81.6000004980469,10|8,0:1|0:0,0:0:0:0:
343,138,55280,1,0,0:0:0:0:
371,291,55443,1,8,0:1:0:0:
454,159,55605,1,10,0:1:0:0:
289,255,55767,1,10,0:0:0:0:
419,58,55929,6,0,B|339:58|339:58|304:71|304:71|253:71,1,163.200000996094,8|8,0:1|0:1,0:0:0:0:
129,177,56416,1,8,0:0:0:0:
158,25,56578,1,0,0:0:0:0:
179,24,56659,1,0,0:0:0:0:
200,24,56740,1,8,0:1:0:0:
222,195,56902,1,8,0:1:0:0:
80,51,57064,1,8,0:0:0:0:
20,192,57226,6,0,P|48:233|77:244,1,81.6000004980469,8|0,0:1|0:0,0:0:0:0:
231,250,57551,2,0,P|210:215|174:198,1,81.6000004980469,8|8,0:1|0:0,0:0:0:0:
124,321,57875,1,0,0:0:0:0:
139,307,57956,1,0,0:0:0:0:
153,292,58037,1,8,0:1:0:0:
270,163,58199,1,8,0:1:0:0:
234,346,58362,1,8,0:0:0:0:
174,198,58524,1,8,0:1:0:0:
366,243,58686,5,8,0:0:0:0:
219,81,58848,1,8,0:1:0:0:
382,244,59010,6,0,L|464:237,1,81.6000004980469,4|0,0:0|0:0,0:0:0:0:
424,82,59335,1,8,0:1:0:0:
282,134,59497,1,8,0:1:0:0:
466,162,59659,1,8,0:0:0:0:
219,81,59821,6,0,P|223:188|281:217,1,163.200000996094,4|8,0:0|0:1,0:0:0:0:
139,321,60307,2,0,P|90:311|69:274,1,81.6000004980469,8|0,0:0|0:0,0:0:0:0:
70,103,60632,1,8,0:1:0:0:
164,226,60794,1,8,0:1:0:0:
7,165,60956,1,8,0:0:0:0:
163,308,61118,6,0,P|226:281|239:191,1,163.200000996094,4|8,0:0|0:1,0:0:0:0:
263,49,61605,1,8,0:0:0:0:
332,193,61767,1,8,0:0:0:0:
346,178,61848,1,8,0:0:0:0:
362,165,61929,1,8,0:1:0:0:
357,13,62091,1,8,0:1:0:0:
375,158,62253,6,0,L|375:198,1,40,8|0,0:0|0:0,0:0:0:0:
448,258,62578,6,0,P|369:294|300:256,1,163.200000996094,4|8,0:0|0:0,0:0:0:0:
222,174,63064,1,2,0:0:0:0:
72,258,63226,1,8,0:1:0:0:
132,103,63389,1,8,0:1:0:0:
178,288,63551,1,8,0:0:0:0:
71,48,63713,6,0,P|50:82|53:122,1,81.6000004980469,8|0,0:1|0:0,0:0:0:0:
204,248,64037,2,0,P|224:213|221:173,1,81.6000004980469,8|8,0:1|0:0,0:0:0:0:
328,26,64362,1,0,0:0:0:0:
329,46,64443,1,0,0:0:0:0:
329,66,64524,1,8,0:1:0:0:
340,225,64686,1,8,0:1:0:0:
473,91,64848,1,8,0:0:0:0:
413,288,65010,6,0,P|333:323|265:286,1,163.200000996094,8|8,0:1|0:1,0:0:0:0:
86,312,65497,2,0,L|95:203,1,81.6000004980469,8|0,0:0|0:0,0:0:0:0:
161,79,65821,1,8,0:1:0:0:
178,233,65983,1,8,0:1:0:0:
49,89,66145,1,8,0:0:0:0:
296,57,66307,6,0,L|393:65,1,81.6000004980469,8|0,0:1|0:0,0:0:0:0:
472,229,66632,2,0,L|390:221,1,81.6000004980469,8|8,0:1|0:0,0:0:0:0:
460,48,66956,2,0,P|477:86|450:145,1,81.6000004980469,0|8,0:0|0:1,0:0:0:0:
293,222,67280,2,0,P|280:184|294:146,1,81.6000004980469,8|8,0:1|0:0,0:0:0:0:
367,71,67605,1,0,0:0:0:0:
176,176,67767,5,8,0:1:0:0:
365,153,67929,1,8,0:1:0:0:
128,291,68091,6,0,L|39:283,1,81.6000004980469,4|0,0:0|0:0,0:0:0:0:
95,117,68416,1,8,0:1:0:0:
242,165,68578,1,8,0:1:0:0:
45,203,68740,1,8,0:0:0:0:
290,100,68902,6,0,P|241:162|264:237,1,163.200000996094,4|8,0:0|0:1,0:0:0:0:
378,341,69389,2,0,L|460:334,1,81.6000004980469,8|0,0:0|0:0,0:0:0:0:
487,170,69713,1,8,0:1:0:0:
318,175,69875,1,8,0:1:0:0:
494,259,70037,1,8,0:0:0:0:
316,98,70199,6,0,L|189:86,1,122.40000074707,4|0,0:0|0:0,0:0:0:0:
173,116,70524,2,0,P|172:156|152:191,1,81.6000004980469,8|8,0:1|0:0,0:0:0:0:
45,300,70848,1,8,0:1:0:0:
63,128,71010,1,8,0:0:0:0:
203,256,71172,1,8,0:0:0:0:
243,241,71253,1,8,0:0:0:0:
283,258,71334,1,8,0:0:0:0:
318,282,71416,1,8,0:0:0:0:
362,287,71497,1,8,0:0:0:0:
403,272,71578,1,8,0:0:0:0:
437,253,71659,6,0,L|428:159,1,88.000002685547,4|2,0:0|0:0,0:0:0:0:
305,30,71983,2,0,L|313:125,1,88.000002685547,8|2,0:0|0:0,0:0:0:0:
235,320,72307,1,8,0:0:0:0:
129,157,72470,1,8,0:1:0:0:
291,205,72632,1,8,0:0:0:0:
140,300,72795,1,8,0:1:0:0:
122,72,72956,6,0,P|53:119|59:204,1,176.000005371094,8|8,0:0|0:0,0:0:0:0:
160,325,73443,1,8,0:1:0:0:
213,159,73605,2,0,P|170:147|128:156,1,88.000002685547,8|8,0:0|0:1,0:0:0:0:
261,264,73929,2,0,P|301:278|340:261,1,88.000002685547,8|8,0:0|0:1,0:0:0:0:
455,69,74253,6,0,L|471:262,1,176.000005371094,8|8,0:0|0:0,0:0:0:0:
334,320,74740,1,8,0:1:0:0:
389,140,74902,1,8,0:0:0:0:
410,300,75064,1,8,0:1:0:0:
271,166,75226,2,0,L|163:176,1,88.000002685547,8|8,0:0|0:1,0:0:0:0:
87,316,75551,6,0,P|36:257|65:166,1,176.000005371094,8|8,2:0|0:0,0:0:0:0:
176,48,76037,1,8,0:1:0:0:
208,228,76199,2,0,L|91:238,1,88.000002685547,8|8,0:0|0:1,0:0:0:0:
286,124,76524,2,0,L|383:115,1,88.000002685547,8|8,0:0|0:1,0:0:0:0:
260,320,76848,5,8,0:0:0:0:
203,145,77010,1,2,0:0:0:0:
113,303,77172,5,8,0:0:0:0:
230,128,77334,1,2,0:0:0:0:
53,172,77497,5,8,0:0:0:0:
254,113,77659,1,2,0:0:0:0:
91,19,77821,5,8,0:0:0:0:
270,105,77983,1,2,0:0:0:0:
91,240,78145,6,0,L|179:248,1,88.000002685547,8|2,0:0|0:0,0:0:0:0:
357,111,78470,2,0,L|269:104,1,88.000002685547,8|2,0:0|0:0,0:0:0:0:
330,280,78794,6,0,P|321:322|334:364,1,88.000002685547,8|2,0:0|0:0,0:0:0:0:
451,250,79118,2,0,P|459:207|446:165,1,88.000002685547,8|2,0:0|0:0,0:0:0:0:
433,147,79362,1,8,0:0:0:0:
419,136,79443,6,0,L|283:148,1,136.000002593994,4|8,0:0|0:1,0:0:0:0:
190,104,79929,1,2,0:0:0:0:
102,40,80091,2,0,L|95:116,1,68.0000012969971,8|8,0:1|0:1,0:0:0:0:
147,270,80416,1,8,0:1:0:0:
82,206,80578,1,8,0:0:0:0:
96,197,80659,1,8,0:0:0:0:
111,190,80740,6,0,P|176:188|221:236,1,136.000002593994,4|8,0:0|0:1,0:0:0:0:
233,344,81226,1,2,0:0:0:0:
93,305,81389,2,0,P|115:279|146:269,1,68.0000012969971,8|0,0:1|0:0,0:0:0:0:
248,228,81713,1,8,0:1:0:0:
420,53,82037,5,4,0:0:0:0:
256,192,82118,12,0,85280,0:0:0:0:
