osu file format v14

[General]
AudioFilename: audio.mp3
AudioLeadIn: 0
PreviewTime: 56268
Countdown: 0
SampleSet: Soft
StackLeniency: 0.7
Mode: 0
LetterboxInBreaks: 0
WidescreenStoryboard: 1

[Editor]
DistanceSpacing: 0.4
BeatDivisor: 4
GridSize: 32
TimelineZoom: 1.8

[Metadata]
Title:Gamushara (TV Size)
TitleUnicode:我武者羅 (TV Size)
Artist:CHiCO with HoneyWorks
ArtistUnicode:CHiCO with HoneyWorks
Creator:Smoke
Version:Normal
Source:BORUTO-ボルト- NARUTO NEXT GENERATIONS
Tags:anime pop j-pop jpop rock j-rock jrock japanese opening uzumaki boruto naruto uchiha sasuke PikAqours Nymphe Kiyoshi Guarden Reform Kujinn torriru
BeatmapID:3098728
BeatmapSetID:1513461

[Difficulty]
HPDrainRate:4
CircleSize:3.2
OverallDifficulty:4.5
ApproachRate:5.5
SliderMultiplier:0.999999999999999
SliderTickRate:1

[Events]
//Background and Video events
0,0,"naruto wallpaper boruto.jpg",0,0
Video,-316,"video.mp4"
//Break Periods
2,17421,21045
//Storyboard Layer 0 (Background)
//Storyboard Layer 1 (Fail)
//Storyboard Layer 2 (Pass)
//Storyboard Layer 3 (Foreground)
//Storyboard Layer 4 (Overlay)
//Storyboard Sound Samples

[TimingPoints]
-112,309.278350515464,4,2,1,70,1,0
661,-111.111111111111,4,2,1,45,0,0
1125,-111.111111111111,4,2,1,55,0,0
9645,309.278350515464,4,2,1,70,1,0
9645,-100,4,2,1,70,0,0
9799,309.278350515464,4,2,1,70,1,0
9799,-100,4,2,1,70,0,0
10262,-105.263157894737,4,2,1,70,0,0
11500,-100,4,2,1,75,0,0
12273,-100,4,2,1,80,0,0
17221,-111.111111111111,4,2,1,60,0,0
22170,-107.52688172043,4,2,1,63,0,0
24644,-104.166666666667,4,2,1,66,0,0
27118,-100,4,2,1,70,0,0
37015,-105.263157894737,4,2,1,60,0,0
40726,-100,4,2,1,65,0,0
41963,-105.263157894737,4,2,1,60,0,0
45675,-100,4,2,1,65,0,0
46912,-105.263157894737,4,2,1,60,0,0
50469,-100,4,2,1,70,0,0
51860,-111.111111111111,4,2,1,55,0,0
54335,-105.263157894737,4,2,1,75,0,0
55572,-100,4,2,1,80,0,0
56345,-111.111111111111,4,2,1,60,0,0
56809,-90.9090909090909,4,2,1,85,0,1
76603,-100,4,2,1,70,0,0
79077,-90.9090909090909,4,2,1,85,0,1
80159,-90.9090909090909,4,2,1,90,0,1
80933,-90.9090909090909,4,2,1,95,0,1
81551,-90.9090909090909,4,2,1,85,0,1
85108,-100,4,2,1,80,0,0

[Colours]
Combo1 : 87,108,157
Combo2 : 235,136,46
Combo3 : 143,151,184
Combo4 : 231,48,66

[HitObjects]
14,149,1125,5,2,0:0:0:0:
92,105,1434,1,2,0:0:0:0:
150,173,1743,2,0,P|193:163|247:151,1,89.999997253418,2|2,0:0|0:0,0:0:0:0:
277,174,2207,2,0,P|300:219|291:263,1,89.999997253418,2|0,0:0|0:0,0:0:0:0:
347,329,2826,2,0,P|391:335|438:303,1,89.999997253418,2|2,0:0|0:0,0:0:0:0:
456,277,3290,1,2,0:0:0:0:
409,200,3599,5,2,0:0:0:0:
467,132,3908,1,2,0:0:0:0:
409,62,4217,2,0,P|416:42|424:14,2,44.999998626709,2|2|2,0:0|0:0|0:0,0:0:0:0:
368,81,4681,2,0,P|330:63|271:71,1,89.999997253418,2|0,0:0|0:0,0:0:0:0:
246,92,5145,1,2,0:0:0:0:
285,173,5455,2,0,P|274:218|265:263,1,89.999997253418,2|2,0:0|0:0,0:0:0:0:
247,348,6073,5,2,0:0:0:0:
159,370,6382,1,2,0:0:0:0:
96,305,6692,2,0,P|71:313|46:320,2,44.999998626709,2|2|2,0:0|0:0|0:0,0:0:0:0:
126,271,7156,2,0,P|131:227|96:175,1,89.999997253418,2|0,0:0|0:0,0:0:0:0:
61,119,7774,1,2,0:0:0:0:
61,119,7929,2,0,P|49:103|50:67,2,44.999998626709,2|2|2,0:0|0:0|0:0,0:0:0:0:
3,188,8547,1,0,0:0:0:0:
321,27,9645,5,0,3:2:0:0:
321,27,9799,2,0,L|380:39,1,50,10|10,3:2|3:2,0:0:0:0:
474,313,11500,1,0,3:2:0:0:
474,313,11654,2,0,P|482:286|496:254,1,50,8|0,0:0|3:2,0:0:0:0:
470,220,11963,2,0,P|453:205|422:200,1,50,8|8,3:2|3:2,0:0:0:0:
380,220,12273,5,6,3:1:0:0:
301,282,12582,1,10,0:0:0:0:
212,234,12891,2,0,P|186:242|162:249,1,50,2|2,3:2|3:2,0:0:0:0:
120,268,13201,1,8,0:0:0:0:
120,268,13355,1,6,3:2:0:0:
46,199,13664,1,2,3:2:0:0:
119,130,13974,1,2,0:0:0:0:
119,130,14128,2,0,P|112:104|107:75,1,50,2|2,3:2|3:2,0:0:0:0:
95,33,14438,1,10,0:0:0:0:
200,3,14747,6,0,P|227:10|262:17,1,50,14|0,0:0|3:2,0:0:0:0:
302,26,15056,1,10,0:0:0:0:
374,95,15366,2,0,P|401:88|436:81,1,50,10|2,0:0|3:2,0:0:0:0:
466,107,15675,1,8,0:0:0:0:
466,107,15829,1,6,3:2:0:0:
414,193,16139,1,2,3:2:0:0:
468,276,16448,1,2,3:2:0:0:
468,276,16603,2,0,P|461:306|446:326,1,50,8|2,3:2|3:2,0:0:0:0:
405,343,16912,2,0,P|375:336|355:321,1,50,10|2,3:2|3:2,0:0:0:0:
339,285,17221,5,2,0:0:0:0:
62,24,22170,6,0,P|106:17|149:43,1,93.0000029090881,2|2,3:2|3:2,0:0:0:0:
215,102,22788,2,0,P|259:109|302:83,1,93.0000029090881,0|2,3:2|3:2,0:0:0:0:
373,141,23407,2,0,P|366:185|392:228,1,93.0000029090881,2|2,3:2|3:2,0:0:0:0:
451,294,24025,2,0,P|458:338|432:381,1,93.0000029090881,0|0,3:2|3:2,0:0:0:0:
345,343,24644,6,0,P|296:355|249:366,1,96.00000234375,2|0,3:2|3:2,0:0:0:0:
213,336,25108,1,2,3:2:0:0:
141,272,25417,2,0,P|141:250|157:218,1,48.000001171875,2|8,3:2|0:0,0:0:0:0:
187,195,25726,2,0,B|164:154|164:154|185:97,1,96.00000234375,6|10,3:2|0:0,0:0:0:0:
201,64,26190,1,8,3:2:0:0:
117,17,26500,1,8,3:2:0:0:
45,77,26809,2,0,P|56:106|66:141,1,48.000001171875,10|10,3:2|0:0,0:0:0:0:
46,170,27118,6,0,P|20:214|24:268,1,99.9999999999999,6|10,3:1|0:0,0:0:0:0:
14,365,27737,1,2,3:2:0:0:
14,365,27891,2,0,P|45:355|73:352,1,50,2|8,3:2|0:0,0:0:0:0:
103,323,28201,2,0,B|151:334|151:334|152:341|152:341|201:354,1,99.9999999999999,6|0,3:2|3:2,0:0:0:0:
241,366,28664,1,10,0:0:0:0:
304,288,28974,2,0,P|325:288|354:305,1,50,2|0,3:2|3:2,0:0:0:0:
389,335,29283,1,10,0:0:0:0:
468,273,29592,6,0,B|442:230|442:230|461:170,1,99.9999999999999,4|8,3:2|0:0,0:0:0:0:
501,92,30211,2,0,P|484:73|448:61,1,50,2|0,3:2|3:2,0:0:0:0:
421,44,30520,1,10,0:0:0:0:
421,44,30675,2,0,B|365:57|386:72|321:86,1,99.9999999999999,6|2,3:2|3:2,0:0:0:0:
290,53,31139,1,10,0:0:0:0:
207,109,31448,1,2,3:2:0:0:
127,48,31757,2,0,P|99:57|74:65,1,50,8|8,0:0|0:0,0:0:0:0:
43,98,32067,5,6,3:2:0:0:
43,98,32221,2,0,P|25:122|25:162,1,50,2|8,0:0|0:0,0:0:0:0:
47,184,32530,1,2,0:0:0:0:
143,211,32840,2,0,P|169:217|191:223,1,50,2|10,3:2|0:0,0:0:0:0:
222,262,33149,2,0,P|262:237|322:239,1,99.9999999999999,6|2,3:2|3:2,0:0:0:0:
359,267,33613,1,10,0:0:0:0:
359,267,33768,2,0,B|335:314|335:314|355:360,1,99.9999999999999,2|2,0:0|3:2,0:0:0:0:
399,376,34231,1,10,0:0:0:0:
478,313,34541,5,6,3:2:0:0:
478,313,34695,2,0,P|470:287|461:248,1,50,2|8,3:2|0:0,0:0:0:0:
497,226,35005,1,2,3:2:0:0:
421,160,35314,2,0,P|423:134|451:101,1,50,2|8,3:2|0:0,0:0:0:0:
470,77,35623,2,0,B|414:65|437:52|374:39,1,99.9999999999999,6|0,3:2|3:2,0:0:0:0:
336,68,36087,1,12,0:0:0:0:
246,22,36396,2,0,P|237:54|231:75,1,50,8|0,3:3|0:0,0:0:0:0:
193,102,36706,2,0,P|202:134|208:155,1,50,10|0,3:3|0:0,0:0:0:0:
241,182,37015,6,0,P|228:229|215:290,1,94.9999974632263,6|2,3:2|3:2,0:0:0:0:
245,312,37479,1,2,0:0:0:0:
174,375,37788,1,2,0:0:0:0:
103,312,38097,1,2,0:0:0:0:
9,331,38407,2,0,P|-8:283|16:228,1,94.9999974632263,2|0,0:0|0:0,0:0:0:0:
29,202,38871,1,2,3:2:0:0:
90,129,39180,1,0,3:2:0:0:
48,49,39489,5,6,3:2:0:0:
48,49,39644,2,0,P|95:39|145:27,1,94.9999974632263,2|8,0:0|3:3,0:0:0:0:
177,57,40108,1,2,3:2:0:0:
263,18,40417,1,10,0:0:0:0:
331,90,40726,2,0,P|313:142|297:203,1,99.9999999999999,4|0,3:2|3:2,0:0:0:0:
375,253,41345,2,0,B|406:230|406:230|448:243,2,74.9999999999999,10|10|10,0:0|0:0|0:0,0:0:0:0:
349,293,41963,6,0,B|245:309|281:348|163:364,1,189.999994926453,6|0,3:2|3:2,0:0:0:0:
136,333,42737,2,0,P|134:309|114:285,1,47.4999987316131,2|0,0:0|3:2,0:0:0:0:
80,264,43046,1,2,0:0:0:0:
134,186,43355,2,0,P|199:200|277:216,1,142.499996194839,2|0,0:0|3:2,0:0:0:0:
338,146,44128,2,0,P|336:120|317:96,1,47.4999987316131,2|2,3:2|3:2,0:0:0:0:
293,65,44438,6,0,B|248:76|248:76|204:43,1,94.9999974632263,6|0,3:2|3:2,0:0:0:0:
171,16,44902,1,2,3:2:0:0:
85,58,45211,2,0,P|70:83|66:113,1,47.4999987316131,10|0,0:0|3:2,0:0:0:0:
35,137,45520,1,10,0:0:0:0:
35,137,45675,2,0,P|43:165|52:199,1,50,10|8,3:2|0:0,0:0:0:0:
63,232,45984,1,10,3:2:0:0:
58,331,46293,2,0,P|86:323|120:314,1,50,10|8,3:2|0:0,0:0:0:0:
154,304,46602,1,14,0:0:0:0:
224,239,46912,6,0,P|217:216|198:191,2,47.4999987316131,6|2|2,3:2|0:0|3:2,0:0:0:0:
267,259,47376,1,2,0:0:0:0:
330,188,47685,1,2,0:0:0:0:
271,112,47994,1,2,3:2:0:0:
328,36,48304,2,0,P|376:30|426:64,1,94.9999974632263,2|0,0:0|3:2,0:0:0:0:
456,77,48768,1,2,3:2:0:0:
420,164,49077,2,0,P|428:188|436:214,1,47.4999987316131,2|2,3:2|3:2,0:0:0:0:
467,243,49386,6,0,P|453:294|440:346,1,94.9999974632263,0|0,3:2|3:2,0:0:0:0:
355,296,50005,2,0,P|329:297|301:315,1,47.4999987316131,2|2,3:2|3:2,0:0:0:0:
269,332,50314,1,2,3:2:0:0:
269,332,50469,1,14,0:0:0:0:
191,269,50778,1,14,0:0:0:0:
256,193,51087,2,0,P|248:169|240:137,1,50,14|0,0:0|3:2,0:0:0:0:
205,110,51396,2,0,P|212:86|221:54,1,50,2|0,3:2|3:2,0:0:0:0:
196,23,51706,1,8,0:0:0:0:
196,23,51860,5,2,0:0:0:0:
88,305,54335,5,10,3:2:0:0:
262,230,54953,1,10,3:2:0:0:
99,113,55572,2,0,L|165:96,1,50,10|2,3:2|3:2,0:0:0:0:
179,61,55881,2,0,L|245:78,1,50,10|2,3:2|3:2,0:0:0:0:
275,86,56190,1,10,3:2:0:0:
478,2,56809,6,0,B|447:46|447:46|471:111,1,110.000003356934,6|10,3:1|0:0,0:0:0:0:
380,167,57427,2,0,P|367:194|370:224,1,55.0000016784668,2|2,3:2|3:2,0:0:0:0:
409,263,57737,1,10,0:0:0:0:
409,263,57891,2,0,P|439:305|362:382,1,165.0000050354,6|8,3:1|0:0,0:0:0:0:
334,350,58510,1,2,0:0:0:0:
231,380,58819,1,2,3:2:0:0:
231,380,58974,1,10,0:0:0:0:
157,297,59283,6,0,P|163:269|171:238,1,55.0000016784668,6|2,3:1|0:0,0:0:0:0:
218,217,59592,2,0,P|212:189|204:158,1,55.0000016784668,10|2,0:0|0:0,0:0:0:0:
171,119,59902,2,0,P|177:91|185:60,1,55.0000016784668,2|2,3:2|3:2,0:0:0:0:
152,27,60211,1,10,0:0:0:0:
152,27,60366,2,0,B|92:41|119:60|45:75,1,110.000003356934,6|0,3:1|3:2,0:0:0:0:
16,113,60829,1,10,0:0:0:0:
88,196,61139,1,2,3:2:0:0:
32,291,61448,2,0,P|65:301|96:313,1,55.0000016784668,10|8,0:0|0:0,0:0:0:0:
116,350,61757,6,0,P|162:324|230:337,1,110.000003356934,6|10,3:1|0:0,0:0:0:0:
319,369,62376,2,0,P|347:361|387:352,1,55.0000016784668,2|2,3:2|3:2,0:0:0:0:
429,345,62685,1,10,0:0:0:0:
429,345,62840,2,0,B|396:299|396:299|414:232,1,110.000003356934,6|0,3:1|3:2,0:0:0:0:
423,194,63304,1,8,0:0:0:0:
498,114,63613,2,0,P|498:85|471:54,1,55.0000016784668,0|2,3:2|3:2,0:0:0:0:
436,36,63922,1,10,0:0:0:0:
342,93,64231,6,0,P|314:86|279:79,1,55.0000016784668,6|2,3:1|3:2,0:0:0:0:
244,46,64541,2,0,P|216:53|181:60,1,55.0000016784668,10|2,0:0|3:2,0:0:0:0:
144,27,64850,2,0,P|123:43|95:58,1,55.0000016784668,10|2,0:0|3:2,0:0:0:0:
55,90,65159,1,10,0:0:0:0:
55,90,65314,2,0,B|52:111|76:132|76:132|45:153|47:202,1,110.000003356934,6|8,3:1|3:3,0:0:0:0:
62,236,65778,1,8,3:2:0:0:
2,328,66087,1,8,3:2:0:0:
100,377,66396,2,0,P|130:367|158:359,1,55.0000016784668,10|10,0:0|0:0,0:0:0:0:
186,317,66706,6,0,P|162:270|179:208,1,110.000003356934,6|10,3:1|0:0,0:0:0:0:
257,145,67324,2,0,P|262:122|271:91,1,55.0000016784668,2|2,3:2|3:2,0:0:0:0:
322,67,67634,1,10,0:0:0:0:
322,67,67788,2,0,B|384:76|365:95|436:104,1,110.000003356934,6|0,3:1|3:2,0:0:0:0:
472,74,68252,1,8,0:0:0:0:
501,179,68561,2,0,P|480:211|475:248,1,55.0000016784668,0|2,3:2|3:2,0:0:0:0:
500,276,68871,1,10,0:0:0:0:
420,352,69180,6,0,P|414:324|406:293,1,55.0000016784668,6|2,3:1|0:0,0:0:0:0:
354,281,69489,2,0,P|348:253|340:222,1,55.0000016784668,10|2,0:0|0:0,0:0:0:0:
296,195,69799,2,0,P|302:167|310:136,1,55.0000016784668,2|2,3:2|3:2,0:0:0:0:
269,111,70108,1,10,0:0:0:0:
269,111,70263,2,0,B|225:143|225:143|171:127,1,110.000003356934,6|0,3:1|3:2,0:0:0:0:
129,91,70726,1,10,0:0:0:0:
45,163,71036,1,2,3:2:0:0:
70,270,71345,2,0,P|103:280|124:303,1,55.0000016784668,10|8,0:0|0:0,0:0:0:0:
149,338,71654,6,0,B|183:333|192:308|192:308|216:330|260:317,1,110.000003356934,6|10,3:1|0:0,0:0:0:0:
300,226,72273,2,0,P|292:198|283:158,1,55.0000016784668,2|2,3:2|3:2,0:0:0:0:
245,143,72582,1,10,3:3:0:0:
245,143,72737,2,0,P|277:98|262:41,1,110.000003356934,6|0,3:1|3:2,0:0:0:0:
308,11,73201,1,8,0:0:0:0:
401,69,73510,2,0,P|401:98|428:129,1,55.0000016784668,0|2,3:2|3:2,0:0:0:0:
457,154,73819,1,10,0:0:0:0:
407,252,74128,6,0,P|379:245|344:238,1,55.0000016784668,6|2,3:1|3:2,0:0:0:0:
319,283,74438,2,0,P|291:290|256:297,1,55.0000016784668,10|2,0:0|3:2,0:0:0:0:
222,260,74747,2,0,P|201:276|173:291,1,55.0000016784668,10|8,0:0|0:0,0:0:0:0:
130,317,75056,1,10,0:0:0:0:
130,317,75211,2,0,B|129:286|97:268|97:268|119:245|114:224,1,110.000003356934,6|8,3:1|3:3,0:0:0:0:
81,181,75675,1,10,3:2:0:0:
135,85,75984,2,0,P|93:79|41:69,2,82.5000025177002,8|8|8,3:2|3:2|3:2,0:0:0:0:
176,56,76603,6,0,P|222:32|281:47,1,99.9999999999999,6|2,3:1|0:0,0:0:0:0:
316,126,77221,2,0,P|289:134|252:142,2,50,2|2|10,0:0|0:0|0:0,0:0:0:0:
354,93,77685,2,0,B|401:103|401:103|404:111|404:111|466:125,1,99.9999999999999,6|0,3:1|3:2,0:0:0:0:
504,208,78304,1,0,3:2:0:0:
504,208,78458,2,0,P|474:229|468:263,1,50,10|10,3:3|3:3,0:0:0:0:
452,288,78768,1,14,0:0:0:0:
356,342,79077,6,0,P|333:335|294:327,1,55.0000016784668,6|10,3:1|0:0,0:0:0:0:
257,296,79386,2,0,P|234:303|195:311,1,55.0000016784668,10|10,3:2|0:0,0:0:0:0:
166,350,79695,2,0,P|138:341|100:331,1,55.0000016784668,10|8,3:2|0:0,0:0:0:0:
64,320,80005,1,10,3:2:0:0:
64,320,80159,2,0,P|88:274|70:212,1,110.000003356934,6|8,3:1|0:0,0:0:0:0:
43,174,80623,1,10,3:2:0:0:
141,118,80933,1,10,3:3:0:0:
141,118,81087,1,10,3:3:0:0:
141,118,81242,1,14,0:0:0:0:
70,33,81551,6,0,B|102:31|116:2|116:2|136:24|178:12,1,110.000003356934,6|10,3:1|0:0,0:0:0:0:
257,72,82170,2,0,P|262:100|270:131,1,55.0000016784668,2|2,3:2|3:2,0:0:0:0:
241,175,82479,1,10,0:0:0:0:
241,175,82634,2,0,P|206:229|217:277,1,110.000003356934,6|0,3:1|3:2,0:0:0:0:
237,320,83097,1,8,0:0:0:0:
338,362,83407,2,0,P|373:352|410:344,1,55.0000016784668,2|0,3:2|3:2,0:0:0:0:
440,372,83716,1,10,0:0:0:0:
505,282,84025,6,0,P|497:255|484:215,1,55.0000016784668,6|2,3:1|3:2,0:0:0:0:
443,197,84335,2,0,P|451:170|464:130,1,55.0000016784668,10|2,0:0|3:2,0:0:0:0:
500,107,84644,2,0,P|492:80|479:40,1,55.0000016784668,10|10,3:2|0:0,0:0:0:0:
443,16,84953,1,10,0:0:0:0:
443,16,85108,1,6,3:1:0:0:
256,192,85262,12,0,87814,0:0:0:0:
