osu file format v14

[General]
AudioFilename: audio.mp3
AudioLeadIn: 0
PreviewTime: 56268
Countdown: 0
SampleSet: Soft
StackLeniency: 0.7
Mode: 0
LetterboxInBreaks: 0
WidescreenStoryboard: 0

[Editor]
DistanceSpacing: 0.8
BeatDivisor: 4
GridSize: 32
TimelineZoom: 1.8

[Metadata]
Title:Gamushara (TV Size)
TitleUnicode:我武者羅 (TV Size)
Artist:CHiCO with HoneyWorks
ArtistUnicode:CHiCO with HoneyWorks
Creator:Smoke
Version:Karma
Source:BORUTO-ボルト- NARUTO NEXT GENERATIONS
Tags:anime pop j-pop jpop rock j-rock jrock japanese opening uzumaki boruto naruto uchiha sasuke PikAqours Nymphe Kiyoshi Guarden Reform Kujinn torriru
BeatmapID:3098727
BeatmapSetID:1513461

[Difficulty]
HPDrainRate:5.6
CircleSize:4.3
OverallDifficulty:9
ApproachRate:9.3
SliderMultiplier:1.8
SliderTickRate:1

[Events]
//Background and Video events
0,0,"naruto wallpaper boruto.jpg",0,0
Video,-316,"video.mp4"
//Break Periods
2,52060,53471
//Storyboard Layer 0 (Background)
//Storyboard Layer 1 (Fail)
//Storyboard Layer 2 (Pass)
//Storyboard Layer 3 (Foreground)
//Storyboard Layer 4 (Overlay)
//Storyboard Sound Samples

[TimingPoints]
-112,309.278350515464,4,2,1,70,1,0
661,-200,4,2,1,45,0,0
1125,-142.857142857143,4,2,1,55,0,0
9645,309.278350515464,4,2,1,70,1,0
9645,-100,4,2,1,70,0,0
9799,309.278350515464,4,2,1,70,1,0
9799,-100,4,2,1,70,0,0
10262,-166.666666666667,4,2,1,70,0,0
11500,-100,4,2,1,75,0,0
12273,-86.9565217391304,4,2,1,80,0,0
12505,-86.9565217391304,4,2,1,5,0,0
12582,-86.9565217391304,4,2,1,80,0,0
17221,-142.857142857143,4,2,1,60,0,0
22170,-133.333333333333,4,2,1,63,0,0
24644,-125,4,2,1,66,0,0
27118,-99.9999999999999,4,2,1,70,0,0
27350,-99.9999999999999,4,2,1,5,0,0
27427,-99.9999999999999,4,2,1,70,0,0
29515,-99.9999999999999,4,2,1,5,0,0
29592,-99.9999999999999,4,2,1,70,0,0
36319,-99.9999999999999,4,2,1,5,0,0
36396,-99.9999999999999,4,2,1,70,0,0
37015,-133.333333333333,4,2,1,60,0,0
40726,-133.333333333333,4,2,1,65,0,0
41345,-95.2380952380951,4,2,1,65,0,0
41500,-95.2380952380951,4,2,1,5,0,0
41577,-95.2380952380951,4,2,1,65,0,0
41731,-95.2380952380951,4,2,1,5,0,0
41808,-95.2380952380951,4,2,1,65,0,0
41886,-95.2380952380951,4,2,1,5,0,0
41963,-133.333333333333,4,2,1,60,0,0
45675,-95.2380952380951,4,2,1,65,0,0
46835,-95.2380952380951,4,2,1,5,0,0
46912,-142.857142857143,4,2,1,60,0,0
50469,-99.9999999999999,4,2,1,70,0,0
51860,-166.666666666667,4,2,1,55,0,0
54335,-62.5,4,2,1,75,0,0
54489,-62.5,4,2,1,5,0,0
54953,-62.5,4,2,1,75,0,0
55108,-62.5,4,2,1,5,0,0
55572,-90.9090909090909,4,2,1,80,0,0
56345,-142.857142857143,4,2,1,60,0,0
56809,-83.3333333333333,4,2,1,85,0,1
57041,-83.3333333333333,4,2,1,5,0,1
57118,-83.3333333333333,4,2,1,85,0,1
61989,-83.3333333333333,4,2,1,5,0,1
62066,-83.3333333333333,4,2,1,85,0,1
66938,-83.3333333333333,4,2,1,5,0,1
67015,-83.3333333333333,4,2,1,85,0,1
75443,-83.3333333333333,4,2,1,5,0,1
75520,-83.3333333333333,4,2,1,85,0,1
76139,-83.3333333333333,4,2,1,85,0,1
76216,-83.3333333333333,4,2,1,85,0,1
76371,-83.3333333333333,4,2,1,5,0,1
76448,-83.3333333333333,4,2,1,85,0,1
76603,-100,4,2,1,70,0,0
79077,-90.9090909090909,4,2,1,85,0,1
80159,-80,4,2,1,90,0,1
80933,-74.0740740740741,4,2,1,95,0,1
81474,-74.0740740740741,4,2,1,5,0,1
81551,-83.3333333333333,4,2,1,85,0,1
85108,-166.666666666667,4,2,1,80,0,0

[Colours]
Combo1 : 87,108,157
Combo2 : 235,136,46
Combo3 : 143,151,184
Combo4 : 231,48,66

[HitObjects]
86,333,661,5,2,0:0:0:0:
136,275,815,1,2,0:0:0:0:
91,211,970,1,2,0:0:0:0:
197,74,1125,6,0,P|236:86|263:92,1,62.9999980773926,2|0,0:0|0:0,0:0:0:0:
326,155,1434,2,0,P|359:144|391:134,1,62.9999980773926,2|0,0:0|0:0,0:0:0:0:
471,94,1743,2,0,P|429:148|441:205,1,125.999996154785,2|2,0:0|0:0,0:0:0:0:
496,275,2207,2,0,B|427:287|450:315|361:328,1,125.999996154785,2|0,0:0|0:0,0:0:0:0:
200,380,2826,2,0,P|189:345|173:303,1,62.9999980773926,2|0,0:0|0:0,0:0:0:0:
112,261,3135,1,2,0:0:0:0:
112,261,3290,2,0,P|122:228|135:181,1,62.9999980773926,2|0,0:0|0:0,0:0:0:0:
3,92,3599,6,0,P|37:90|78:60,1,62.9999980773926,2|2,0:0|0:0,0:0:0:0:
133,14,3908,2,0,P|167:16|206:43,1,62.9999980773926,2|2,0:0|0:0,0:0:0:0:
260,90,4217,1,2,0:0:0:0:
209,170,4372,1,2,0:0:0:0:
284,226,4527,1,2,0:0:0:0:
199,360,4681,6,0,P|266:343|327:330,1,125.999996154785,2|0,0:0|0:0,0:0:0:0:
452,383,5145,2,0,P|430:355|423:324,1,62.9999980773926,2|0,0:0|0:0,0:0:0:0:
372,248,5455,2,0,P|394:220|403:190,1,62.9999980773926,2|0,0:0|0:0,0:0:0:0:
477,136,5764,2,0,P|455:108|450:80,1,62.9999980773926,2|0,0:0|0:0,0:0:0:0:
296,0,6073,6,0,P|264:12|219:26,1,62.9999980773926,2|0,0:0|0:0,0:0:0:0:
131,99,6382,2,0,P|164:109|195:122,1,62.9999980773926,2|0,0:0|0:0,0:0:0:0:
257,187,6692,1,2,0:0:0:0:
186,248,6846,1,2,0:0:0:0:
255,312,7001,1,2,0:0:0:0:
124,384,7156,6,0,P|102:290|90:241,1,125.999996154785,2|0,0:0|0:0,0:0:0:0:
53,76,7774,1,2,0:0:0:0:
0,155,7929,2,0,P|29:172|66:171,1,62.9999980773926,2|2,0:0|0:0,0:0:0:0:
250,231,8238,2,0,P|215:231|187:248,1,62.9999980773926,2|0,0:0|0:0,0:0:0:0:
25,371,8547,5,0,0:0:0:0:
468,43,9645,5,0,3:2:0:0:
468,43,9722,1,0,3:2:0:0:
468,43,9799,1,10,3:2:0:0:
306,218,9953,2,0,P|295:172|281:123,1,90,10|0,3:2|0:0,0:0:0:0:
468,269,10262,5,2,0:0:0:0:
468,269,10417,2,0,P|469:247|448:212,1,53.9999983520508,2|0,0:0|0:0,0:0:0:0:
344,301,10726,1,2,0:0:0:0:
344,301,10881,2,0,P|363:291|383:255,1,53.9999983520508,2|0,0:0|0:0,0:0:0:0:
256,203,11190,1,2,0:0:0:0:
256,203,11345,2,0,P|273:215|315:214,1,53.9999983520508,2|0,0:0|3:2,0:0:0:0:
301,139,11577,5,0,3:2:0:0:
301,139,11654,1,8,0:0:0:0:
186,251,11809,1,0,3:2:0:0:
26,38,11963,1,8,3:2:0:0:
64,69,12040,1,8,0:0:0:0:
79,115,12117,1,8,3:2:0:0:
62,161,12194,1,8,0:0:0:0:
23,193,12273,6,0,B|94:179|94:179|101:182|101:182|187:167,1,155.250002961159,6|0,3:1|0:0,0:0:0:0:
256,203,12582,2,0,P|271:157|296:97,1,103.500001974106,10|0,0:0|0:0,0:0:0:0:
271,69,12814,1,8,0:0:0:0:
271,69,12891,1,2,3:2:0:0:
365,174,13046,1,2,3:2:0:0:
210,303,13201,1,8,0:0:0:0:
456,262,13355,6,0,P|399:272|348:281,1,103.500001974106,6|0,3:2|0:0,0:0:0:0:
498,343,13664,1,2,3:2:0:0:
365,174,13819,1,8,0:0:0:0:
440,102,13974,1,2,0:0:0:0:
440,102,14051,1,8,0:0:0:0:
440,102,14128,1,2,3:2:0:0:
373,22,14283,1,2,3:2:0:0:
221,122,14438,2,0,P|163:128|119:93,1,103.500001974106,10|2,0:0|0:0,0:0:0:0:
24,337,14747,5,14,0:0:0:0:
212,256,14902,1,0,3:2:0:0:
2,205,15056,5,10,0:0:0:0:
132,352,15211,1,0,3:2:0:0:
135,362,15288,1,0,3:2:0:0:
138,372,15366,5,10,0:0:0:0:
212,256,15520,1,2,3:2:0:0:
84,114,15675,1,8,0:0:0:0:
291,0,15829,6,0,P|334:-4|386:31,1,103.500001974106,6|0,3:2|0:0,0:0:0:0:
510,174,16139,1,2,3:2:0:0:
463,182,16216,1,0,3:2:0:0:
417,192,16293,1,8,3:2:0:0:
371,202,16370,1,0,3:2:0:0:
326,212,16448,2,0,P|316:239|306:262,1,51.7500009870529,2|0,3:2|3:2,0:0:0:0:
393,374,16603,2,0,P|383:347|373:324,1,51.7500009870529,8|0,3:2|3:2,0:0:0:0:
214,282,16757,1,2,3:2:0:0:
214,282,16835,1,0,3:2:0:0:
214,282,16912,1,10,3:2:0:0:
329,124,17067,1,2,3:2:0:0:
262,47,17221,6,0,P|201:61|121:79,2,125.999996154785,2|2|2,0:0|0:0|0:0,0:0:0:0:
346,0,17994,2,0,P|375:7|412:17,1,62.9999980773926,2|0,0:0|0:0,0:0:0:0:
511,80,18304,6,0,P|460:93|424:168,1,125.999996154785,2|2,0:0|0:0,0:0:0:0:
479,229,18768,2,0,P|448:238|419:250,1,62.9999980773926,2|2,0:0|0:0,0:0:0:0:
383,337,19077,2,0,P|359:314|334:295,1,62.9999980773926,2|2,0:0|0:0,0:0:0:0:
253,343,19386,2,0,B|183:342|207:370|113:366,1,125.999996154785,2|0,0:0|0:0,0:0:0:0:
35,271,19850,6,0,P|54:213|76:140,2,125.999996154785,2|2|2,0:0|0:0|0:0,0:0:0:0:
210,198,20778,2,0,P|191:140|169:67,1,125.999996154785,2|2,0:0|0:0,0:0:0:0:
266,85,21242,2,0,P|278:119|288:150,1,62.9999980773926,2|2,0:0|0:0,0:0:0:0:
370,183,21551,1,2,0:0:0:0:
370,183,21706,2,0,P|358:217|348:248,1,62.9999980773926,2|0,0:0|0:0,0:0:0:0:
453,327,22015,5,2,0:0:0:0:
453,327,22092,1,2,0:0:0:0:
453,327,22170,2,0,P|482:312|504:260,1,67.5000025749208,2|2,3:2|0:0,0:0:0:0:
475,191,22479,1,2,3:2:0:0:
475,191,22634,2,0,P|464:156|450:108,1,67.5000025749208,2|0,0:0|3:2,0:0:0:0:
459,28,22943,1,2,0:0:0:0:
459,28,23097,2,0,P|428:38|381:52,1,67.5000025749208,2|2,3:2|0:0,0:0:0:0:
248,4,23407,5,2,3:2:0:0:
307,67,23561,1,2,0:0:0:0:
275,148,23716,1,2,3:2:0:0:
187,160,23871,2,0,P|159:151|110:140,1,67.5000025749208,2|0,0:0|3:2,0:0:0:0:
60,65,24180,2,0,P|88:56|137:45,1,67.5000025749208,2|0,0:0|3:2,0:0:0:0:
8,197,24489,1,2,0:0:0:0:
122,297,24644,5,2,3:2:0:0:
15,349,24799,2,0,P|27:316|40:279,1,72,2|0,3:2|3:2,0:0:0:0:
174,175,25108,1,2,3:2:0:0:
174,175,25185,1,0,3:2:0:0:
174,175,25262,1,0,3:2:0:0:
113,89,25417,1,2,3:2:0:0:
324,16,25572,1,8,0:0:0:0:
273,195,25726,6,0,P|263:156|249:109,1,72,6|0,3:2|0:0,0:0:0:0:
449,42,26036,1,10,0:0:0:0:
449,42,26113,1,8,0:0:0:0:
449,42,26190,2,0,P|440:69|432:98,3,36,8|0|0|0,3:2|3:2|3:2|3:2,0:0:0:0:
379,153,26500,1,8,3:2:0:0:
379,153,26577,1,8,3:3:0:0:
379,153,26654,2,0,P|387:176|394:199,1,36,10|8,3:3|3:3,0:0:0:0:
512,334,26809,1,10,3:2:0:0:
483,299,26886,1,8,0:0:0:0:
442,281,26963,1,10,0:0:0:0:
397,282,27040,1,8,0:0:0:0:
358,302,27118,6,0,B|335:327|301:324|301:324|277:294|235:303,1,135,6|0,3:1|0:0,0:0:0:0:
160,351,27427,2,0,P|148:308|134:265,1,90,10|0,0:0|0:0,0:0:0:0:
101,233,27659,1,8,0:0:0:0:
101,233,27737,1,2,3:2:0:0:
39,308,27891,1,2,3:2:0:0:
184,186,28046,1,8,0:0:0:0:
23,12,28201,6,0,B|106:31|106:31|108:38|108:38|192:59,1,180,6|0,3:2|3:2,0:0:0:0:
422,5,28664,1,10,0:0:0:0:
349,85,28819,1,2,0:0:0:0:
349,85,28896,1,8,0:0:0:0:
349,85,28973,1,2,3:2:0:0:
415,170,29128,1,0,3:2:0:0:
293,336,29283,2,0,B|260:319|261:282|261:282|239:314|197:309,1,135,10|0,0:0|0:0,0:0:0:0:
123,361,29592,5,4,3:2:0:0:
0,271,29747,2,0,P|14:213|28:155,1,90,2|8,0:0|0:0,0:0:0:0:
161,62,30056,1,2,0:0:0:0:
161,62,30134,1,8,0:0:0:0:
161,62,30211,2,0,P|171:105|182:149,1,90,2|0,3:2|3:2,0:0:0:0:
66,23,30520,1,10,0:0:0:0:
276,191,30675,6,0,B|380:186|350:238|447:235,1,180,6|2,3:2|3:2,0:0:0:0:
314,101,31139,1,10,0:0:0:0:
412,50,31293,1,2,0:0:0:0:
412,50,31371,1,8,0:0:0:0:
412,50,31448,1,2,3:2:0:0:
480,134,31603,1,2,3:2:0:0:
305,286,31757,1,8,0:0:0:0:
405,348,31912,1,8,0:0:0:0:
405,348,31990,1,8,0:0:0:0:
405,348,32067,5,6,3:2:0:0:
181,384,32221,2,0,P|193:340|204:297,1,90,2|8,0:0|0:0,0:0:0:0:
131,232,32530,1,2,0:0:0:0:
131,232,32608,1,8,0:0:0:0:
131,232,32685,1,0,3:2:0:0:
37,273,32840,1,2,3:2:0:0:
166,136,32994,1,10,0:0:0:0:
0,0,33149,6,0,P|79:55|169:31,1,180,6|2,3:2|3:2,0:0:0:0:
329,172,33613,1,10,0:0:0:0:
289,95,33768,1,2,0:0:0:0:
289,95,33846,1,8,0:0:0:0:
289,95,33923,1,0,3:2:0:0:
491,26,34077,1,2,3:2:0:0:
430,201,34231,2,0,P|418:154|403:103,1,90,10|0,0:0|0:0,0:0:0:0:
175,293,34541,5,6,3:2:0:0:
258,366,34695,2,0,P|270:319|285:268,1,90,2|8,3:2|0:0,0:0:0:0:
114,134,35005,1,2,3:2:0:0:
117,146,35082,1,0,3:2:0:0:
121,159,35159,1,8,0:0:0:0:
39,280,35314,1,2,3:2:0:0:
213,187,35469,1,8,0:0:0:0:
10,17,35623,6,0,B|59:12|78:48|78:48|133:28|176:73,1,180,6|0,3:2|3:2,0:0:0:0:
396,0,36087,2,0,P|342:42|332:112,1,135,12|0,0:0|0:0,0:0:0:0:
426,248,36396,5,8,3:3:0:0:
445,165,36500,1,0,3:2:0:0:
466,83,36603,1,0,3:2:0:0:
479,101,36706,5,10,3:3:0:0:
461,171,36810,1,0,3:2:0:0:
444,241,36913,1,0,3:2:0:0:
494,327,37015,6,0,P|454:335|420:344,1,67.5000025749208,6|2,3:2|0:0,0:0:0:0:
344,381,37324,1,2,3:2:0:0:
244,300,37479,2,0,P|211:306|182:330,1,67.5000025749208,2|0,0:0|3:2,0:0:0:0:
98,366,37788,2,0,P|71:345|38:339,1,67.5000025749208,2|0,0:0|3:2,0:0:0:0:
96,199,38097,6,0,P|104:231|114:263,1,67.5000025749208,2|0,0:0|3:2,0:0:0:0:
13,149,38407,2,0,P|22:116|31:84,2,67.5000025749208,2|0|0,0:0|3:2|0:0,0:0:0:0:
102,32,38871,1,2,3:2:0:0:
165,91,39025,1,2,0:0:0:0:
245,55,39180,1,0,3:2:0:0:
407,139,39335,1,10,0:0:0:0:
407,139,39412,1,8,0:0:0:0:
407,139,39489,5,6,3:2:0:0:
349,25,39644,2,0,P|337:65|324:103,1,67.5000025749208,2|0,0:0|3:2,0:0:0:0:
248,179,39953,1,8,3:3:0:0:
248,179,40030,1,8,3:3:0:0:
248,179,40108,2,0,P|259:215|269:252,1,67.5000025749208,2|10,3:2|3:3,0:0:0:0:
423,342,40417,1,10,0:0:0:0:
318,374,40572,1,2,3:2:0:0:
318,374,40649,1,0,3:2:0:0:
318,374,40727,6,0,P|329:338|339:301,1,67.5000025749208,4|2,3:2|0:0,0:0:0:0:
441,220,41036,2,0,P|430:184|420:147,1,67.5000025749208,0|2,3:2|0:0,0:0:0:0:
290,19,41345,6,0,P|238:35|204:85,1,94.499997116089,10|0,0:0|0:0,0:0:0:0:
128,21,41577,6,0,P|115:74|142:128,1,94.499997116089,10|0,0:0|0:0,0:0:0:0:
48,157,41809,6,0,P|73:188|90:195,1,47.2499985580445,10|0,0:0|0:0,0:0:0:0:
219,298,41963,6,0,B|158:313|158:313|155:321|155:321|86:338,2,135.000005149842,6|0|0,3:2|3:2|3:2,0:0:0:0:
298,350,42737,2,0,P|327:365|366:364,1,67.5000025749208,2|0,0:0|3:2,0:0:0:0:
482,281,43046,6,0,P|470:247|454:198,1,67.5000025749208,2|4,0:0|3:2,0:0:0:0:
387,156,43355,2,0,P|399:122|415:73,2,67.5000025749208,2|0|8,0:0|3:2|0:0,0:0:0:0:
307,207,43819,1,0,3:2:0:0:
230,150,43974,1,8,3:3:0:0:
59,253,44128,1,2,3:2:0:0:
172,329,44283,1,2,3:2:0:0:
172,329,44360,1,0,3:2:0:0:
172,329,44438,6,0,P|160:296|146:255,1,67.5000025749208,6|2,3:2|0:0,0:0:0:0:
22,155,44747,1,0,3:2:0:0:
161,34,44902,1,2,3:2:0:0:
70,64,45056,1,0,3:2:0:0:
234,197,45211,1,10,0:0:0:0:
149,265,45366,1,0,3:2:0:0:
315,384,45520,1,10,0:0:0:0:
257,302,45675,5,10,3:2:0:0:
257,302,45752,1,8,0:0:0:0:
257,302,45829,2,0,P|286:295|316:286,1,47.2499985580445,8|8,0:0|0:0,0:0:0:0:
404,219,45984,2,0,P|375:212|344:203,1,47.2499985580445,10|8,3:2|0:0,0:0:0:0:
230,122,46139,2,0,P|259:115|286:108,1,47.2499985580445,8|8,0:0|0:0,0:0:0:0:
512,3,46293,1,10,3:2:0:0:
480,30,46370,1,8,0:0:0:0:
461,67,46447,1,8,0:0:0:0:
459,109,46524,1,8,0:0:0:0:
474,148,46603,2,0,B|477:181|508:195|508:195|475:235|511:281,1,141.749995674133,14|0,0:0|0:0,0:0:0:0:
449,340,46912,5,6,3:2:0:0:
371,297,47067,1,2,0:0:0:0:
303,353,47221,1,2,3:2:0:0:
228,305,47376,2,0,P|195:316|153:328,1,62.9999980773926,2|0,0:0|3:2,0:0:0:0:
63,359,47685,2,0,P|74:326|86:284,1,62.9999980773926,2|0,0:0|3:2,0:0:0:0:
9,160,47994,5,2,3:2:0:0:
9,160,48072,1,0,3:2:0:0:
9,160,48149,1,0,3:2:0:0:
67,90,48304,2,0,P|101:89|137:112,2,62.9999980773926,2|0|0,0:0|3:2|3:2,0:0:0:0:
159,187,48768,1,2,3:2:0:0:
229,135,48922,1,2,3:2:0:0:
203,50,49077,1,2,3:2:0:0:
359,0,49231,5,2,3:2:0:0:
359,0,49309,1,0,3:2:0:0:
359,0,49386,1,0,3:2:0:0:
423,60,49541,2,0,P|407:92|390:133,2,62.9999980773926,2|0|0,0:0|3:2|0:0,0:0:0:0:
320,156,50005,2,0,P|328:178|335:201,1,31.4999990386963,2|0,3:2|0:0,0:0:0:0:
465,281,50159,1,2,3:2:0:0:
465,281,50237,1,0,3:2:0:0:
465,281,50314,2,0,P|473:259|480:236,1,31.4999990386963,2|0,3:2|0:0,0:0:0:0:
280,355,50469,6,0,B|242:329|242:329|188:341,1,90,14|0,0:0|3:2,0:0:0:0:
52,204,50778,2,0,B|90:178|90:178|132:187,1,90,14|0,0:0|3:2,0:0:0:0:
293,21,51087,2,0,P|286:44|280:67,1,45,14|0,0:0|0:0,0:0:0:0:
129,51,51242,2,0,P|136:74|142:97,1,45,0|0,3:2|0:0,0:0:0:0:
335,221,51396,1,2,3:2:0:0:
335,221,51474,1,0,3:2:0:0:
335,221,51551,2,0,P|312:214|289:208,1,45,0|0,3:2|0:0,0:0:0:0:
117,363,51706,1,8,0:0:0:0:
163,280,51860,5,2,0:0:0:0:
406,47,54025,6,0,P|390:81|380:116,1,53.9999983520508,2|2,0:0|0:0,0:0:0:0:
448,302,54335,6,0,P|471:290|440:300,1,144,10|0,3:2|0:0,0:0:0:0:
81,202,54953,6,0,P|58:190|89:200,1,144,10|0,3:2|0:0,0:0:0:0:
438,13,55572,6,0,P|429:43|420:84,1,49.5000015106202,10|0,3:2|3:2,0:0:0:0:
326,136,55726,2,0,P|319:112|313:88,1,49.5000015106202,2|0,3:2|3:2,0:0:0:0:
168,0,55881,1,10,3:2:0:0:
182,47,55958,1,2,3:2:0:0:
196,95,56035,1,2,3:2:0:0:
209,142,56112,1,2,3:2:0:0:
223,190,56190,1,10,3:2:0:0:
184,256,56345,5,2,0:0:0:0:
236,310,56500,2,0,P|271:320|299:329,1,62.9999980773926,2|2,0:0|0:0,0:0:0:0:
39,378,56809,6,0,B|38:336|80:317|80:317|46:271|75:220,1,161.999995056153,6|0,3:1|0:0,0:0:0:0:
12,166,57118,2,0,P|64:150|95:106,1,107.999996704102,10|0,0:0|0:0,0:0:0:0:
12,75,57350,1,8,0:0:0:0:
12,75,57427,1,2,3:2:0:0:
126,4,57582,1,2,3:2:0:0:
310,125,57737,1,10,0:0:0:0:
100,280,57891,6,0,B|67:265|62:221|62:221|129:173|190:236,1,215.999993408203,6|0,3:1|3:2,0:0:0:0:
361,362,58355,1,8,0:0:0:0:
270,384,58510,1,2,0:0:0:0:
270,384,58587,1,8,0:0:0:0:
270,384,58664,1,0,3:2:0:0:
384,271,58819,1,2,3:2:0:0:
264,138,58974,2,0,P|283:197|297:256,1,107.999996704102,10|0,0:0|0:0,0:0:0:0:
508,43,59283,5,6,3:1:0:0:
392,155,59438,1,2,0:0:0:0:
278,0,59592,1,10,0:0:0:0:
405,59,59747,1,2,0:0:0:0:
405,59,59824,1,10,0:0:0:0:
405,59,59902,1,2,3:2:0:0:
237,144,60056,1,2,3:2:0:0:
447,247,60211,1,10,0:0:0:0:
187,351,60366,6,0,B|191:369|209:381|209:381|155:391|107:350|151:342|100:300|43:321,1,215.999993408203,6|0,3:1|3:2,0:0:0:0:
223,135,60829,2,0,P|172:154|113:172,1,107.999996704102,10|0,0:0|0:0,0:0:0:0:
46,123,61061,1,8,0:0:0:0:
46,123,61139,2,0,P|36:78|81:22,1,107.999996704102,2|0,3:2|3:2,0:0:0:0:
236,232,61448,1,10,0:0:0:0:
287,214,61525,1,8,0:0:0:0:
338,198,61602,1,8,0:0:0:0:
390,181,61679,1,8,0:0:0:0:
441,166,61757,6,0,B|475:189|478:222|478:222|429:262|455:313,1,161.999995056153,6|0,3:1|0:0,0:0:0:0:
379,364,62067,2,0,P|328:352|268:340,1,107.999996704102,10|0,0:0|0:0,0:0:0:0:
214,276,62299,1,8,0:0:0:0:
214,276,62376,1,2,3:2:0:0:
138,376,62530,1,2,3:2:0:0:
334,235,62685,1,10,0:0:0:0:
104,65,62840,6,0,B|166:47|222:83|178:106|246:144|302:118,1,215.999993408203,6|0,3:1|3:2,0:0:0:0:
493,22,63304,1,8,0:0:0:0:
440,118,63458,1,2,0:0:0:0:
440,118,63536,1,8,0:0:0:0:
440,118,63613,1,0,3:2:0:0:
508,201,63768,1,2,3:2:0:0:
347,341,63922,2,0,P|333:292|314:233,1,107.999996704102,10|0,0:0|0:0,0:0:0:0:
36,42,64231,5,6,3:1:0:0:
235,90,64386,1,2,3:2:0:0:
295,156,64541,5,10,0:0:0:0:
72,210,64695,1,2,3:2:0:0:
16,282,64850,5,10,0:0:0:0:
257,347,65005,1,2,3:2:0:0:
7,278,65159,1,10,0:0:0:0:
235,90,65314,6,0,B|287:84|307:132|307:132|370:91|424:137,1,215.999993408203,6|8,3:1|3:3,0:0:0:0:
491,73,65701,1,8,3:3:0:0:
491,73,65778,2,0,P|483:44|473:10,1,53.9999983520508,8|0,3:2|3:2,0:0:0:0:
372,211,65933,1,0,3:2:0:0:
372,211,66010,1,0,3:2:0:0:
372,211,66087,2,0,P|379:236|386:263,1,53.9999983520508,8|0,3:2|3:2,0:0:0:0:
508,348,66242,2,0,P|482:341|455:334,1,53.9999983520508,2|0,3:2|3:2,0:0:0:0:
286,265,66396,1,10,0:0:0:0:
234,280,66473,1,8,0:0:0:0:
182,296,66550,1,10,0:0:0:0:
130,311,66627,1,8,0:0:0:0:
79,326,66706,6,0,B|56:330|50:347|50:347|67:272|20:227,1,161.999995056153,6|0,3:1|0:0,0:0:0:0:
82,159,67015,2,0,P|133:145|170:90,1,107.999996704102,10|0,0:0|0:0,0:0:0:0:
195,17,67247,1,8,0:0:0:0:
195,17,67324,1,2,3:2:0:0:
81,66,67479,1,2,3:2:0:0:
242,223,67634,1,10,0:0:0:0:
433,34,67788,6,0,B|406:67|384:93|384:93|406:159|427:227,1,215.999993408203,6|0,3:1|3:2,0:0:0:0:
272,370,68252,1,8,0:0:0:0:
192,295,68407,1,2,0:0:0:0:
192,295,68484,1,8,0:0:0:0:
192,295,68561,1,0,3:2:0:0:
245,194,68716,1,2,3:2:0:0:
95,58,68871,2,0,P|60:103|66:154,1,107.999996704102,10|0,0:0|0:0,0:0:0:0:
241,25,69180,5,6,3:1:0:0:
340,143,69335,1,2,0:0:0:0:
462,0,69489,1,10,0:0:0:0:
361,48,69644,1,2,0:0:0:0:
361,48,69721,1,10,0:0:0:0:
361,48,69799,1,2,3:2:0:0:
492,140,69953,1,2,3:2:0:0:
289,237,70108,1,10,0:0:0:0:
512,384,70262,6,0,P|448:330|311:343,1,215.999993408203,6|0,3:1|3:2,0:0:0:0:
129,384,70726,2,0,P|148:333|166:274,1,107.999996704102,10|0,0:0|0:0,0:0:0:0:
109,213,70958,1,8,0:0:0:0:
109,213,71036,1,2,3:2:0:0:
347,71,71190,1,10,3:2:0:0:
311,83,71268,1,8,3:2:0:0:
268,77,71345,1,10,0:0:0:0:
229,48,71422,1,8,0:0:0:0:
178,26,71499,1,8,0:0:0:0:
111,41,71576,1,8,0:0:0:0:
70,101,71654,5,6,3:1:0:0:
256,219,71809,1,0,0:0:0:0:
43,331,71963,2,0,P|91:305|158:313,1,107.999996704102,10|0,0:0|3:2,0:0:0:0:
222,363,72195,1,0,3:2:0:0:
222,363,72273,2,0,P|231:337|241:310,1,53.9999983520508,2|0,3:2|3:2,0:0:0:0:
456,169,72427,1,2,3:2:0:0:
402,182,72504,1,0,3:2:0:0:
349,176,72581,1,10,3:3:0:0:
303,148,72658,1,0,3:2:0:0:
273,104,72737,6,0,B|372:84|372:84|379:89|379:89|485:68,1,215.999993408203,6|0,3:1|3:2,0:0:0:0:
366,267,73201,1,8,0:0:0:0:
453,354,73355,1,2,0:0:0:0:
453,354,73433,1,8,0:0:0:0:
453,354,73510,1,0,3:2:0:0:
482,247,73664,1,2,3:2:0:0:
288,339,73819,2,0,P|235:345|173:302,1,107.999996704102,10|0,0:0|3:2,0:0:0:0:
35,80,74128,5,6,3:1:0:0:
270,203,74283,1,2,3:2:0:0:
327,144,74438,5,10,0:0:0:0:
71,243,74592,1,2,3:2:0:0:
7,183,74747,5,10,0:0:0:0:
186,326,74902,1,8,0:0:0:0:
239,315,74979,1,8,0:0:0:0:
292,306,75056,1,10,0:0:0:0:
345,297,75133,1,8,0:0:0:0:
398,289,75211,6,0,B|417:251|390:222|390:222|439:200|438:144,1,161.999995056153,6|0,3:1|0:0,0:0:0:0:
499,103,75520,1,8,3:3:0:0:
274,0,75675,1,10,3:2:0:0:
328,103,75829,1,0,3:2:0:0:
328,103,75907,1,0,3:2:0:0:
328,103,75984,6,0,P|310:158|296:211,1,107.999996704102,8|2,3:2|0:0,0:0:0:0:
202,187,76216,6,0,P|220:242|234:295,1,107.999996704102,8|0,3:2|0:0,0:0:0:0:
321,294,76448,6,0,P|303:349|299:363,1,53.9999983520508,8|0,3:2|0:0,0:0:0:0:
95,370,76603,6,0,P|48:307|86:192,2,180,6|2|2,3:1|0:0|0:0,0:0:0:0:
141,279,77376,1,2,0:0:0:0:
13,140,77530,1,10,0:0:0:0:
148,7,77685,6,0,B|254:26|199:75|307:93,1,180,6|0,3:1|3:2,0:0:0:0:
487,15,78304,1,0,3:2:0:0:
487,15,78381,1,0,3:2:0:0:
487,15,78458,1,10,3:3:0:0:
420,76,78613,1,10,3:3:0:0:
510,200,78768,2,0,P|496:247|484:303,1,90,14|0,0:0|0:0,0:0:0:0:
260,379,79077,5,6,3:1:0:0:
187,291,79231,1,10,0:0:0:0:
192,276,79309,1,8,0:0:0:0:
196,261,79386,2,0,P|204:234|210:211,1,49.5000015106202,10|8,3:2|0:0,0:0:0:0:
297,98,79540,1,10,0:0:0:0:
301,113,79618,1,8,0:0:0:0:
306,128,79695,2,0,P|314:155|320:178,1,49.5000015106202,10|8,3:2|0:0,0:0:0:0:
47,36,79850,1,8,0:0:0:0:
93,8,79927,1,8,0:0:0:0:
147,14,80004,1,10,3:2:0:0:
188,47,80081,1,8,0:0:0:0:
201,98,80159,6,0,B|283:75|352:60|352:60|377:92|419:93,1,225,6|8,3:1|0:0,0:0:0:0:
476,32,80546,1,8,0:0:0:0:
476,32,80623,2,0,P|493:57|496:104,1,56.25,10|8,3:2|0:0,0:0:0:0:
389,272,80778,1,8,0:0:0:0:
356,241,80855,1,8,0:0:0:0:
372,194,80933,6,0,P|403:186|434:178,1,60.7500002317429,10|8,3:3|3:3,0:0:0:0:
509,354,81087,2,0,P|478:346|447:338,1,60.7500002317429,10|8,3:3|3:3,0:0:0:0:
190,273,81242,2,0,P|254:242|232:336,1,182.250000695229,14|0,0:0|0:0,0:0:0:0:
100,384,81551,6,0,B|76:344|101:313|101:313|56:290|78:225,1,161.999995056153,6|0,3:1|0:0,0:0:0:0:
10,171,81860,2,0,P|48:122|107:115,1,107.999996704102,10|0,0:0|0:0,0:0:0:0:
178,153,82092,1,8,0:0:0:0:
178,153,82170,1,2,3:2:0:0:
299,78,82324,1,2,3:2:0:0:
93,10,82479,1,10,0:0:0:0:
282,195,82634,6,0,B|355:170|416:152|416:152|435:188|484:185,1,215.999993408203,6|0,3:1|3:2,0:0:0:0:
303,372,83097,1,8,0:0:0:0:
358,282,83252,1,2,0:0:0:0:
358,282,83329,1,8,0:0:0:0:
358,282,83407,1,2,3:2:0:0:
282,195,83561,1,0,3:2:0:0:
462,44,83716,1,10,0:0:0:0:
413,58,83793,1,8,0:0:0:0:
366,72,83870,1,8,0:0:0:0:
319,87,83947,1,8,0:0:0:0:
271,105,84025,5,6,3:1:0:0:
501,240,84180,1,2,3:2:0:0:
442,158,84335,5,10,0:0:0:0:
241,292,84489,1,2,3:2:0:0:
244,282,84567,1,2,3:2:0:0:
247,272,84644,5,10,3:2:0:0:
123,43,84799,1,10,0:0:0:0:
353,169,84953,1,10,0:0:0:0:
76,325,85108,6,0,B|139:310|199:342|155:361|216:398|292:370,1,215.999993408203,6|0,3:1|0:0,0:0:0:0:
256,192,85881,12,0,87814,0:0:0:0:
