osu file format v14

[General]
AudioFilename: audio.mp3
AudioLeadIn: 0
PreviewTime: 56268
Countdown: 0
SampleSet: Soft
StackLeniency: 0.7
Mode: 0
LetterboxInBreaks: 0
WidescreenStoryboard: 1

[Editor]
DistanceSpacing: 1.3
BeatDivisor: 4
GridSize: 32
TimelineZoom: 1.8

[Metadata]
Title:Gamushara (TV Size)
TitleUnicode:我武者羅 (TV Size)
Artist:CHiCO with HoneyWorks
ArtistUnicode:CHiCO with HoneyWorks
Creator:Smoke
Version:Hard
Source:BORUTO-ボルト- NARUTO NEXT GENERATIONS
Tags:anime pop j-pop jpop rock j-rock jrock japanese opening uzumaki boruto naruto uchiha sasuke PikAqours Nymphe Kiyoshi Guarden Reform Kujinn torriru
BeatmapID:3098725
BeatmapSetID:1513461

[Difficulty]
HPDrainRate:4.6
CircleSize:3.5
OverallDifficulty:6.6
ApproachRate:7.8
SliderMultiplier:1.3
SliderTickRate:1

[Events]
//Background and Video events
0,0,"naruto wallpaper boruto.jpg",0,0
Video,-316,"video.mp4"
//Break Periods
2,52060,53556
//Storyboard Layer 0 (Background)
//Storyboard Layer 1 (Fail)
//Storyboard Layer 2 (Pass)
//Storyboard Layer 3 (Foreground)
//Storyboard Layer 4 (Overlay)
//Storyboard Sound Samples

[TimingPoints]
-112,309.278350515464,4,2,1,70,1,0
661,-111.111111111111,4,2,1,45,0,0
1125,-111.111111111111,4,2,1,55,0,0
9645,309.278350515464,4,2,1,70,1,0
9645,-100,4,2,1,70,0,0
9799,309.278350515464,4,2,1,70,1,0
9799,-100,4,2,1,70,0,0
10262,-105.263157894737,4,2,1,70,0,0
11500,-100,4,2,1,75,0,0
12273,-90.9090909090909,4,2,1,80,0,0
17221,-111.111111111111,4,2,1,60,0,0
22170,-107.52688172043,4,2,1,63,0,0
24644,-104.166666666667,4,2,1,66,0,0
27118,-100,4,2,1,70,0,0
37015,-105.263157894737,4,2,1,60,0,0
40726,-100,4,2,1,65,0,0
41963,-105.263157894737,4,2,1,60,0,0
45675,-100,4,2,1,65,0,0
46912,-105.263157894737,4,2,1,60,0,0
50469,-100,4,2,1,70,0,0
51860,-111.111111111111,4,2,1,55,0,0
54335,-105.263157894737,4,2,1,75,0,0
55572,-100,4,2,1,80,0,0
56345,-111.111111111111,4,2,1,60,0,0
56809,-90.9090909090909,4,2,1,85,0,1
76603,-100,4,2,1,70,0,0
79077,-90.9090909090909,4,2,1,85,0,1
80159,-90.9090909090909,4,2,1,90,0,1
80933,-90.9090909090909,4,2,1,95,0,1
81551,-90.9090909090909,4,2,1,85,0,1
85108,-111.111111111111,4,2,1,80,0,0

[Colours]
Combo1 : 87,108,157
Combo2 : 235,136,46
Combo3 : 143,151,184
Combo4 : 231,48,66

[HitObjects]
387,300,661,6,0,P|410:306|445:316,2,58.4999982147217,2|2|2,0:0|0:0|0:0,0:0:0:0:
328,250,1125,6,0,P|301:258|263:270,1,58.4999982147217,2|0,0:0|0:0,0:0:0:0:
224,326,1434,2,0,P|202:319|166:310,1,58.4999982147217,2|0,0:0|0:0,0:0:0:0:
93,327,1743,2,0,P|85:274|29:236,1,116.999996429443,2|2,0:0|0:0,0:0:0:0:
1,170,2207,2,0,P|15:126|36:55,1,116.999996429443,2|0,0:0|0:0,0:0:0:0:
176,1,2826,2,0,B|245:8|221:35|288:43,1,116.999996429443,2|2,0:0|0:0,0:0:0:0:
335,98,3290,2,0,P|358:87|390:75,1,58.4999982147217,2|0,0:0|0:0,0:0:0:0:
449,121,3599,6,0,P|448:147|427:182,1,58.4999982147217,2|2,0:0|0:0,0:0:0:0:
364,207,3908,2,0,P|365:233|387:261,1,58.4999982147217,2|2,0:0|0:0,0:0:0:0:
451,293,4217,2,0,P|451:331|429:356,1,58.4999982147217,2|2,0:0|0:0,0:0:0:0:
370,371,4527,1,2,0:0:0:0:
370,371,4681,2,0,P|324:361|250:344,1,116.999996429443,2|0,0:0|0:0,0:0:0:0:
184,370,5145,1,2,0:0:0:0:
241,228,5455,2,0,P|194:239|119:257,1,116.999996429443,2|2,0:0|0:0,0:0:0:0:
42,128,6073,6,0,P|53:106|82:92,1,58.4999982147217,2|0,0:0|0:0,0:0:0:0:
119,25,6382,2,0,P|143:23|175:42,1,58.4999982147217,2|0,0:0|0:0,0:0:0:0:
246,17,6692,2,0,P|257:40|275:69,1,58.4999982147217,2|2,0:0|0:0,0:0:0:0:
353,85,7001,1,2,0:0:0:0:
353,85,7156,2,0,P|337:133|317:197,1,116.999996429443,2|0,0:0|0:0,0:0:0:0:
196,287,7774,1,2,0:0:0:0:
196,287,7929,2,0,P|173:279|134:288,2,58.4999982147217,2|2|2,0:0|0:0|0:0,0:0:0:0:
321,372,8547,5,0,0:0:0:0:
481,37,9645,5,0,3:2:0:0:
481,37,9722,1,0,3:2:0:0:
481,37,9799,1,10,3:2:0:0:
408,81,9953,1,10,3:2:0:0:
260,17,10262,2,0,P|234:24|190:37,1,61.7499983510971,2|2,0:0|0:0,0:0:0:0:
55,103,10726,2,0,P|81:110|120:119,1,61.7499983510971,2|2,0:0|0:0,0:0:0:0:
253,199,11190,2,0,P|227:206|190:216,1,61.7499983510971,2|2,0:0|0:0,0:0:0:0:
133,275,11500,1,0,3:2:0:0:
133,275,11577,1,0,3:2:0:0:
133,275,11654,2,0,P|126:305|137:341,1,65,8|0,0:0|3:2,0:0:0:0:
210,368,11963,2,0,P|225:363|246:360,3,32.5,8|8|8|8,3:2|0:0|3:2|0:0,0:0:0:0:
279,331,12273,6,0,P|311:340|355:350,1,71.5000021820069,6|0,3:1|0:0,0:0:0:0:
437,375,12582,2,0,P|456:352|462:301,1,71.5000021820069,10|0,0:0|0:0,0:0:0:0:
432,284,12814,1,8,0:0:0:0:
432,284,12891,2,0,P|416:256|420:210,1,71.5000021820069,2|2,3:2|3:2,0:0:0:0:
493,163,13201,1,8,0:0:0:0:
414,82,13355,6,0,P|379:93|327:106,1,71.5000021820069,6|0,3:2|0:0,0:0:0:0:
270,153,13664,2,0,P|235:142|183:129,1,71.5000021820069,2|8,3:2|0:0,0:0:0:0:
140,61,13974,1,2,0:0:0:0:
140,61,14051,1,8,0:0:0:0:
140,61,14128,2,0,P|106:64|67:91,1,71.5000021820069,2|2,3:2|3:2,0:0:0:0:
24,162,14438,1,10,0:0:0:0:
138,308,14747,6,0,P|172:297|213:287,1,71.5000021820069,14|0,0:0|3:2,0:0:0:0:
285,338,15056,2,0,P|319:327|360:317,1,71.5000021820069,10|0,0:0|3:2,0:0:0:0:
447,324,15366,2,0,P|444:285|417:250,1,71.5000021820069,10|2,0:0|3:2,0:0:0:0:
366,187,15675,1,8,0:0:0:0:
418,97,15829,6,0,P|384:81|341:85,1,71.5000021820069,6|0,3:2|0:0,0:0:0:0:
268,35,16139,2,0,P|262:17|254:-7,2,35.7500010910034,2|0|8,3:2|3:2|3:2,0:0:0:0:
223,119,16448,1,2,3:2:0:0:
223,119,16525,1,0,3:2:0:0:
223,119,16603,1,8,3:2:0:0:
289,183,16757,1,2,3:2:0:0:
215,240,16912,2,0,P|193:277|196:318,1,71.5000021820069,10|2,3:2|3:2,0:0:0:0:
111,360,17221,6,0,P|86:353|68:260,2,116.999996429443,2|2|2,0:0|0:0|0:0,0:0:0:0:
160,301,17994,1,2,0:0:0:0:
292,376,18304,2,0,B|360:363|336:343|399:330,1,116.999996429443,2|2,0:0|0:0,0:0:0:0:
471,352,18768,2,0,P|481:325|495:291,1,58.4999982147217,2|2,0:0|0:0,0:0:0:0:
459,228,19077,2,0,P|449:201|435:167,1,58.4999982147217,2|2,0:0|0:0,0:0:0:0:
493,121,19386,2,0,P|495:64|444:20,1,116.999996429443,2|0,0:0|0:0,0:0:0:0:
391,65,19850,1,2,0:0:0:0:
261,149,20159,1,2,0:0:0:0:
150,44,20469,1,2,0:0:0:0:
32,139,20778,6,0,B|67:185|67:185|40:260,1,116.999996429443,2|2,0:0|0:0,0:0:0:0:
107,286,21242,2,0,P|139:277|172:270,1,58.4999982147217,2|2,0:0|0:0,0:0:0:0:
222,222,21551,1,2,0:0:0:0:
222,222,21706,1,2,0:0:0:0:
357,311,22015,1,2,0:0:0:0:
357,311,22092,1,2,0:0:0:0:
357,311,22170,6,0,P|366:281|382:241,1,60.4500018909073,2|2,3:2|0:0,0:0:0:0:
450,224,22479,2,0,P|440:194|425:154,1,60.4500018909073,2|2,3:2|0:0,0:0:0:0:
461,94,22788,2,0,P|431:85|389:74,1,60.4500018909073,0|2,3:2|0:0,0:0:0:0:
357,19,23097,1,2,3:2:0:0:
357,19,23252,1,2,0:0:0:0:
284,50,23407,6,0,P|258:82|260:117,1,60.4500018909073,2|2,3:2|0:0,0:0:0:0:
178,114,23716,2,0,P|192:152|224:168,1,60.4500018909073,2|2,3:2|0:0,0:0:0:0:
182,237,24025,2,0,P|222:243|252:224,1,60.4500018909073,0|2,3:2|0:0,0:0:0:0:
313,207,24335,2,0,P|353:200|383:219,1,60.4500018909073,0|2,3:2|0:0,0:0:0:0:
426,273,24644,1,2,3:2:0:0:
426,273,24799,2,0,P|394:282|365:293,1,62.4000015234375,2|0,3:2|3:2,0:0:0:0:
302,342,25108,2,0,P|295:362|289:383,2,31.2000007617188,2|0|0,3:2|3:2|3:2,0:0:0:0:
247,282,25417,1,2,3:2:0:0:
168,330,25572,1,8,0:0:0:0:
62,277,25726,6,0,B|50:222|50:222|42:217|42:217|28:147,1,124.800003046875,6|10,3:2|0:0,0:0:0:0:
64,135,26113,1,8,0:0:0:0:
64,135,26190,2,0,P|68:120|74:99,3,31.2000007617188,8|0|0|0,3:2|3:2|3:2|3:2,0:0:0:0:
105,80,26500,2,0,P|101:65|95:44,3,31.2000007617188,8|8|10|8,3:2|3:3|3:3|3:3,0:0:0:0:
129,25,26809,1,10,3:2:0:0:
137,22,26886,1,8,0:0:0:0:
146,18,26963,1,10,0:0:0:0:
238,73,27118,6,0,P|269:65|315:58,1,65,6|0,3:1|0:0,0:0:0:0:
366,113,27427,2,0,P|372:148|346:187,1,65,10|0,0:0|0:0,0:0:0:0:
328,201,27659,1,8,0:0:0:0:
328,201,27737,2,0,P|322:236|348:275,1,65,2|2,3:2|3:2,0:0:0:0:
392,322,28046,1,8,0:0:0:0:
293,383,28201,6,0,B|222:374|246:353|170:346,1,130,6|0,3:2|3:2,0:0:0:0:
92,380,28664,2,0,P|81:348|70:314,1,65,10|2,0:0|0:0,0:0:0:0:
53,285,28896,1,8,0:0:0:0:
53,285,28974,2,0,P|63:248|75:215,1,65,2|0,3:2|3:2,3:2:0:0:
104,144,29283,2,0,P|163:134|227:181,1,130,10|4,0:0|3:2,0:0:0:0:
298,200,29747,6,0,P|337:189|385:180,1,65,2|8,0:0|0:0,0:0:0:0:
437,241,30056,1,2,0:0:0:0:
437,241,30134,1,8,0:0:0:0:
437,241,30211,2,0,P|479:235|502:208,1,65,2|0,3:2|3:2,0:0:0:0:
452,147,30520,1,10,0:0:0:0:
512,54,30675,6,0,P|467:45|372:26,1,130,6|2,3:2|3:2,0:0:0:0:
313,82,31139,2,0,P|281:92|242:102,1,65,10|2,0:0|0:0,0:0:0:0:
220,70,31371,1,8,0:0:0:0:
220,70,31448,2,0,P|184:61|145:53,1,65,2|2,3:2|3:2,0:0:0:0:
36,173,31912,1,8,0:0:0:0:
36,173,31989,1,8,0:0:0:0:
36,173,32067,5,6,3:2:0:0:
86,240,32221,2,0,P|96:276|106:313,1,65,2|8,0:0|0:0,0:0:0:0:
170,353,32530,2,0,P|165:372|160:394,2,32.5,2|8|0,0:0|0:0|3:2,0:0:0:0:
225,288,32840,1,2,3:2:0:0:
290,340,32994,1,10,0:0:0:0:
374,269,33149,6,0,B|450:250|431:303|506:286,1,130,6|2,3:2|3:2,0:0:0:0:
505,203,33613,1,10,0:0:0:0:
447,141,33768,2,0,L|403:153,2,32.5,2|8|0,0:0|0:0|3:2,0:0:0:0:
497,73,34077,1,2,3:2:0:0:
427,25,34231,1,10,0:0:0:0:
322,159,34541,5,6,3:2:0:0:
322,159,34695,2,0,P|323:197|304:227,1,65,2|8,3:2|0:0,0:0:0:0:
270,295,35005,2,0,L|260:344,2,32.5,2|0|8,3:2|3:2|0:0,0:0:0:0:
193,258,35314,1,2,3:2:0:0:
117,297,35469,1,8,0:0:0:0:
27,226,35623,6,0,B|43:167|43:167|51:164|51:164|67:106,1,130,6|0,3:2|3:2,0:0:0:0:
15,30,36087,2,0,P|43:14|92:17,1,65,12|0,0:0|0:0,0:0:0:0:
148,66,36396,2,0,P|153:93|160:121,2,43.3333333333333,8|0|0,3:3|3:2|3:2,0:0:0:0:
200,44,36706,2,0,P|205:17|212:-11,2,43.3333333333333,10|0|0,3:3|3:2|3:2,0:0:0:0:
246,71,37015,6,0,P|278:62|310:56,2,61.7499983510971,6|2|2,3:2|0:0|3:2,0:0:0:0:
233,150,37479,2,0,P|213:201|253:271,1,123.499996702194,2|2,0:0|0:0,0:0:0:0:
302,324,37943,1,0,3:2:0:0:
302,324,38097,6,0,P|337:331|371:341,1,61.7499983510971,2|0,0:0|3:2,0:0:0:0:
417,278,38407,2,0,P|452:270|486:261,1,61.7499983510971,2|0,0:0|3:2,0:0:0:0:
507,105,38871,2,0,P|502:76|475:42,1,61.7499983510971,2|2,3:2|0:0,0:0:0:0:
412,13,39180,2,0,P|394:38|389:68,1,61.7499983510971,0|10,3:2|0:0,0:0:0:0:
357,93,39412,1,8,0:0:0:0:
357,93,39489,5,6,3:2:0:0:
286,54,39644,2,0,L|207:76,2,61.7499983510971,2|0|8,0:0|3:2|3:3,0:0:0:0:
357,93,40108,2,0,L|436:115,1,61.7499983510971,2|10,3:2|3:3,0:0:0:0:
472,167,40417,1,10,0:0:0:0:
429,237,40572,1,2,3:2:0:0:
429,237,40649,1,0,3:2:0:0:
429,237,40726,6,0,P|397:247|358:260,1,65,4|2,3:2|0:0,0:0:0:0:
302,312,41036,2,0,P|271:301|231:289,1,65,0|2,3:2|0:0,0:0:0:0:
156,301,41345,2,0,B|124:339|124:339|144:395,2,97.4999999999999,10|10|10,0:0|0:0|0:0,0:0:0:0:
86,232,41963,6,0,P|72:171|56:109,2,123.499996702194,6|0|0,3:2|3:2|3:2,0:0:0:0:
39,298,42737,2,0,P|65:312|96:314,1,61.7499983510971,2|0,0:0|3:2,0:0:0:0:
162,360,43046,6,0,P|192:348|221:337,1,61.7499983510971,2|4,0:0|3:2,0:0:0:0:
288,378,43355,2,0,P|263:327|305:262,1,123.499996702194,2|8,0:0|0:0,0:0:0:0:
367,291,43819,2,0,P|396:299|430:307,1,61.7499983510971,0|8,3:2|3:3,0:0:0:0:
489,255,44128,1,2,3:2:0:0:
442,189,44283,1,2,3:2:0:0:
442,189,44360,1,0,3:2:0:0:
442,189,44438,6,0,P|459:164|459:115,1,61.7499983510971,6|2,3:2|0:0,0:0:0:0:
503,63,44747,1,0,3:2:0:0:
435,19,44902,2,0,P|404:30|365:41,1,61.7499983510971,2|0,3:2|3:2,0:0:0:0:
303,97,45211,2,0,P|272:85|233:75,1,61.7499983510971,10|0,0:0|3:2,0:0:0:0:
172,28,45520,1,10,0:0:0:0:
107,91,45675,6,0,P|113:109|119:129,3,32.5,10|8|8|8,3:2|0:0|0:0|0:0,0:0:0:0:
147,155,45984,2,0,P|141:173|135:193,3,32.5,10|8|8|8,3:2|0:0|0:0|0:0,0:0:0:0:
109,223,46293,1,10,3:2:0:0:
109,223,46371,1,8,0:0:0:0:
109,223,46448,1,8,0:0:0:0:
176,284,46603,1,14,0:0:0:0:
27,371,46912,6,0,P|21:342|12:307,2,61.7499983510971,6|2|2,3:2|0:0|3:2,0:0:0:0:
110,349,47376,2,0,P|144:360|182:369,1,61.7499983510971,2|0,0:0|3:2,0:0:0:0:
249,332,47685,2,0,P|283:320|321:312,1,61.7499983510971,2|0,0:0|3:2,0:0:0:0:
385,354,47994,6,0,P|378:372|372:397,2,30.8749991755486,2|0|0,3:2|3:2|3:2,0:0:0:0:
451,297,48304,2,0,P|431:272|429:217,1,61.7499983510971,2|0,0:0|3:2,0:0:0:0:
491,83,48768,2,0,P|459:74|423:62,1,61.7499983510971,2|2,3:2|3:2,0:0:0:0:
353,102,49077,1,2,3:2:0:0:
301,33,49231,6,0,P|304:14|319:-14,2,30.8749991755486,2|0|0,3:2|3:2|3:2,0:0:0:0:
223,72,49541,2,0,P|203:101|203:142,1,61.7499983510971,2|0,0:0|3:2,0:0:0:0:
45,47,50005,2,0,P|65:76|65:117,1,61.7499983510971,2|2,3:2|3:2,0:0:0:0:
43,138,50237,1,0,3:2:0:0:
43,138,50314,1,2,3:2:0:0:
124,216,50469,6,0,P|112:251|102:298,1,65,14|0,0:0|3:2,0:0:0:0:
186,333,50778,2,0,P|194:301|204:270,1,65,14|0,0:0|3:2,0:0:0:0:
301,264,51087,2,0,P|290:294|282:326,1,65,14|0,0:0|3:2,0:0:0:0:
371,384,51396,1,2,3:2:0:0:
371,384,51474,1,0,3:2:0:0:
371,384,51551,2,0,P|401:383|433:353,1,65,0|8,3:2|0:0,0:0:0:0:
474,279,51860,5,2,0:0:0:0:
68,344,54335,6,0,P|58:314|46:283,1,61.7499983510972,10|0,3:2|0:0,0:0:0:0:
189,47,54953,2,0,P|200:75|209:105,1,61.7499983510972,10|0,3:2|0:0,0:0:0:0:
446,277,55572,1,10,3:2:0:0:
446,277,55726,1,2,3:2:0:0:
500,195,55881,2,0,P|493:175|485:149,3,32.5,10|2|2|2,3:2|3:2|3:2|3:2,0:0:0:0:
453,131,56190,1,10,3:2:0:0:
453,131,56809,6,0,P|416:131|375:158,1,71.5000021820069,6|0,3:1|0:0,0:0:0:0:
312,204,57118,2,0,P|275:204|234:177,1,71.5000021820069,10|0,0:0|0:0,0:0:0:0:
215,160,57350,1,8,0:0:0:0:
215,160,57427,2,0,P|226:124|238:85,1,71.5000021820069,2|2,3:2|3:2,0:0:0:0:
172,22,57737,1,10,0:0:0:0:
76,82,57891,6,0,P|94:147|113:229,1,143.000004364014,6|0,3:1|3:2,0:0:0:0:
44,286,58355,1,8,0:0:0:0:
115,361,58510,1,2,0:0:0:0:
115,361,58587,1,8,0:0:0:0:
115,361,58664,2,0,P|156:343|200:327,1,71.5000021820069,0|2,3:2|3:2,0:0:0:0:
239,260,58974,1,10,0:0:0:0:
402,348,59283,6,0,P|409:312|425:258,1,71.5000021820069,6|2,3:1|0:0,0:0:0:0:
491,221,59592,2,0,P|483:185|468:131,1,71.5000021820069,10|2,0:0|0:0,0:0:0:0:
478,57,59902,2,0,P|443:60|401:95,1,71.5000021820069,2|2,3:2|3:2,0:0:0:0:
345,124,60211,1,10,0:0:0:0:
240,70,60366,6,0,B|156:83|189:110|94:125,1,143.000004364014,6|0,3:1|3:2,0:0:0:0:
34,173,60829,2,0,P|13:210|16:249,1,71.5000021820069,10|0,0:0|0:0,0:0:0:0:
36,284,61061,1,8,0:0:0:0:
36,284,61139,2,0,P|69:293|113:307,1,71.5000021820069,0|0,3:2|3:2,0:0:0:0:
181,356,61448,2,0,P|198:349|223:341,3,35.7500010910034,10|8|8|8,0:0|0:0|0:0|0:0,0:0:0:0:
248,310,61757,6,0,P|287:322|320:329,1,71.5000021820069,6|0,3:1|0:0,0:0:0:0:
401,369,62067,2,0,P|414:330|407:290,1,71.5000021820069,10|0,0:0|0:0,0:0:0:0:
391,265,62299,1,8,0:0:0:0:
391,265,62376,2,0,P|390:229|410:197,1,71.5000021820069,2|2,3:2|3:2,0:0:0:0:
484,149,62685,1,10,0:0:0:0:
414,60,62840,6,0,B|383:73|353:59|353:59|331:100|265:100,1,143.000004364014,6|0,3:1|3:2,0:0:0:0:
228,163,63304,1,8,0:0:0:0:
292,243,63458,1,2,0:0:0:0:
292,243,63536,1,8,0:0:0:0:
292,243,63613,2,0,P|279:283|272:322,1,71.5000021820069,0|2,3:2|3:2,0:0:0:0:
192,357,63922,1,10,0:0:0:0:
67,219,64231,6,0,P|107:212|140:182,1,71.5000021820069,6|2,3:1|3:2,0:0:0:0:
198,118,64541,2,0,P|158:111|125:81,1,71.5000021820069,10|2,0:0|3:2,0:0:0:0:
205,23,64850,1,10,0:0:0:0:
205,23,65005,1,2,3:2:0:0:
290,74,65159,1,10,0:0:0:0:
385,16,65314,6,0,B|416:56|416:56|383:158,1,143.000004364014,6|8,3:1|3:3,0:0:0:0:
415,192,65701,1,8,3:3:0:0:
415,192,65778,2,0,P|408:213|401:237,3,35.7500010910034,8|0|0|0,3:2|3:2|3:2|3:2,0:0:0:0:
439,262,66087,2,0,P|444:284|449:313,3,35.7500010910034,8|0|2|0,3:2|3:2|3:2|3:2,0:0:0:0:
463,354,66396,1,10,0:0:0:0:
463,354,66474,1,8,0:0:0:0:
463,354,66551,1,10,0:0:0:0:
343,329,66706,6,0,P|306:343|261:357,1,71.5000021820069,6|0,3:1|0:0,0:0:0:0:
201,296,67015,2,0,P|164:282|119:268,1,71.5000021820069,10|0,0:0|0:0,0:0:0:0:
93,293,67247,1,8,0:0:0:0:
93,293,67324,2,0,P|54:292|12:251,1,71.5000021820069,2|2,3:2|3:2,0:0:0:0:
0,189,67634,1,10,0:0:0:0:
95,118,67788,6,0,B|160:138|160:138|163:147|163:147|229:166,1,143.000004364014,6|0,3:1|3:2,0:0:0:0:
300,217,68252,1,8,0:0:0:0:
380,173,68407,1,2,0:0:0:0:
380,173,68484,1,8,0:0:0:0:
380,173,68561,2,0,P|386:132|360:92,1,71.5000021820069,0|2,3:2|3:2,0:0:0:0:
435,35,68871,1,10,0:0:0:0:
251,65,69180,6,0,P|214:72|170:83,1,71.5000021820069,6|2,3:1|0:0,0:0:0:0:
104,26,69489,1,10,0:0:0:0:
51,103,69644,1,2,0:0:0:0:
51,103,69721,1,10,0:0:0:0:
51,103,69799,2,0,P|36:145|57:188,1,71.5000021820069,2|2,3:2|3:2,0:0:0:0:
112,231,70108,1,10,0:0:0:0:
42,319,70262,6,0,B|125:330|96:359|190:368,1,143.000004364014,6|0,3:1|3:2,0:0:0:0:
252,313,70726,2,0,P|290:311|335:338,1,71.5000021820069,10|0,0:0|0:0,0:0:0:0:
362,361,70958,1,8,0:0:0:0:
362,361,71036,1,2,3:2:0:0:
437,307,71190,2,0,P|427:271|412:218,1,71.5000021820069,10|10,3:2|0:0,0:0:0:0:
479,169,71500,1,8,0:0:0:0:
479,169,71577,1,8,0:0:0:0:
479,169,71654,6,0,P|494:136|484:83,1,71.5000021820069,6|0,3:1|0:0,0:0:0:0:
429,32,71963,2,0,P|392:44|345:55,1,71.5000021820069,10|0,0:0|3:2,0:0:0:0:
282,98,72273,1,2,3:2:0:0:
282,98,72350,1,0,3:2:0:0:
282,98,72427,2,0,L|235:86,2,35.7500010910034,2|0|10,3:2|3:2|3:3,0:0:0:0:
370,174,72737,6,0,B|332:181|318:215|318:215|283:195|243:216,1,143.000004364014,6|0,3:1|3:2,0:0:0:0:
194,290,73201,2,0,P|159:281|112:273,1,71.5000021820069,8|2,0:0|0:0,0:0:0:0:
88,303,73433,1,8,0:0:0:0:
88,303,73510,2,0,P|58:282|45:227,1,71.5000021820069,0|2,3:2|3:2,0:0:0:0:
94,172,73819,1,10,0:0:0:0:
10,6,74128,6,0,P|45:15|105:29,1,71.5000021820069,6|2,3:1|3:2,3:2:0:0:
152,81,74438,2,0,P|184:72|236:58,1,71.5000021820069,10|2,0:0|3:2,0:0:0:0:
301,109,74747,1,10,0:0:0:0:
371,48,74902,1,8,0:0:0:0:
371,48,74979,1,8,0:0:0:0:
371,48,75056,1,10,0:0:0:0:
422,140,75211,6,0,B|447:187|447:187|418:278,1,143.000004364014,6|8,3:1|3:3,0:0:0:0:
463,356,75675,2,0,P|426:366|382:381,1,71.5000021820069,10|0,3:2|3:2,0:0:0:0:
355,360,75907,1,0,3:2:0:0:
355,360,75984,2,0,P|308:336|245:352,2,107.25000327301,8|8|8,3:2|3:2|3:2,0:0:0:0:
420,273,76603,6,0,P|403:213|384:134,1,130,6|2,3:1|0:0,0:0:0:0:
509,50,77221,2,0,P|477:42|438:29,1,65,2|2,0:0|0:0,0:0:0:0:
367,9,77530,1,10,0:0:0:0:
367,9,77685,2,0,P|326:46|240:45,1,130,6|0,3:1|3:2,0:0:0:0:
93,106,78304,2,0,P|79:102|50:94,2,32.5,0|0|10,3:2|3:2|3:3,0:0:0:0:
157,161,78613,1,10,3:3:0:0:
93,216,78768,2,0,P|74:249|74:287,1,65,14|0,0:0|0:0,0:0:0:0:
158,351,79077,6,0,P|187:334|242:338,1,71.5000021820069,6|10,3:1|0:0,0:0:0:0:
270,356,79309,1,8,0:0:0:0:
270,356,79386,2,0,P|302:372|351:363,1,71.5000021820069,10|10,3:2|0:0,0:0:0:0:
410,312,79695,2,0,P|401:279|392:237,1,71.5000021820069,10|8,3:2|0:0,0:0:0:0:
360,211,79927,1,8,0:0:0:0:
360,211,80005,1,10,3:2:0:0:
452,149,80159,6,0,P|476:98|423:27,1,143.000004364014,6|8,3:1|0:0,0:0:0:0:
338,71,80623,2,0,P|330:49|322:28,3,35.7500010910034,10|8|8|8,3:2|0:0|0:0|0:0,0:0:0:0:
283,17,80933,1,10,3:3:0:0:
276,21,81010,1,8,3:3:0:0:
269,25,81087,1,10,3:3:0:0:
181,70,81242,2,0,P|148:52|92:60,1,71.5000021820069,14|0,0:0|0:0,0:0:0:0:
21,134,81551,6,0,B|20:166|53:183|53:183|16:208|24:262,1,143.000004364014,6|10,3:1|0:0,0:0:0:0:
94,329,82015,1,0,0:0:0:0:
94,329,82092,1,8,0:0:0:0:
94,329,82170,2,0,P|130:317|169:309,1,71.5000021820069,2|2,3:2|3:2,0:0:0:0:
245,352,82479,1,10,0:0:0:0:
355,298,82634,6,0,P|316:249|339:165,1,143.000004364014,6|0,3:1|3:2,0:0:0:0:
417,141,83097,1,8,0:0:0:0:
399,59,83252,1,2,0:0:0:0:
399,59,83329,1,8,0:0:0:0:
399,59,83407,1,2,3:2:0:0:
224,122,83716,2,0,P|202:114|174:108,3,35.7500010910034,10|8|8|8,0:0|0:0|0:0|0:0,0:0:0:0:
152,139,84025,6,0,P|130:174|135:215,1,71.5000021820069,6|2,3:1|3:2,0:0:0:0:
211,251,84335,1,10,0:0:0:0:
144,314,84489,1,2,3:2:0:0:
144,314,84567,1,2,3:2:0:0:
144,314,84644,2,0,P|107:304|68:295,1,71.5000021820069,10|10,3:2|0:0,0:0:0:0:
7,232,84953,1,10,0:0:0:0:
58,135,85108,6,0,B|128:115|186:161|139:175|199:218|280:189,1,233.999992858887,6|0,3:1|0:0,0:0:0:0:
256,192,85881,12,0,87814,0:0:0:0:
