osu file format v14

[General]
AudioFilename: audio.mp3
AudioLeadIn: 0
PreviewTime: 56268
Countdown: 0
SampleSet: Soft
StackLeniency: 0.7
Mode: 0
LetterboxInBreaks: 0
WidescreenStoryboard: 1

[Editor]
DistanceSpacing: 1
BeatDivisor: 4
GridSize: 32
TimelineZoom: 1.8

[Metadata]
Title:Gamushara (TV Size)
TitleUnicode:我武者羅 (TV Size)
Artist:CHiCO with HoneyWorks
ArtistUnicode:CHiCO with HoneyWorks
Creator:Smoke
Version:Easy
Source:BORUTO-ボルト- NARUTO NEXT GENERATIONS
Tags:anime pop j-pop jpop rock j-rock jrock japanese opening uzumaki boruto naruto uchiha sasuke PikAqours Nymphe Kiyoshi Guarden Reform Kujinn torriru
BeatmapID:3098724
BeatmapSetID:1513461

[Difficulty]
HPDrainRate:3
CircleSize:3
OverallDifficulty:3
ApproachRate:4
SliderMultiplier:0.799999999999999
SliderTickRate:1

[Events]
//Background and Video events
0,0,"naruto wallpaper boruto.jpg",0,0
Video,-316,"video.mp4"
//Break Periods
2,17421,20850
//Storyboard Layer 0 (Background)
//Storyboard Layer 1 (Fail)
//Storyboard Layer 2 (Pass)
//Storyboard Layer 3 (Foreground)
//Storyboard Layer 4 (Overlay)
//Storyboard Sound Samples

[TimingPoints]
-112,309.278350515464,4,2,1,70,1,0
661,-100,4,2,1,45,0,0
1125,-100,4,2,1,55,0,0
9645,309.278350515464,4,2,1,70,1,0
9645,-100,4,2,1,70,0,0
9799,309.278350515464,4,2,1,70,1,0
9799,-100,4,2,1,70,0,0
10262,-100,4,2,1,70,0,0
11500,-100,4,2,1,75,0,0
12273,-100,4,2,1,80,0,0
17221,-100,4,2,1,60,0,0
22170,-100,4,2,1,63,0,0
24644,-100,4,2,1,66,0,0
27118,-100,4,2,1,70,0,0
37015,-100,4,2,1,60,0,0
40726,-100,4,2,1,65,0,0
41963,-100,4,2,1,60,0,0
45675,-100,4,2,1,65,0,0
46912,-100,4,2,1,60,0,0
50469,-100,4,2,1,70,0,0
51860,-100,4,2,1,55,0,0
54335,-100,4,2,1,75,0,0
55572,-100,4,2,1,80,0,0
56345,-100,4,2,1,60,0,0
56809,-100,4,2,1,85,0,1
76603,-100,4,2,1,70,0,0
79077,-100,4,2,1,85,0,1
80159,-100,4,2,1,90,0,1
80933,-100,4,2,1,95,0,1
81551,-100,4,2,1,85,0,1
85108,-100,4,2,1,80,0,0

[Colours]
Combo1 : 87,108,157
Combo2 : 235,136,46
Combo3 : 143,151,184
Combo4 : 231,48,66

[HitObjects]
45,296,1125,6,0,P|79:274|121:276,1,79.9999999999999,2|2,0:0|0:0,0:0:0:0:
186,315,1743,1,2,0:0:0:0:
285,247,2207,2,0,P|343:262|379:269,1,79.9999999999999,2|0,0:0|0:0,0:0:0:0:
428,220,2826,2,0,P|439:158|399:107,1,120,2|2,0:0|0:0,0:0:0:0:
346,62,3599,2,0,P|307:78|260:91,1,79.9999999999999,2|2,0:0|0:0,0:0:0:0:
212,33,4217,1,2,0:0:0:0:
104,85,4681,2,0,B|64:133|64:133|89:187,1,120,2|2,0:0|0:0,0:0:0:0:
133,251,5455,1,2,0:0:0:0:
75,308,5764,1,2,0:0:0:0:
135,359,6073,6,0,P|169:347|216:332,1,79.9999999999999,2|2,0:0|0:0,0:0:0:0:
271,280,6692,1,2,0:0:0:0:
372,343,7156,2,0,P|394:314|394:261,1,79.9999999999999,2|0,0:0|0:0,0:0:0:0:
461,170,7929,2,0,P|448:133|434:89,1,79.9999999999999,2|2,0:0|0:0,0:0:0:0:
467,20,8547,1,0,0:0:0:0:
143,5,9799,6,0,L|153:46,1,40,10|10,3:2|3:2,0:0:0:0:
50,324,11654,1,8,0:0:0:0:
122,290,11963,1,8,3:2:0:0:
181,343,12273,6,0,P|221:334|262:326,1,79.9999999999999,6|10,3:1|0:0,0:0:0:0:
331,359,12891,2,0,P|372:359|414:324,1,79.9999999999999,2|8,3:2|0:0,0:0:0:0:
429,307,13355,1,6,3:2:0:0:
387,238,13664,2,0,P|396:201|408:144,1,79.9999999999999,2|2,3:2|0:0,0:0:0:0:
436,135,14128,2,0,P|447:100|422:52,1,79.9999999999999,2|10,3:2|0:0,0:0:0:0:
361,22,14747,5,14,0:0:0:0:
295,68,15056,1,10,0:0:0:0:
320,143,15366,2,0,P|311:180|299:237,1,79.9999999999999,10|8,0:0|0:0,0:0:0:0:
294,260,15829,1,6,3:2:0:0:
329,331,16139,2,0,P|298:360|251:360,1,79.9999999999999,2|2,3:2|3:2,0:0:0:0:
229,339,16603,1,8,3:2:0:0:
156,372,16912,1,10,3:2:0:0:
96,318,17221,5,2,0:0:0:0:
355,142,22170,6,0,P|362:105|375:55,1,79.9999999999999,2|2,3:2|3:2,0:0:0:0:
314,8,22788,2,0,P|275:17|235:25,1,79.9999999999999,0|2,3:2|3:2,0:0:0:0:
199,96,23407,2,0,P|206:133|219:183,1,79.9999999999999,2|2,3:2|3:2,0:0:0:0:
158,230,24025,2,0,P|119:220|79:212,1,79.9999999999999,0|0,3:2|3:2,0:0:0:0:
29,150,24644,5,2,3:2:0:0:
109,60,25108,1,2,3:2:0:0:
176,102,25417,1,2,3:2:0:0:
237,50,25726,2,0,B|291:59|291:59|296:65|296:65|359:76,1,120,6|8,3:2|3:2,0:0:0:0:
422,34,26500,1,8,3:2:0:0:
486,80,26809,1,10,3:2:0:0:
456,154,27118,6,0,P|468:197|476:236,1,79.9999999999999,6|10,3:1|0:0,0:0:0:0:
496,308,27737,2,0,P|471:337|417:345,1,79.9999999999999,2|8,3:2|0:0,0:0:0:0:
395,329,28201,2,0,P|354:338|271:358,1,120,6|10,3:2|0:0,0:0:0:0:
219,301,28974,1,2,3:2:0:0:
274,242,29283,2,0,P|263:199|253:154,1,79.9999999999999,10|4,0:0|3:2,0:0:0:0:
282,134,29747,5,2,0:0:0:0:
199,46,30211,2,0,L|117:72,1,79.9999999999999,2|10,3:2|0:0,0:0:0:0:
86,53,30675,2,0,P|43:86|39:156,1,120,6|10,3:2|0:0,0:0:0:0:
91,207,31448,1,2,3:2:0:0:
46,273,31757,1,8,0:0:0:0:
103,328,32067,6,0,B|173:330|152:355|220:357,1,120,6|2,3:2|0:0,0:0:0:0:
271,297,32840,1,2,3:2:0:0:
340,337,33149,2,0,P|386:310|399:243,1,120,6|10,3:2|0:0,0:0:0:0:
352,183,33922,1,0,3:2:0:0:
401,120,34231,1,10,0:0:0:0:
350,57,34541,6,0,L|264:78,1,79.9999999999999,6|8,3:2|0:0,0:0:0:0:
233,86,35005,1,2,3:2:0:0:
163,46,35314,1,2,3:2:0:0:
103,98,35623,2,0,P|95:143|79:218,1,120,6|12,3:2|0:0,0:0:0:0:
133,275,36396,2,0,P|172:279|213:254,1,79.9999999999999,8|10,3:3|3:3,0:0:0:0:
277,222,37015,6,0,P|336:235|408:251,1,120,6|2,3:2|0:0,0:0:0:0:
458,200,37788,1,2,0:0:0:0:
415,132,38097,2,0,P|426:92|436:47,1,79.9999999999999,2|2,0:0|0:0,0:0:0:0:
324,4,38871,2,0,P|285:4|243:34,1,79.9999999999999,2|0,3:2|3:2,0:0:0:0:
196,83,39489,5,6,3:2:0:0:
299,204,40108,2,0,P|287:248|276:289,1,79.9999999999999,2|10,3:2|0:0,0:0:0:0:
252,357,40726,1,4,3:2:0:0:
118,269,41345,2,0,P|98:299|98:333,2,59.9999999999999,10|10|10,0:0|0:0|0:0,0:0:0:0:
122,229,41963,6,0,P|104:173|167:95,1,160,6|0,3:2|3:2,0:0:0:0:
216,39,42891,1,0,3:2:0:0:
283,81,43201,2,0,P|334:68|377:61,1,79.9999999999999,0|0,3:2|3:2,0:0:0:0:
495,149,44128,1,2,3:2:0:0:
436,203,44438,6,0,P|419:252|447:312,1,120,6|2,3:2|3:2,0:0:0:0:
386,365,45211,1,10,0:0:0:0:
316,324,45520,2,0,P|256:343|187:361,1,120,10|10,0:0|3:2,0:0:0:0:
145,299,46293,1,10,3:2:0:0:
186,230,46603,1,14,0:0:0:0:
265,240,46912,6,0,P|318:226|389:207,1,120,6|2,3:2|0:0,0:0:0:0:
447,254,47685,1,2,0:0:0:0:
502,196,47994,2,0,P|504:158|478:117,1,79.9999999999999,2|2,3:2|0:0,0:0:0:0:
386,51,48768,1,2,3:2:0:0:
330,108,49077,1,2,3:2:0:0:
253,83,49386,6,0,P|212:94|163:105,1,79.9999999999999,0|0,3:2|3:2,0:0:0:0:
113,51,50005,2,0,P|72:76|59:114,1,79.9999999999999,2|2,3:2|3:2,0:0:0:0:
48,142,50469,1,14,0:0:0:0:
103,199,50778,1,14,0:0:0:0:
60,266,51087,1,14,0:0:0:0:
105,331,51396,2,0,B|174:337|152:356|220:363,1,120,2|2,3:2|0:0,0:0:0:0:
219,362,54335,5,10,3:2:0:0:
328,245,54953,1,10,3:2:0:0:
218,128,55572,1,10,3:2:0:0:
278,75,55881,1,10,3:2:0:0:
232,9,56190,1,10,3:2:0:0:
93,89,56809,5,6,3:1:0:0:
127,161,57118,1,10,0:0:0:0:
80,226,57427,2,0,P|101:260|152:271,1,79.9999999999999,2|10,3:2|0:0,0:0:0:0:
162,303,57891,2,0,P|199:293|252:281,1,79.9999999999999,6|0,3:1|3:2,0:0:0:0:
309,323,58510,2,0,P|348:312|397:302,1,79.9999999999999,2|2,0:0|3:2,0:0:0:0:
423,318,58974,1,10,0:0:0:0:
481,263,59283,5,6,3:1:0:0:
437,196,59592,1,10,0:0:0:0:
488,134,59902,2,0,P|492:98|467:54,1,79.9999999999999,2|10,3:2|0:0,0:0:0:0:
436,41,60366,2,0,B|388:74|388:74|328:56,1,120,6|10,3:1|0:0,0:0:0:0:
254,25,61139,1,2,3:2:0:0:
198,82,61448,1,10,0:0:0:0:
249,142,61757,5,6,3:1:0:0:
216,215,62067,1,10,0:0:0:0:
276,267,62376,2,0,P|278:309|251:355,1,79.9999999999999,2|10,3:2|0:0,0:0:0:0:
226,360,62840,2,0,B|192:360|179:332|179:332|154:355|112:348,1,120,6|8,3:1|0:0,0:0:0:0:
52,308,63613,2,0,P|44:270|62:233,1,79.9999999999999,0|10,3:2|0:0,0:0:0:0:
115,175,64231,5,6,3:1:0:0:
72,107,64541,1,10,0:0:0:0:
133,56,64850,2,0,P|171:65|217:75,1,79.9999999999999,10|10,0:0|0:0,0:0:0:0:
242,96,65314,2,0,B|277:75|277:75|361:95,1,120,6|8,3:1|3:2,0:0:0:0:
336,173,66087,2,0,P|324:216|316:255,1,79.9999999999999,8|10,3:2|0:0,0:0:0:0:
369,310,66706,5,6,3:1:0:0:
446,291,67015,1,10,0:0:0:0:
475,216,67324,2,0,P|466:176|455:138,1,79.9999999999999,2|10,3:2|0:0,0:0:0:0:
480,107,67788,2,0,P|477:66|409:18,1,120,6|8,3:1|0:0,0:0:0:0:
358,71,68561,1,0,3:2:0:0:
287,33,68871,1,10,0:0:0:0:
227,86,69180,5,6,3:1:0:0:
257,159,69489,1,10,0:0:0:0:
210,224,69799,2,0,P|223:265|234:307,1,79.9999999999999,2|10,3:2|0:0,0:0:0:0:
198,330,70262,2,0,P|161:312|116:317,1,79.9999999999999,6|0,3:1|3:2,0:0:0:0:
90,337,70726,1,10,0:0:0:0:
38,275,71036,1,2,3:2:0:0:
88,212,71345,1,10,0:0:0:0:
29,157,71654,6,0,B|49:123|49:123|35:82,1,79.9999999999999,6|10,3:1|0:0,0:0:0:0:
89,25,72273,2,0,P|123:44|172:45,1,79.9999999999999,2|10,3:2|3:3,0:0:0:0:
188,77,72737,2,0,P|231:50|306:59,1,120,6|8,3:1|0:0,0:0:0:0:
355,111,73510,1,0,3:2:0:0:
422,68,73819,1,10,0:0:0:0:
485,116,74128,5,6,3:1:0:0:
456,190,74438,1,10,0:0:0:0:
498,257,74747,2,0,L|481:335,1,79.9999999999999,10|10,0:0|0:0,0:0:0:0:
445,354,75211,2,0,B|411:335|411:335|325:358,1,120,6|8,3:1|3:2,0:0:0:0:
268,308,75984,2,0,P|239:315|198:326,2,59.9999999999999,8|8|8,3:2|3:2|3:2,0:0:0:0:
285,271,76603,5,6,3:1:0:0:
504,93,77685,2,0,P|455:93|422:70,1,79.9999999999999,6|0,3:1|3:2,0:0:0:0:
330,9,78458,1,10,3:3:0:0:
264,55,78768,1,14,0:0:0:0:
307,122,79077,5,6,3:1:0:0:
261,188,79386,1,10,3:2:0:0:
295,260,79695,2,0,P|279:303|270:335,1,79.9999999999999,10|10,3:2|3:2,0:0:0:0:
232,349,80159,2,0,B|197:330|197:330|149:345,1,79.9999999999999,6|8,3:1|0:0,0:0:0:0:
121,357,80623,1,10,3:2:0:0:
43,378,80933,1,10,3:3:0:0:
0,310,81242,1,14,0:0:0:0:
41,241,81551,6,0,P|22:205|32:154,1,79.9999999999999,6|10,3:1|0:0,0:0:0:0:
84,112,82170,2,0,P|125:124|170:135,1,79.9999999999999,2|10,3:2|0:0,0:0:0:0:
189,161,82634,2,0,B|218:163|235:137|235:137|263:157|304:142,1,120,6|8,3:1|0:0,0:0:0:0:
350,84,83407,1,2,3:2:0:0:
418,125,83716,1,10,0:0:0:0:
386,198,84025,5,6,3:1:0:0:
441,256,84335,1,10,0:0:0:0:
400,325,84644,2,0,P|361:330|319:338,1,79.9999999999999,10|10,3:2|0:0,0:0:0:0:
281,345,85108,1,6,3:1:0:0:
256,192,85262,12,0,87814,0:0:0:0:
